  0
SECTION
  2
HEADER
  9
$ACADVER
  1
AC1012
  9
$DWGCODEPAGE
  3
dos932
  9
$INSBASE
 10
0.0
 20
0.0
 30
0.0
  9
$EXTMIN
 10
3.1085205
 20
13.87881179999999
 30
0.0
  9
$EXTMAX
 10
574.4525095184997
 20
412.8788118000001
 30
0.0
  9
$LIMMIN
 10
0.0
 20
9.0
  9
$LIMMAX
 10
630.0
 20
454.4999999999998
  9
$ORTHOMODE
 70
     1
  9
$REGENMODE
 70
     1
  9
$FILLMODE
 70
     1
  9
$QTEXTMODE
 70
     0
  9
$MIRRTEXT
 70
     1
  9
$DRAGMODE
 70
     2
  9
$LTSCALE
 40
12.6
  9
$OSMODE
 70
    39
  9
$ATTMODE
 70
     1
  9
$TEXTSIZE
 40
0.2
  9
$TRACEWID
 40
0.05
  9
$TEXTSTYLE
  7
STANDARD
  9
$CLAYER
  8
0
  9
$CELTYPE
  6
CONTINUOUS
  9
$CECOLOR
 62
   256
  9
$CELTSCALE
 40
1.0
  9
$DELOBJ
 70
     1
  9
$DISPSILH
 70
     0
  9
$DIMSCALE
 40
1.0
  9
$DIMASZ
 40
0.18
  9
$DIMEXO
 40
0.0625
  9
$DIMDLI
 40
0.38
  9
$DIMRND
 40
0.0
  9
$DIMDLE
 40
0.0
  9
$DIMEXE
 40
0.18
  9
$DIMTP
 40
0.0
  9
$DIMTM
 40
0.0
  9
$DIMTXT
 40
0.18
  9
$DIMCEN
 40
0.09
  9
$DIMTSZ
 40
0.0
  9
$DIMTOL
 70
     0
  9
$DIMLIM
 70
     0
  9
$DIMTIH
 70
     1
  9
$DIMTOH
 70
     1
  9
$DIMSE1
 70
     0
  9
$DIMSE2
 70
     0
  9
$DIMTAD
 70
     0
  9
$DIMZIN
 70
     0
  9
$DIMBLK
  1

  9
$DIMASO
 70
     1
  9
$DIMSHO
 70
     1
  9
$DIMPOST
  1

  9
$DIMAPOST
  1

  9
$DIMALT
 70
     0
  9
$DIMALTD
 70
     2
  9
$DIMALTF
 40
25.4
  9
$DIMLFAC
 40
1.0
  9
$DIMTOFL
 70
     0
  9
$DIMTVP
 40
0.0
  9
$DIMTIX
 70
     0
  9
$DIMSOXD
 70
     0
  9
$DIMSAH
 70
     0
  9
$DIMBLK1
  1

  9
$DIMBLK2
  1

  9
$DIMSTYLE
  2
STANDARD
  9
$DIMCLRD
 70
     0
  9
$DIMCLRE
 70
     0
  9
$DIMCLRT
 70
     0
  9
$DIMTFAC
 40
1.0
  9
$DIMGAP
 40
0.09
  9
$DIMJUST
 70
     0
  9
$DIMSD1
 70
     0
  9
$DIMSD2
 70
     0
  9
$DIMTOLJ
 70
     1
  9
$DIMTZIN
 70
     0
  9
$DIMALTZ
 70
     0
  9
$DIMALTTZ
 70
     0
  9
$DIMFIT
 70
     3
  9
$DIMUPT
 70
     0
  9
$DIMUNIT
 70
     2
  9
$DIMDEC
 70
     4
  9
$DIMTDEC
 70
     4
  9
$DIMALTU
 70
     2
  9
$DIMALTTD
 70
     2
  9
$DIMTXSTY
  7
STANDARD
  9
$DIMAUNIT
 70
     0
  9
$LUNITS
 70
     2
  9
$LUPREC
 70
     4
  9
$SKETCHINC
 40
0.1
  9
$FILLETRAD
 40
0.0
  9
$AUNITS
 70
     0
  9
$AUPREC
 70
     0
  9
$MENU
  1
.
  9
$ELEVATION
 40
0.0
  9
$PELEVATION
 40
0.0
  9
$THICKNESS
 40
0.0
  9
$LIMCHECK
 70
     0
  9
$BLIPMODE
 70
     0
  9
$CHAMFERA
 40
0.0
  9
$CHAMFERB
 40
0.0
  9
$CHAMFERC
 40
0.0
  9
$CHAMFERD
 40
0.0
  9
$SKPOLY
 70
     0
  9
$TDCREATE
 40
2453692.801021226
  9
$TDUPDATE
 40
2454231.917938564
  9
$TDINDWG
 40
0.1264728356
  9
$TDUSRTIMER
 40
0.1264710995
  9
$USRTIMER
 70
     1
  9
$ANGBASE
 50
0.0
  9
$ANGDIR
 70
     0
  9
$PDMODE
 70
     0
  9
$PDSIZE
 40
0.0
  9
$PLINEWID
 40
0.0
  9
$COORDS
 70
     1
  9
$SPLFRAME
 70
     0
  9
$SPLINETYPE
 70
     6
  9
$SPLINESEGS
 70
     8
  9
$ATTDIA
 70
     0
  9
$ATTREQ
 70
     1
  9
$HANDLING
 70
-16383
  9
$HANDSEED
  5
64B
  9
$SURFTAB1
 70
     6
  9
$SURFTAB2
 70
     6
  9
$SURFTYPE
 70
     6
  9
$SURFU
 70
     6
  9
$SURFV
 70
     6
  9
$UCSNAME
  2

  9
$UCSORG
 10
0.0
 20
0.0
 30
0.0
  9
$UCSXDIR
 10
1.0
 20
0.0
 30
0.0
  9
$UCSYDIR
 10
0.0
 20
1.0
 30
0.0
  9
$PUCSNAME
  2

  9
$PUCSORG
 10
0.0
 20
0.0
 30
0.0
  9
$PUCSXDIR
 10
1.0
 20
0.0
 30
0.0
  9
$PUCSYDIR
 10
0.0
 20
1.0
 30
0.0
  9
$USERI1
 70
     0
  9
$USERI2
 70
     0
  9
$USERI3
 70
     0
  9
$USERI4
 70
     0
  9
$USERI5
 70
     0
  9
$USERR1
 40
0.0
  9
$USERR2
 40
0.0
  9
$USERR3
 40
0.0
  9
$USERR4
 40
0.0
  9
$USERR5
 40
0.0
  9
$WORLDVIEW
 70
     1
  9
$SHADEDGE
 70
     3
  9
$SHADEDIF
 70
    70
  9
$TILEMODE
 70
     1
  9
$MAXACTVP
 70
    64
  9
$PINSBASE
 10
0.0
 20
0.0
 30
0.0
  9
$PLIMCHECK
 70
     0
  9
$PEXTMIN
 10
1.000000000000000E+20
 20
1.000000000000000E+20
 30
1.000000000000000E+20
  9
$PEXTMAX
 10
-1.000000000000000E+20
 20
-1.000000000000000E+20
 30
-1.000000000000000E+20
  9
$PLIMMIN
 10
0.0
 20
0.0
  9
$PLIMMAX
 10
12.0
 20
9.0
  9
$UNITMODE
 70
     0
  9
$VISRETAIN
 70
     1
  9
$PLINEGEN
 70
     0
  9
$PSLTSCALE
 70
     1
  9
$TREEDEPTH
 70
  3020
  9
$PICKSTYLE
 70
     1
  9
$CMLSTYLE
  2
STANDARD
  9
$CMLJUST
 70
     0
  9
$CMLSCALE
 40
1.0
  9
$SAVEIMAGES
 70
     1
  0
ENDSEC
  0
SECTION
  2
CLASSES
  0
CLASS
  1
ACDBDICTIONARYWDFLT
  2
AcDbDictionaryWithDefault
  3
AutoCAD 2000
 90
    32768
280
     0
281
     0
  0
CLASS
  1
ACDBPLACEHOLDER
  2
AcDbPlaceHolder
  3
AutoCAD 2000
 90
    32768
280
     0
281
     0
  0
CLASS
  1
LAYOUT
  2
AcDbLayout
  3
AutoCAD 2000
 90
    32768
280
     0
281
     0
  0
CLASS
  1
LONG_TRANSACTION
  2
AcDbLongTransaction
  3
AutoCAD 2000
 90
    32768
280
     0
281
     0
  0
CLASS
  1
LWPOLYLINE
  2
AcDbPolyline
  3
AutoCAD 2000
 90
    32768
280
     0
281
     1
  0
CLASS
  1
HATCH
  2
AcDbHatch
  3
AutoCAD 2000
 90
    32768
280
     0
281
     1
  0
CLASS
  1
XRECORD
  2
AcDbXrecord
  3
AutoCAD 2000
 90
    32768
280
     0
281
     0
  0
CLASS
  1
LONG_TRANSACTION
  2
AcDbLongTransaction
  3
AutoCAD 2000
 90
    32768
280
     0
281
     0
  0
CLASS
  1
LWPOLYLINE
  2
AcDbPolyline
  3
AutoCAD 2000
 90
    32768
280
     0
281
     1
  0
CLASS
  1
HATCH
  2
AcDbHatch
  3
AutoCAD 2000
 90
    32768
280
     0
281
     1
  0
CLASS
  1
XRECORD
  2
AcDbXrecord
  3
AutoCAD 2000
 90
    32768
280
     0
281
     0
  0
CLASS
  1
LONG_TRANSACTION
  2
AcDbLongTransaction
  3
AutoCAD 2000
 90
    32768
280
     0
281
     0
  0
CLASS
  1
LWPOLYLINE
  2
AcDbPolyline
  3
AutoCAD 2000
 90
    32768
280
     0
281
     1
  0
CLASS
  1
HATCH
  2
AcDbHatch
  3
AutoCAD 2000
 90
    32768
280
     0
281
     1
  0
CLASS
  1
XRECORD
  2
AcDbXrecord
  3
AutoCAD 2000
 90
    32768
280
     0
281
     0
  0
ENDSEC
  0
SECTION
  2
TABLES
  0
TABLE
  2
VPORT
  5
8
330
0
100
AcDbSymbolTable
 70
     9
  0
VPORT
  5
635
330
8
100
AcDbSymbolTableRecord
100
AcDbViewportTableRecord
  2
*ACTIVE
 70
     0
 10
0.0
 20
0.0
 11
1.0
 21
1.0
 12
297.2333998043021
 22
211.7612802480882
 13
0.0
 23
0.0
 14
1.0
 24
1.0
 15
0.0
 25
0.0
 16
0.0
 26
0.0
 36
1.0
 17
0.0
 27
0.0
 37
0.0
 40
429.7600835552359
 41
1.75
 42
50.0
 43
0.0
 44
0.0
 50
0.0
 51
0.0
 71
     0
 72
   100
 73
     1
 74
     1
 75
     0
 76
     0
 77
     0
 78
     0
  0
ENDTAB
  0
TABLE
  2
LTYPE
  5
5
330
0
100
AcDbSymbolTable
 70
    25
  0
LTYPE
  5
12
330
5
100
AcDbSymbolTableRecord
100
AcDbLinetypeTableRecord
  2
BYBLOCK
 70
     0
  3

 72
    65
 73
     0
 40
0.0
  0
LTYPE
  5
13
330
5
100
AcDbSymbolTableRecord
100
AcDbLinetypeTableRecord
  2
BYLAYER
 70
     0
  3

 72
    65
 73
     0
 40
0.0
  0
LTYPE
  5
14
330
5
100
AcDbSymbolTableRecord
100
AcDbLinetypeTableRecord
  2
CONTINUOUS
 70
     0
  3
Solid line
 72
    65
 73
     0
 40
0.0
  0
LTYPE
  5
20
330
5
100
AcDbSymbolTableRecord
100
AcDbLinetypeTableRecord
  2
BORDER
 70
     0
  3
__ __ . __ __ . __ __ . __ __ . __ __ . __ __ .
 72
    65
 73
     6
 40
1.75
 49
0.5
 74
     0
 49
-0.25
 74
     0
 49
0.5
 74
     0
 49
-0.25
 74
     0
 49
0.0
 74
     0
 49
-0.25
 74
     0
  0
LTYPE
  5
21
330
5
100
AcDbSymbolTableRecord
100
AcDbLinetypeTableRecord
  2
BORDER2
 70
     0
  3
__.__.__.__.__.__.__.__.__.__.__.__.__.__.__.__
 72
    65
 73
     6
 40
0.875
 49
0.25
 74
     0
 49
-0.125
 74
     0
 49
0.25
 74
     0
 49
-0.125
 74
     0
 49
0.0
 74
     0
 49
-0.125
 74
     0
  0
LTYPE
  5
22
330
5
100
AcDbSymbolTableRecord
100
AcDbLinetypeTableRecord
  2
BORDERX2
 70
     0
  3
____  ____  .  ____  ____  .  ____  ____  .  __
 72
    65
 73
     6
 40
3.5
 49
1.0
 74
     0
 49
-0.5
 74
     0
 49
1.0
 74
     0
 49
-0.5
 74
     0
 49
0.0
 74
     0
 49
-0.5
 74
     0
  0
LTYPE
  5
23
330
5
100
AcDbSymbolTableRecord
100
AcDbLinetypeTableRecord
  2
CENTER
 70
     0
  3
____ _ ____ _ ____ _ ____ _ ____ _ ____ _ ____ 
 72
    65
 73
     4
 40
2.0
 49
1.25
 74
     0
 49
-0.25
 74
     0
 49
0.25
 74
     0
 49
-0.25
 74
     0
  0
LTYPE
  5
24
330
5
100
AcDbSymbolTableRecord
100
AcDbLinetypeTableRecord
  2
CENTER2
 70
     0
  3
___ _ ___ _ ___ _ ___ _ ___ _ ___ _ ___ _ ___ _
 72
    65
 73
     4
 40
1.125
 49
0.75
 74
     0
 49
-0.125
 74
     0
 49
0.125
 74
     0
 49
-0.125
 74
     0
  0
LTYPE
  5
25
330
5
100
AcDbSymbolTableRecord
100
AcDbLinetypeTableRecord
  2
CENTERX2
 70
     0
  3
________  __  ________  __  ________  __  _____
 72
    65
 73
     4
 40
4.0
 49
2.5
 74
     0
 49
-0.5
 74
     0
 49
0.5
 74
     0
 49
-0.5
 74
     0
  0
LTYPE
  5
26
330
5
100
AcDbSymbolTableRecord
100
AcDbLinetypeTableRecord
  2
DASHDOT
 70
     0
  3
__ . __ . __ . __ . __ . __ . __ . __ . __ . __
 72
    65
 73
     4
 40
1.0
 49
0.5
 74
     0
 49
-0.25
 74
     0
 49
0.0
 74
     0
 49
-0.25
 74
     0
  0
LTYPE
  5
27
330
5
100
AcDbSymbolTableRecord
100
AcDbLinetypeTableRecord
  2
DASHDOT2
 70
     0
  3
_._._._._._._._._._._._._._._._._._._._._._._._
 72
    65
 73
     4
 40
0.5
 49
0.25
 74
     0
 49
-0.125
 74
     0
 49
0.0
 74
     0
 49
-0.125
 74
     0
  0
LTYPE
  5
28
330
5
100
AcDbSymbolTableRecord
100
AcDbLinetypeTableRecord
  2
DASHDOTX2
 70
     0
  3
____  .  ____  .  ____  .  ____  .  ____  .  __
 72
    65
 73
     4
 40
2.0
 49
1.0
 74
     0
 49
-0.5
 74
     0
 49
0.0
 74
     0
 49
-0.5
 74
     0
  0
LTYPE
  5
29
330
5
100
AcDbSymbolTableRecord
100
AcDbLinetypeTableRecord
  2
DASHED
 70
     0
  3
__ __ __ __ __ __ __ __ __ __ __ __ __ __ __ __
 72
    65
 73
     2
 40
0.75
 49
0.5
 74
     0
 49
-0.25
 74
     0
  0
LTYPE
  5
2A
330
5
100
AcDbSymbolTableRecord
100
AcDbLinetypeTableRecord
  2
DASHED2
 70
     0
  3
_ _ _ _ _ _ _ _ _ _ _ _ _ _ _ _ _ _ _ _ _ _ _ _
 72
    65
 73
     2
 40
0.375
 49
0.25
 74
     0
 49
-0.125
 74
     0
  0
LTYPE
  5
2B
330
5
100
AcDbSymbolTableRecord
100
AcDbLinetypeTableRecord
  2
DASHEDX2
 70
     0
  3
____  ____  ____  ____  ____  ____  ____  ____ 
 72
    65
 73
     2
 40
1.5
 49
1.0
 74
     0
 49
-0.5
 74
     0
  0
LTYPE
  5
2C
330
5
100
AcDbSymbolTableRecord
100
AcDbLinetypeTableRecord
  2
DIVIDE
 70
     0
  3
____ . . ____ . . ____ . . ____ . . ____ . . __
 72
    65
 73
     6
 40
1.25
 49
0.5
 74
     0
 49
-0.25
 74
     0
 49
0.0
 74
     0
 49
-0.25
 74
     0
 49
0.0
 74
     0
 49
-0.25
 74
     0
  0
LTYPE
  5
2D
330
5
100
AcDbSymbolTableRecord
100
AcDbLinetypeTableRecord
  2
DIVIDE2
 70
     0
  3
__..__..__..__..__..__..__..__..__..__..__..__.
 72
    65
 73
     6
 40
0.625
 49
0.25
 74
     0
 49
-0.125
 74
     0
 49
0.0
 74
     0
 49
-0.125
 74
     0
 49
0.0
 74
     0
 49
-0.125
 74
     0
  0
LTYPE
  5
2E
330
5
100
AcDbSymbolTableRecord
100
AcDbLinetypeTableRecord
  2
DIVIDEX2
 70
     0
  3
________  .  .  ________  .  .  ________  .  . 
 72
    65
 73
     6
 40
2.5
 49
1.0
 74
     0
 49
-0.5
 74
     0
 49
0.0
 74
     0
 49
-0.5
 74
     0
 49
0.0
 74
     0
 49
-0.5
 74
     0
  0
LTYPE
  5
2F
330
5
100
AcDbSymbolTableRecord
100
AcDbLinetypeTableRecord
  2
DOT
 70
     0
  3
. . . . . . . . . . . . . . . . . . . . . . . .
 72
    65
 73
     2
 40
0.25
 49
0.0
 74
     0
 49
-0.25
 74
     0
  0
LTYPE
  5
30
330
5
100
AcDbSymbolTableRecord
100
AcDbLinetypeTableRecord
  2
DOT2
 70
     0
  3
...............................................
 72
    65
 73
     2
 40
0.125
 49
0.0
 74
     0
 49
-0.125
 74
     0
  0
LTYPE
  5
31
330
5
100
AcDbSymbolTableRecord
100
AcDbLinetypeTableRecord
  2
DOTX2
 70
     0
  3
.  .  .  .  .  .  .  .  .  .  .  .  .  .  .  . 
 72
    65
 73
     2
 40
0.5
 49
0.0
 74
     0
 49
-0.5
 74
     0
  0
LTYPE
  5
32
330
5
100
AcDbSymbolTableRecord
100
AcDbLinetypeTableRecord
  2
HIDDEN
 70
     0
  3
__ __ __ __ __ __ __ __ __ __ __ __ __ __ __ __
 72
    65
 73
     2
 40
0.375
 49
0.25
 74
     0
 49
-0.125
 74
     0
  0
LTYPE
  5
33
330
5
100
AcDbSymbolTableRecord
100
AcDbLinetypeTableRecord
  2
HIDDEN2
 70
     0
  3
_ _ _ _ _ _ _ _ _ _ _ _ _ _ _ _ _ _ _ _ _ _ _ _
 72
    65
 73
     2
 40
0.1875
 49
0.125
 74
     0
 49
-0.0625
 74
     0
  0
LTYPE
  5
34
330
5
100
AcDbSymbolTableRecord
100
AcDbLinetypeTableRecord
  2
HIDDENX2
 70
     0
  3
____ ____ ____ ____ ____ ____ ____ ____ ____ __
 72
    65
 73
     2
 40
0.75
 49
0.5
 74
     0
 49
-0.25
 74
     0
  0
LTYPE
  5
35
330
5
100
AcDbSymbolTableRecord
100
AcDbLinetypeTableRecord
  2
PHANTOM
 70
     0
  3
______  __  __  ______  __  __  ______  __  __ 
 72
    65
 73
     6
 40
2.5
 49
1.25
 74
     0
 49
-0.25
 74
     0
 49
0.25
 74
     0
 49
-0.25
 74
     0
 49
0.25
 74
     0
 49
-0.25
 74
     0
  0
LTYPE
  5
36
330
5
100
AcDbSymbolTableRecord
100
AcDbLinetypeTableRecord
  2
PHANTOM2
 70
     0
  3
___ _ _ ___ _ _ ___ _ _ ___ _ _ ___ _ _ ___ _ _
 72
    65
 73
     6
 40
1.25
 49
0.625
 74
     0
 49
-0.125
 74
     0
 49
0.125
 74
     0
 49
-0.125
 74
     0
 49
0.125
 74
     0
 49
-0.125
 74
     0
  0
LTYPE
  5
37
330
5
100
AcDbSymbolTableRecord
100
AcDbLinetypeTableRecord
  2
PHANTOMX2
 70
     0
  3
____________    ____    ____    ____________   
 72
    65
 73
     6
 40
5.0
 49
2.5
 74
     0
 49
-0.5
 74
     0
 49
0.5
 74
     0
 49
-0.5
 74
     0
 49
0.5
 74
     0
 49
-0.5
 74
     0
  0
ENDTAB
  0
TABLE
  2
LAYER
  5
2
330
0
100
AcDbSymbolTable
 70
   256
  0
LAYER
  5
E
330
2
100
AcDbSymbolTableRecord
100
AcDbLayerTableRecord
  2
0
 70
     0
 62
     7
  6
CONTINUOUS
  0
LAYER
  5
39
330
2
100
AcDbSymbolTableRecord
100
AcDbLayerTableRecord
  2
1
 70
     0
 62
     7
  6
CONTINUOUS
  0
LAYER
  5
3A
330
2
100
AcDbSymbolTableRecord
100
AcDbLayerTableRecord
  2
2
 70
     0
 62
     7
  6
CONTINUOUS
  0
LAYER
  5
3B
330
2
100
AcDbSymbolTableRecord
100
AcDbLayerTableRecord
  2
3
 70
     0
 62
     7
  6
CONTINUOUS
  0
LAYER
  5
3C
330
2
100
AcDbSymbolTableRecord
100
AcDbLayerTableRecord
  2
4
 70
     0
 62
     7
  6
CONTINUOUS
  0
LAYER
  5
3D
330
2
100
AcDbSymbolTableRecord
100
AcDbLayerTableRecord
  2
5
 70
     0
 62
     7
  6
CONTINUOUS
  0
LAYER
  5
3E
330
2
100
AcDbSymbolTableRecord
100
AcDbLayerTableRecord
  2
6
 70
     0
 62
     7
  6
CONTINUOUS
  0
LAYER
  5
3F
330
2
100
AcDbSymbolTableRecord
100
AcDbLayerTableRecord
  2
7
 70
     0
 62
     7
  6
CONTINUOUS
  0
LAYER
  5
40
330
2
100
AcDbSymbolTableRecord
100
AcDbLayerTableRecord
  2
8
 70
     0
 62
     7
  6
CONTINUOUS
  0
LAYER
  5
41
330
2
100
AcDbSymbolTableRecord
100
AcDbLayerTableRecord
  2
9
 70
     0
 62
     7
  6
CONTINUOUS
  0
LAYER
  5
42
330
2
100
AcDbSymbolTableRecord
100
AcDbLayerTableRecord
  2
10
 70
     0
 62
     7
  6
CONTINUOUS
  0
LAYER
  5
43
330
2
100
AcDbSymbolTableRecord
100
AcDbLayerTableRecord
  2
11
 70
     0
 62
     7
  6
CONTINUOUS
  0
LAYER
  5
44
330
2
100
AcDbSymbolTableRecord
100
AcDbLayerTableRecord
  2
12
 70
     0
 62
     7
  6
CONTINUOUS
  0
LAYER
  5
45
330
2
100
AcDbSymbolTableRecord
100
AcDbLayerTableRecord
  2
13
 70
     0
 62
     7
  6
CONTINUOUS
  0
LAYER
  5
46
330
2
100
AcDbSymbolTableRecord
100
AcDbLayerTableRecord
  2
14
 70
     0
 62
     7
  6
CONTINUOUS
  0
LAYER
  5
47
330
2
100
AcDbSymbolTableRecord
100
AcDbLayerTableRecord
  2
15
 70
     0
 62
     7
  6
CONTINUOUS
  0
LAYER
  5
48
330
2
100
AcDbSymbolTableRecord
100
AcDbLayerTableRecord
  2
16
 70
     0
 62
     7
  6
CONTINUOUS
  0
LAYER
  5
49
330
2
100
AcDbSymbolTableRecord
100
AcDbLayerTableRecord
  2
17
 70
     0
 62
     7
  6
CONTINUOUS
  0
LAYER
  5
4A
330
2
100
AcDbSymbolTableRecord
100
AcDbLayerTableRecord
  2
18
 70
     0
 62
     7
  6
CONTINUOUS
  0
LAYER
  5
4B
330
2
100
AcDbSymbolTableRecord
100
AcDbLayerTableRecord
  2
19
 70
     0
 62
     7
  6
CONTINUOUS
  0
LAYER
  5
4C
330
2
100
AcDbSymbolTableRecord
100
AcDbLayerTableRecord
  2
20
 70
     0
 62
     7
  6
CONTINUOUS
  0
LAYER
  5
4D
330
2
100
AcDbSymbolTableRecord
100
AcDbLayerTableRecord
  2
21
 70
     0
 62
     7
  6
CONTINUOUS
  0
LAYER
  5
4E
330
2
100
AcDbSymbolTableRecord
100
AcDbLayerTableRecord
  2
22
 70
     0
 62
     7
  6
CONTINUOUS
  0
LAYER
  5
4F
330
2
100
AcDbSymbolTableRecord
100
AcDbLayerTableRecord
  2
23
 70
     0
 62
     7
  6
CONTINUOUS
  0
LAYER
  5
50
330
2
100
AcDbSymbolTableRecord
100
AcDbLayerTableRecord
  2
24
 70
     0
 62
     7
  6
CONTINUOUS
  0
LAYER
  5
51
330
2
100
AcDbSymbolTableRecord
100
AcDbLayerTableRecord
  2
25
 70
     0
 62
     7
  6
CONTINUOUS
  0
LAYER
  5
52
330
2
100
AcDbSymbolTableRecord
100
AcDbLayerTableRecord
  2
26
 70
     0
 62
     7
  6
CONTINUOUS
  0
LAYER
  5
53
330
2
100
AcDbSymbolTableRecord
100
AcDbLayerTableRecord
  2
27
 70
     0
 62
     7
  6
CONTINUOUS
  0
LAYER
  5
54
330
2
100
AcDbSymbolTableRecord
100
AcDbLayerTableRecord
  2
28
 70
     0
 62
     7
  6
CONTINUOUS
  0
LAYER
  5
55
330
2
100
AcDbSymbolTableRecord
100
AcDbLayerTableRecord
  2
29
 70
     0
 62
     7
  6
CONTINUOUS
  0
LAYER
  5
56
330
2
100
AcDbSymbolTableRecord
100
AcDbLayerTableRecord
  2
30
 70
     0
 62
     7
  6
CONTINUOUS
  0
LAYER
  5
57
330
2
100
AcDbSymbolTableRecord
100
AcDbLayerTableRecord
  2
31
 70
     0
 62
     7
  6
CONTINUOUS
  0
LAYER
  5
58
330
2
100
AcDbSymbolTableRecord
100
AcDbLayerTableRecord
  2
32
 70
     0
 62
     7
  6
CONTINUOUS
  0
LAYER
  5
59
330
2
100
AcDbSymbolTableRecord
100
AcDbLayerTableRecord
  2
33
 70
     0
 62
     7
  6
CONTINUOUS
  0
LAYER
  5
5A
330
2
100
AcDbSymbolTableRecord
100
AcDbLayerTableRecord
  2
34
 70
     0
 62
     7
  6
CONTINUOUS
  0
LAYER
  5
5B
330
2
100
AcDbSymbolTableRecord
100
AcDbLayerTableRecord
  2
35
 70
     0
 62
     7
  6
CONTINUOUS
  0
LAYER
  5
5C
330
2
100
AcDbSymbolTableRecord
100
AcDbLayerTableRecord
  2
36
 70
     0
 62
     7
  6
CONTINUOUS
  0
LAYER
  5
5D
330
2
100
AcDbSymbolTableRecord
100
AcDbLayerTableRecord
  2
37
 70
     0
 62
     7
  6
CONTINUOUS
  0
LAYER
  5
5E
330
2
100
AcDbSymbolTableRecord
100
AcDbLayerTableRecord
  2
38
 70
     0
 62
     7
  6
CONTINUOUS
  0
LAYER
  5
5F
330
2
100
AcDbSymbolTableRecord
100
AcDbLayerTableRecord
  2
39
 70
     0
 62
     7
  6
CONTINUOUS
  0
LAYER
  5
60
330
2
100
AcDbSymbolTableRecord
100
AcDbLayerTableRecord
  2
40
 70
     0
 62
     7
  6
CONTINUOUS
  0
LAYER
  5
61
330
2
100
AcDbSymbolTableRecord
100
AcDbLayerTableRecord
  2
41
 70
     0
 62
     7
  6
CONTINUOUS
  0
LAYER
  5
62
330
2
100
AcDbSymbolTableRecord
100
AcDbLayerTableRecord
  2
42
 70
     0
 62
     7
  6
CONTINUOUS
  0
LAYER
  5
63
330
2
100
AcDbSymbolTableRecord
100
AcDbLayerTableRecord
  2
43
 70
     0
 62
     7
  6
CONTINUOUS
  0
LAYER
  5
64
330
2
100
AcDbSymbolTableRecord
100
AcDbLayerTableRecord
  2
44
 70
     0
 62
     7
  6
CONTINUOUS
  0
LAYER
  5
65
330
2
100
AcDbSymbolTableRecord
100
AcDbLayerTableRecord
  2
45
 70
     0
 62
     7
  6
CONTINUOUS
  0
LAYER
  5
66
330
2
100
AcDbSymbolTableRecord
100
AcDbLayerTableRecord
  2
46
 70
     0
 62
     7
  6
CONTINUOUS
  0
LAYER
  5
67
330
2
100
AcDbSymbolTableRecord
100
AcDbLayerTableRecord
  2
47
 70
     0
 62
     7
  6
CONTINUOUS
  0
LAYER
  5
68
330
2
100
AcDbSymbolTableRecord
100
AcDbLayerTableRecord
  2
48
 70
     0
 62
     7
  6
CONTINUOUS
  0
LAYER
  5
69
330
2
100
AcDbSymbolTableRecord
100
AcDbLayerTableRecord
  2
49
 70
     0
 62
     7
  6
CONTINUOUS
  0
LAYER
  5
6A
330
2
100
AcDbSymbolTableRecord
100
AcDbLayerTableRecord
  2
50
 70
     0
 62
     7
  6
CONTINUOUS
  0
LAYER
  5
6B
330
2
100
AcDbSymbolTableRecord
100
AcDbLayerTableRecord
  2
51
 70
     0
 62
     7
  6
CONTINUOUS
  0
LAYER
  5
6C
330
2
100
AcDbSymbolTableRecord
100
AcDbLayerTableRecord
  2
52
 70
     0
 62
     7
  6
CONTINUOUS
  0
LAYER
  5
6D
330
2
100
AcDbSymbolTableRecord
100
AcDbLayerTableRecord
  2
53
 70
     0
 62
     7
  6
CONTINUOUS
  0
LAYER
  5
6E
330
2
100
AcDbSymbolTableRecord
100
AcDbLayerTableRecord
  2
54
 70
     0
 62
     7
  6
CONTINUOUS
  0
LAYER
  5
6F
330
2
100
AcDbSymbolTableRecord
100
AcDbLayerTableRecord
  2
55
 70
     0
 62
     7
  6
CONTINUOUS
  0
LAYER
  5
70
330
2
100
AcDbSymbolTableRecord
100
AcDbLayerTableRecord
  2
56
 70
     0
 62
     7
  6
CONTINUOUS
  0
LAYER
  5
71
330
2
100
AcDbSymbolTableRecord
100
AcDbLayerTableRecord
  2
57
 70
     0
 62
     7
  6
CONTINUOUS
  0
LAYER
  5
72
330
2
100
AcDbSymbolTableRecord
100
AcDbLayerTableRecord
  2
58
 70
     0
 62
     7
  6
CONTINUOUS
  0
LAYER
  5
73
330
2
100
AcDbSymbolTableRecord
100
AcDbLayerTableRecord
  2
59
 70
     0
 62
     7
  6
CONTINUOUS
  0
LAYER
  5
74
330
2
100
AcDbSymbolTableRecord
100
AcDbLayerTableRecord
  2
60
 70
     0
 62
     7
  6
CONTINUOUS
  0
LAYER
  5
75
330
2
100
AcDbSymbolTableRecord
100
AcDbLayerTableRecord
  2
61
 70
     0
 62
     7
  6
CONTINUOUS
  0
LAYER
  5
76
330
2
100
AcDbSymbolTableRecord
100
AcDbLayerTableRecord
  2
62
 70
     0
 62
     7
  6
CONTINUOUS
  0
LAYER
  5
77
330
2
100
AcDbSymbolTableRecord
100
AcDbLayerTableRecord
  2
63
 70
     0
 62
     7
  6
CONTINUOUS
  0
LAYER
  5
78
330
2
100
AcDbSymbolTableRecord
100
AcDbLayerTableRecord
  2
64
 70
     0
 62
     7
  6
CONTINUOUS
  0
LAYER
  5
79
330
2
100
AcDbSymbolTableRecord
100
AcDbLayerTableRecord
  2
65
 70
     0
 62
     7
  6
CONTINUOUS
  0
LAYER
  5
7A
330
2
100
AcDbSymbolTableRecord
100
AcDbLayerTableRecord
  2
66
 70
     0
 62
     7
  6
CONTINUOUS
  0
LAYER
  5
7B
330
2
100
AcDbSymbolTableRecord
100
AcDbLayerTableRecord
  2
67
 70
     0
 62
     7
  6
CONTINUOUS
  0
LAYER
  5
7C
330
2
100
AcDbSymbolTableRecord
100
AcDbLayerTableRecord
  2
68
 70
     0
 62
     7
  6
CONTINUOUS
  0
LAYER
  5
7D
330
2
100
AcDbSymbolTableRecord
100
AcDbLayerTableRecord
  2
69
 70
     0
 62
     7
  6
CONTINUOUS
  0
LAYER
  5
7E
330
2
100
AcDbSymbolTableRecord
100
AcDbLayerTableRecord
  2
70
 70
     0
 62
     7
  6
CONTINUOUS
  0
LAYER
  5
7F
330
2
100
AcDbSymbolTableRecord
100
AcDbLayerTableRecord
  2
71
 70
     0
 62
     7
  6
CONTINUOUS
  0
LAYER
  5
80
330
2
100
AcDbSymbolTableRecord
100
AcDbLayerTableRecord
  2
72
 70
     0
 62
     7
  6
CONTINUOUS
  0
LAYER
  5
81
330
2
100
AcDbSymbolTableRecord
100
AcDbLayerTableRecord
  2
73
 70
     0
 62
     7
  6
CONTINUOUS
  0
LAYER
  5
82
330
2
100
AcDbSymbolTableRecord
100
AcDbLayerTableRecord
  2
74
 70
     0
 62
     7
  6
CONTINUOUS
  0
LAYER
  5
83
330
2
100
AcDbSymbolTableRecord
100
AcDbLayerTableRecord
  2
75
 70
     0
 62
     7
  6
CONTINUOUS
  0
LAYER
  5
84
330
2
100
AcDbSymbolTableRecord
100
AcDbLayerTableRecord
  2
76
 70
     0
 62
     7
  6
CONTINUOUS
  0
LAYER
  5
85
330
2
100
AcDbSymbolTableRecord
100
AcDbLayerTableRecord
  2
77
 70
     0
 62
     7
  6
CONTINUOUS
  0
LAYER
  5
86
330
2
100
AcDbSymbolTableRecord
100
AcDbLayerTableRecord
  2
78
 70
     0
 62
     7
  6
CONTINUOUS
  0
LAYER
  5
87
330
2
100
AcDbSymbolTableRecord
100
AcDbLayerTableRecord
  2
79
 70
     0
 62
     7
  6
CONTINUOUS
  0
LAYER
  5
88
330
2
100
AcDbSymbolTableRecord
100
AcDbLayerTableRecord
  2
80
 70
     0
 62
     7
  6
CONTINUOUS
  0
LAYER
  5
89
330
2
100
AcDbSymbolTableRecord
100
AcDbLayerTableRecord
  2
81
 70
     0
 62
     7
  6
CONTINUOUS
  0
LAYER
  5
8A
330
2
100
AcDbSymbolTableRecord
100
AcDbLayerTableRecord
  2
82
 70
     0
 62
     7
  6
CONTINUOUS
  0
LAYER
  5
8B
330
2
100
AcDbSymbolTableRecord
100
AcDbLayerTableRecord
  2
83
 70
     0
 62
     7
  6
CONTINUOUS
  0
LAYER
  5
8C
330
2
100
AcDbSymbolTableRecord
100
AcDbLayerTableRecord
  2
84
 70
     0
 62
     7
  6
CONTINUOUS
  0
LAYER
  5
8D
330
2
100
AcDbSymbolTableRecord
100
AcDbLayerTableRecord
  2
85
 70
     0
 62
     7
  6
CONTINUOUS
  0
LAYER
  5
8E
330
2
100
AcDbSymbolTableRecord
100
AcDbLayerTableRecord
  2
86
 70
     0
 62
     7
  6
CONTINUOUS
  0
LAYER
  5
8F
330
2
100
AcDbSymbolTableRecord
100
AcDbLayerTableRecord
  2
87
 70
     0
 62
     7
  6
CONTINUOUS
  0
LAYER
  5
90
330
2
100
AcDbSymbolTableRecord
100
AcDbLayerTableRecord
  2
88
 70
     0
 62
     7
  6
CONTINUOUS
  0
LAYER
  5
91
330
2
100
AcDbSymbolTableRecord
100
AcDbLayerTableRecord
  2
89
 70
     0
 62
     7
  6
CONTINUOUS
  0
LAYER
  5
92
330
2
100
AcDbSymbolTableRecord
100
AcDbLayerTableRecord
  2
90
 70
     0
 62
     7
  6
CONTINUOUS
  0
LAYER
  5
93
330
2
100
AcDbSymbolTableRecord
100
AcDbLayerTableRecord
  2
91
 70
     0
 62
     7
  6
CONTINUOUS
  0
LAYER
  5
94
330
2
100
AcDbSymbolTableRecord
100
AcDbLayerTableRecord
  2
92
 70
     0
 62
     7
  6
CONTINUOUS
  0
LAYER
  5
95
330
2
100
AcDbSymbolTableRecord
100
AcDbLayerTableRecord
  2
93
 70
     0
 62
     7
  6
CONTINUOUS
  0
LAYER
  5
96
330
2
100
AcDbSymbolTableRecord
100
AcDbLayerTableRecord
  2
94
 70
     0
 62
     7
  6
CONTINUOUS
  0
LAYER
  5
97
330
2
100
AcDbSymbolTableRecord
100
AcDbLayerTableRecord
  2
95
 70
     0
 62
     7
  6
CONTINUOUS
  0
LAYER
  5
98
330
2
100
AcDbSymbolTableRecord
100
AcDbLayerTableRecord
  2
96
 70
     0
 62
     7
  6
CONTINUOUS
  0
LAYER
  5
99
330
2
100
AcDbSymbolTableRecord
100
AcDbLayerTableRecord
  2
97
 70
     0
 62
     7
  6
CONTINUOUS
  0
LAYER
  5
9A
330
2
100
AcDbSymbolTableRecord
100
AcDbLayerTableRecord
  2
98
 70
     0
 62
     7
  6
CONTINUOUS
  0
LAYER
  5
9B
330
2
100
AcDbSymbolTableRecord
100
AcDbLayerTableRecord
  2
99
 70
     0
 62
     7
  6
CONTINUOUS
  0
LAYER
  5
9C
330
2
100
AcDbSymbolTableRecord
100
AcDbLayerTableRecord
  2
100
 70
     0
 62
     7
  6
CONTINUOUS
  0
LAYER
  5
9D
330
2
100
AcDbSymbolTableRecord
100
AcDbLayerTableRecord
  2
101
 70
     0
 62
     7
  6
CONTINUOUS
  0
LAYER
  5
9E
330
2
100
AcDbSymbolTableRecord
100
AcDbLayerTableRecord
  2
102
 70
     0
 62
     7
  6
CONTINUOUS
  0
LAYER
  5
9F
330
2
100
AcDbSymbolTableRecord
100
AcDbLayerTableRecord
  2
103
 70
     0
 62
     7
  6
CONTINUOUS
  0
LAYER
  5
A0
330
2
100
AcDbSymbolTableRecord
100
AcDbLayerTableRecord
  2
104
 70
     0
 62
     7
  6
CONTINUOUS
  0
LAYER
  5
A1
330
2
100
AcDbSymbolTableRecord
100
AcDbLayerTableRecord
  2
105
 70
     0
 62
     7
  6
CONTINUOUS
  0
LAYER
  5
A2
330
2
100
AcDbSymbolTableRecord
100
AcDbLayerTableRecord
  2
106
 70
     0
 62
     7
  6
CONTINUOUS
  0
LAYER
  5
A3
330
2
100
AcDbSymbolTableRecord
100
AcDbLayerTableRecord
  2
107
 70
     0
 62
     7
  6
CONTINUOUS
  0
LAYER
  5
A4
330
2
100
AcDbSymbolTableRecord
100
AcDbLayerTableRecord
  2
108
 70
     0
 62
     7
  6
CONTINUOUS
  0
LAYER
  5
A5
330
2
100
AcDbSymbolTableRecord
100
AcDbLayerTableRecord
  2
109
 70
     0
 62
     7
  6
CONTINUOUS
  0
LAYER
  5
A6
330
2
100
AcDbSymbolTableRecord
100
AcDbLayerTableRecord
  2
110
 70
     0
 62
     7
  6
CONTINUOUS
  0
LAYER
  5
A7
330
2
100
AcDbSymbolTableRecord
100
AcDbLayerTableRecord
  2
111
 70
     0
 62
     7
  6
CONTINUOUS
  0
LAYER
  5
A8
330
2
100
AcDbSymbolTableRecord
100
AcDbLayerTableRecord
  2
112
 70
     0
 62
     7
  6
CONTINUOUS
  0
LAYER
  5
A9
330
2
100
AcDbSymbolTableRecord
100
AcDbLayerTableRecord
  2
113
 70
     0
 62
     7
  6
CONTINUOUS
  0
LAYER
  5
AA
330
2
100
AcDbSymbolTableRecord
100
AcDbLayerTableRecord
  2
114
 70
     0
 62
     7
  6
CONTINUOUS
  0
LAYER
  5
AB
330
2
100
AcDbSymbolTableRecord
100
AcDbLayerTableRecord
  2
115
 70
     0
 62
     7
  6
CONTINUOUS
  0
LAYER
  5
AC
330
2
100
AcDbSymbolTableRecord
100
AcDbLayerTableRecord
  2
116
 70
     0
 62
     7
  6
CONTINUOUS
  0
LAYER
  5
AD
330
2
100
AcDbSymbolTableRecord
100
AcDbLayerTableRecord
  2
117
 70
     0
 62
     7
  6
CONTINUOUS
  0
LAYER
  5
AE
330
2
100
AcDbSymbolTableRecord
100
AcDbLayerTableRecord
  2
118
 70
     0
 62
     7
  6
CONTINUOUS
  0
LAYER
  5
AF
330
2
100
AcDbSymbolTableRecord
100
AcDbLayerTableRecord
  2
119
 70
     0
 62
     7
  6
CONTINUOUS
  0
LAYER
  5
B0
330
2
100
AcDbSymbolTableRecord
100
AcDbLayerTableRecord
  2
120
 70
     0
 62
     7
  6
CONTINUOUS
  0
LAYER
  5
B1
330
2
100
AcDbSymbolTableRecord
100
AcDbLayerTableRecord
  2
121
 70
     0
 62
     7
  6
CONTINUOUS
  0
LAYER
  5
B2
330
2
100
AcDbSymbolTableRecord
100
AcDbLayerTableRecord
  2
122
 70
     0
 62
     7
  6
CONTINUOUS
  0
LAYER
  5
B3
330
2
100
AcDbSymbolTableRecord
100
AcDbLayerTableRecord
  2
123
 70
     0
 62
     7
  6
CONTINUOUS
  0
LAYER
  5
B4
330
2
100
AcDbSymbolTableRecord
100
AcDbLayerTableRecord
  2
124
 70
     0
 62
     7
  6
CONTINUOUS
  0
LAYER
  5
B5
330
2
100
AcDbSymbolTableRecord
100
AcDbLayerTableRecord
  2
125
 70
     0
 62
     7
  6
CONTINUOUS
  0
LAYER
  5
B6
330
2
100
AcDbSymbolTableRecord
100
AcDbLayerTableRecord
  2
126
 70
     0
 62
     7
  6
CONTINUOUS
  0
LAYER
  5
B7
330
2
100
AcDbSymbolTableRecord
100
AcDbLayerTableRecord
  2
127
 70
     0
 62
     7
  6
CONTINUOUS
  0
LAYER
  5
B8
330
2
100
AcDbSymbolTableRecord
100
AcDbLayerTableRecord
  2
128
 70
     0
 62
     7
  6
CONTINUOUS
  0
LAYER
  5
B9
330
2
100
AcDbSymbolTableRecord
100
AcDbLayerTableRecord
  2
129
 70
     0
 62
     7
  6
CONTINUOUS
  0
LAYER
  5
BA
330
2
100
AcDbSymbolTableRecord
100
AcDbLayerTableRecord
  2
130
 70
     0
 62
     7
  6
CONTINUOUS
  0
LAYER
  5
BB
330
2
100
AcDbSymbolTableRecord
100
AcDbLayerTableRecord
  2
131
 70
     0
 62
     7
  6
CONTINUOUS
  0
LAYER
  5
BC
330
2
100
AcDbSymbolTableRecord
100
AcDbLayerTableRecord
  2
132
 70
     0
 62
     7
  6
CONTINUOUS
  0
LAYER
  5
BD
330
2
100
AcDbSymbolTableRecord
100
AcDbLayerTableRecord
  2
133
 70
     0
 62
     7
  6
CONTINUOUS
  0
LAYER
  5
BE
330
2
100
AcDbSymbolTableRecord
100
AcDbLayerTableRecord
  2
134
 70
     0
 62
     7
  6
CONTINUOUS
  0
LAYER
  5
BF
330
2
100
AcDbSymbolTableRecord
100
AcDbLayerTableRecord
  2
135
 70
     0
 62
     7
  6
CONTINUOUS
  0
LAYER
  5
C0
330
2
100
AcDbSymbolTableRecord
100
AcDbLayerTableRecord
  2
136
 70
     0
 62
     7
  6
CONTINUOUS
  0
LAYER
  5
C1
330
2
100
AcDbSymbolTableRecord
100
AcDbLayerTableRecord
  2
137
 70
     0
 62
     7
  6
CONTINUOUS
  0
LAYER
  5
C2
330
2
100
AcDbSymbolTableRecord
100
AcDbLayerTableRecord
  2
138
 70
     0
 62
     7
  6
CONTINUOUS
  0
LAYER
  5
C3
330
2
100
AcDbSymbolTableRecord
100
AcDbLayerTableRecord
  2
139
 70
     0
 62
     7
  6
CONTINUOUS
  0
LAYER
  5
C4
330
2
100
AcDbSymbolTableRecord
100
AcDbLayerTableRecord
  2
140
 70
     0
 62
     7
  6
CONTINUOUS
  0
LAYER
  5
C5
330
2
100
AcDbSymbolTableRecord
100
AcDbLayerTableRecord
  2
141
 70
     0
 62
     7
  6
CONTINUOUS
  0
LAYER
  5
C6
330
2
100
AcDbSymbolTableRecord
100
AcDbLayerTableRecord
  2
142
 70
     0
 62
     7
  6
CONTINUOUS
  0
LAYER
  5
C7
330
2
100
AcDbSymbolTableRecord
100
AcDbLayerTableRecord
  2
143
 70
     0
 62
     7
  6
CONTINUOUS
  0
LAYER
  5
C8
330
2
100
AcDbSymbolTableRecord
100
AcDbLayerTableRecord
  2
144
 70
     0
 62
     7
  6
CONTINUOUS
  0
LAYER
  5
C9
330
2
100
AcDbSymbolTableRecord
100
AcDbLayerTableRecord
  2
145
 70
     0
 62
     7
  6
CONTINUOUS
  0
LAYER
  5
CA
330
2
100
AcDbSymbolTableRecord
100
AcDbLayerTableRecord
  2
146
 70
     0
 62
     7
  6
CONTINUOUS
  0
LAYER
  5
CB
330
2
100
AcDbSymbolTableRecord
100
AcDbLayerTableRecord
  2
147
 70
     0
 62
     7
  6
CONTINUOUS
  0
LAYER
  5
CC
330
2
100
AcDbSymbolTableRecord
100
AcDbLayerTableRecord
  2
148
 70
     0
 62
     7
  6
CONTINUOUS
  0
LAYER
  5
CD
330
2
100
AcDbSymbolTableRecord
100
AcDbLayerTableRecord
  2
149
 70
     0
 62
     7
  6
CONTINUOUS
  0
LAYER
  5
CE
330
2
100
AcDbSymbolTableRecord
100
AcDbLayerTableRecord
  2
150
 70
     0
 62
     7
  6
CONTINUOUS
  0
LAYER
  5
CF
330
2
100
AcDbSymbolTableRecord
100
AcDbLayerTableRecord
  2
151
 70
     0
 62
     7
  6
CONTINUOUS
  0
LAYER
  5
D0
330
2
100
AcDbSymbolTableRecord
100
AcDbLayerTableRecord
  2
152
 70
     0
 62
     7
  6
CONTINUOUS
  0
LAYER
  5
D1
330
2
100
AcDbSymbolTableRecord
100
AcDbLayerTableRecord
  2
153
 70
     0
 62
     7
  6
CONTINUOUS
  0
LAYER
  5
D2
330
2
100
AcDbSymbolTableRecord
100
AcDbLayerTableRecord
  2
154
 70
     0
 62
     7
  6
CONTINUOUS
  0
LAYER
  5
D3
330
2
100
AcDbSymbolTableRecord
100
AcDbLayerTableRecord
  2
155
 70
     0
 62
     7
  6
CONTINUOUS
  0
LAYER
  5
D4
330
2
100
AcDbSymbolTableRecord
100
AcDbLayerTableRecord
  2
156
 70
     0
 62
     7
  6
CONTINUOUS
  0
LAYER
  5
D5
330
2
100
AcDbSymbolTableRecord
100
AcDbLayerTableRecord
  2
157
 70
     0
 62
     7
  6
CONTINUOUS
  0
LAYER
  5
D6
330
2
100
AcDbSymbolTableRecord
100
AcDbLayerTableRecord
  2
158
 70
     0
 62
     7
  6
CONTINUOUS
  0
LAYER
  5
D7
330
2
100
AcDbSymbolTableRecord
100
AcDbLayerTableRecord
  2
159
 70
     0
 62
     7
  6
CONTINUOUS
  0
LAYER
  5
D8
330
2
100
AcDbSymbolTableRecord
100
AcDbLayerTableRecord
  2
160
 70
     0
 62
     7
  6
CONTINUOUS
  0
LAYER
  5
D9
330
2
100
AcDbSymbolTableRecord
100
AcDbLayerTableRecord
  2
161
 70
     0
 62
     7
  6
CONTINUOUS
  0
LAYER
  5
DA
330
2
100
AcDbSymbolTableRecord
100
AcDbLayerTableRecord
  2
162
 70
     0
 62
     7
  6
CONTINUOUS
  0
LAYER
  5
DB
330
2
100
AcDbSymbolTableRecord
100
AcDbLayerTableRecord
  2
163
 70
     0
 62
     7
  6
CONTINUOUS
  0
LAYER
  5
DC
330
2
100
AcDbSymbolTableRecord
100
AcDbLayerTableRecord
  2
164
 70
     0
 62
     7
  6
CONTINUOUS
  0
LAYER
  5
DD
330
2
100
AcDbSymbolTableRecord
100
AcDbLayerTableRecord
  2
165
 70
     0
 62
     7
  6
CONTINUOUS
  0
LAYER
  5
DE
330
2
100
AcDbSymbolTableRecord
100
AcDbLayerTableRecord
  2
166
 70
     0
 62
     7
  6
CONTINUOUS
  0
LAYER
  5
DF
330
2
100
AcDbSymbolTableRecord
100
AcDbLayerTableRecord
  2
167
 70
     0
 62
     7
  6
CONTINUOUS
  0
LAYER
  5
E0
330
2
100
AcDbSymbolTableRecord
100
AcDbLayerTableRecord
  2
168
 70
     0
 62
     7
  6
CONTINUOUS
  0
LAYER
  5
E1
330
2
100
AcDbSymbolTableRecord
100
AcDbLayerTableRecord
  2
169
 70
     0
 62
     7
  6
CONTINUOUS
  0
LAYER
  5
E2
330
2
100
AcDbSymbolTableRecord
100
AcDbLayerTableRecord
  2
170
 70
     0
 62
     7
  6
CONTINUOUS
  0
LAYER
  5
E3
330
2
100
AcDbSymbolTableRecord
100
AcDbLayerTableRecord
  2
171
 70
     0
 62
     7
  6
CONTINUOUS
  0
LAYER
  5
E4
330
2
100
AcDbSymbolTableRecord
100
AcDbLayerTableRecord
  2
172
 70
     0
 62
     7
  6
CONTINUOUS
  0
LAYER
  5
E5
330
2
100
AcDbSymbolTableRecord
100
AcDbLayerTableRecord
  2
173
 70
     0
 62
     7
  6
CONTINUOUS
  0
LAYER
  5
E6
330
2
100
AcDbSymbolTableRecord
100
AcDbLayerTableRecord
  2
174
 70
     0
 62
     7
  6
CONTINUOUS
  0
LAYER
  5
E7
330
2
100
AcDbSymbolTableRecord
100
AcDbLayerTableRecord
  2
175
 70
     0
 62
     7
  6
CONTINUOUS
  0
LAYER
  5
E8
330
2
100
AcDbSymbolTableRecord
100
AcDbLayerTableRecord
  2
176
 70
     0
 62
     7
  6
CONTINUOUS
  0
LAYER
  5
E9
330
2
100
AcDbSymbolTableRecord
100
AcDbLayerTableRecord
  2
177
 70
     0
 62
     7
  6
CONTINUOUS
  0
LAYER
  5
EA
330
2
100
AcDbSymbolTableRecord
100
AcDbLayerTableRecord
  2
178
 70
     0
 62
     7
  6
CONTINUOUS
  0
LAYER
  5
EB
330
2
100
AcDbSymbolTableRecord
100
AcDbLayerTableRecord
  2
179
 70
     0
 62
     7
  6
CONTINUOUS
  0
LAYER
  5
EC
330
2
100
AcDbSymbolTableRecord
100
AcDbLayerTableRecord
  2
180
 70
     0
 62
     7
  6
CONTINUOUS
  0
LAYER
  5
ED
330
2
100
AcDbSymbolTableRecord
100
AcDbLayerTableRecord
  2
181
 70
     0
 62
     7
  6
CONTINUOUS
  0
LAYER
  5
EE
330
2
100
AcDbSymbolTableRecord
100
AcDbLayerTableRecord
  2
182
 70
     0
 62
     7
  6
CONTINUOUS
  0
LAYER
  5
EF
330
2
100
AcDbSymbolTableRecord
100
AcDbLayerTableRecord
  2
183
 70
     0
 62
     7
  6
CONTINUOUS
  0
LAYER
  5
F0
330
2
100
AcDbSymbolTableRecord
100
AcDbLayerTableRecord
  2
184
 70
     0
 62
     7
  6
CONTINUOUS
  0
LAYER
  5
F1
330
2
100
AcDbSymbolTableRecord
100
AcDbLayerTableRecord
  2
185
 70
     0
 62
     7
  6
CONTINUOUS
  0
LAYER
  5
F2
330
2
100
AcDbSymbolTableRecord
100
AcDbLayerTableRecord
  2
186
 70
     0
 62
     7
  6
CONTINUOUS
  0
LAYER
  5
F3
330
2
100
AcDbSymbolTableRecord
100
AcDbLayerTableRecord
  2
187
 70
     0
 62
     7
  6
CONTINUOUS
  0
LAYER
  5
F4
330
2
100
AcDbSymbolTableRecord
100
AcDbLayerTableRecord
  2
188
 70
     0
 62
     7
  6
CONTINUOUS
  0
LAYER
  5
F5
330
2
100
AcDbSymbolTableRecord
100
AcDbLayerTableRecord
  2
189
 70
     0
 62
     7
  6
CONTINUOUS
  0
LAYER
  5
F6
330
2
100
AcDbSymbolTableRecord
100
AcDbLayerTableRecord
  2
190
 70
     0
 62
     7
  6
CONTINUOUS
  0
LAYER
  5
F7
330
2
100
AcDbSymbolTableRecord
100
AcDbLayerTableRecord
  2
191
 70
     0
 62
     7
  6
CONTINUOUS
  0
LAYER
  5
F8
330
2
100
AcDbSymbolTableRecord
100
AcDbLayerTableRecord
  2
192
 70
     0
 62
     7
  6
CONTINUOUS
  0
LAYER
  5
F9
330
2
100
AcDbSymbolTableRecord
100
AcDbLayerTableRecord
  2
193
 70
     0
 62
     7
  6
CONTINUOUS
  0
LAYER
  5
FA
330
2
100
AcDbSymbolTableRecord
100
AcDbLayerTableRecord
  2
194
 70
     0
 62
     7
  6
CONTINUOUS
  0
LAYER
  5
FB
330
2
100
AcDbSymbolTableRecord
100
AcDbLayerTableRecord
  2
195
 70
     0
 62
     7
  6
CONTINUOUS
  0
LAYER
  5
FC
330
2
100
AcDbSymbolTableRecord
100
AcDbLayerTableRecord
  2
196
 70
     0
 62
     7
  6
CONTINUOUS
  0
LAYER
  5
FD
330
2
100
AcDbSymbolTableRecord
100
AcDbLayerTableRecord
  2
197
 70
     0
 62
     7
  6
CONTINUOUS
  0
LAYER
  5
FE
330
2
100
AcDbSymbolTableRecord
100
AcDbLayerTableRecord
  2
198
 70
     0
 62
     7
  6
CONTINUOUS
  0
LAYER
  5
FF
330
2
100
AcDbSymbolTableRecord
100
AcDbLayerTableRecord
  2
199
 70
     0
 62
     7
  6
CONTINUOUS
  0
LAYER
  5
100
330
2
100
AcDbSymbolTableRecord
100
AcDbLayerTableRecord
  2
200
 70
     0
 62
     7
  6
CONTINUOUS
  0
LAYER
  5
101
330
2
100
AcDbSymbolTableRecord
100
AcDbLayerTableRecord
  2
201
 70
     0
 62
     7
  6
CONTINUOUS
  0
LAYER
  5
102
330
2
100
AcDbSymbolTableRecord
100
AcDbLayerTableRecord
  2
202
 70
     0
 62
     7
  6
CONTINUOUS
  0
LAYER
  5
103
330
2
100
AcDbSymbolTableRecord
100
AcDbLayerTableRecord
  2
203
 70
     0
 62
     7
  6
CONTINUOUS
  0
LAYER
  5
104
330
2
100
AcDbSymbolTableRecord
100
AcDbLayerTableRecord
  2
204
 70
     0
 62
     7
  6
CONTINUOUS
  0
LAYER
  5
105
330
2
100
AcDbSymbolTableRecord
100
AcDbLayerTableRecord
  2
205
 70
     0
 62
     7
  6
CONTINUOUS
  0
LAYER
  5
106
330
2
100
AcDbSymbolTableRecord
100
AcDbLayerTableRecord
  2
206
 70
     0
 62
     7
  6
CONTINUOUS
  0
LAYER
  5
107
330
2
100
AcDbSymbolTableRecord
100
AcDbLayerTableRecord
  2
207
 70
     0
 62
     7
  6
CONTINUOUS
  0
LAYER
  5
108
330
2
100
AcDbSymbolTableRecord
100
AcDbLayerTableRecord
  2
208
 70
     0
 62
     7
  6
CONTINUOUS
  0
LAYER
  5
109
330
2
100
AcDbSymbolTableRecord
100
AcDbLayerTableRecord
  2
209
 70
     0
 62
     7
  6
CONTINUOUS
  0
LAYER
  5
10A
330
2
100
AcDbSymbolTableRecord
100
AcDbLayerTableRecord
  2
210
 70
     0
 62
     7
  6
CONTINUOUS
  0
LAYER
  5
10B
330
2
100
AcDbSymbolTableRecord
100
AcDbLayerTableRecord
  2
211
 70
     0
 62
     7
  6
CONTINUOUS
  0
LAYER
  5
10C
330
2
100
AcDbSymbolTableRecord
100
AcDbLayerTableRecord
  2
212
 70
     0
 62
     7
  6
CONTINUOUS
  0
LAYER
  5
10D
330
2
100
AcDbSymbolTableRecord
100
AcDbLayerTableRecord
  2
213
 70
     0
 62
     7
  6
CONTINUOUS
  0
LAYER
  5
10E
330
2
100
AcDbSymbolTableRecord
100
AcDbLayerTableRecord
  2
214
 70
     0
 62
     7
  6
CONTINUOUS
  0
LAYER
  5
10F
330
2
100
AcDbSymbolTableRecord
100
AcDbLayerTableRecord
  2
215
 70
     0
 62
     7
  6
CONTINUOUS
  0
LAYER
  5
110
330
2
100
AcDbSymbolTableRecord
100
AcDbLayerTableRecord
  2
216
 70
     0
 62
     7
  6
CONTINUOUS
  0
LAYER
  5
111
330
2
100
AcDbSymbolTableRecord
100
AcDbLayerTableRecord
  2
217
 70
     0
 62
     7
  6
CONTINUOUS
  0
LAYER
  5
112
330
2
100
AcDbSymbolTableRecord
100
AcDbLayerTableRecord
  2
218
 70
     0
 62
     7
  6
CONTINUOUS
  0
LAYER
  5
113
330
2
100
AcDbSymbolTableRecord
100
AcDbLayerTableRecord
  2
219
 70
     0
 62
     7
  6
CONTINUOUS
  0
LAYER
  5
114
330
2
100
AcDbSymbolTableRecord
100
AcDbLayerTableRecord
  2
220
 70
     0
 62
     7
  6
CONTINUOUS
  0
LAYER
  5
115
330
2
100
AcDbSymbolTableRecord
100
AcDbLayerTableRecord
  2
221
 70
     0
 62
     7
  6
CONTINUOUS
  0
LAYER
  5
116
330
2
100
AcDbSymbolTableRecord
100
AcDbLayerTableRecord
  2
222
 70
     0
 62
     7
  6
CONTINUOUS
  0
LAYER
  5
117
330
2
100
AcDbSymbolTableRecord
100
AcDbLayerTableRecord
  2
223
 70
     0
 62
     7
  6
CONTINUOUS
  0
LAYER
  5
118
330
2
100
AcDbSymbolTableRecord
100
AcDbLayerTableRecord
  2
224
 70
     0
 62
     7
  6
CONTINUOUS
  0
LAYER
  5
119
330
2
100
AcDbSymbolTableRecord
100
AcDbLayerTableRecord
  2
225
 70
     0
 62
     7
  6
CONTINUOUS
  0
LAYER
  5
11A
330
2
100
AcDbSymbolTableRecord
100
AcDbLayerTableRecord
  2
226
 70
     0
 62
     7
  6
CONTINUOUS
  0
LAYER
  5
11B
330
2
100
AcDbSymbolTableRecord
100
AcDbLayerTableRecord
  2
227
 70
     0
 62
     7
  6
CONTINUOUS
  0
LAYER
  5
11C
330
2
100
AcDbSymbolTableRecord
100
AcDbLayerTableRecord
  2
228
 70
     0
 62
     7
  6
CONTINUOUS
  0
LAYER
  5
11D
330
2
100
AcDbSymbolTableRecord
100
AcDbLayerTableRecord
  2
229
 70
     0
 62
     7
  6
CONTINUOUS
  0
LAYER
  5
11E
330
2
100
AcDbSymbolTableRecord
100
AcDbLayerTableRecord
  2
230
 70
     0
 62
     7
  6
CONTINUOUS
  0
LAYER
  5
11F
330
2
100
AcDbSymbolTableRecord
100
AcDbLayerTableRecord
  2
231
 70
     0
 62
     7
  6
CONTINUOUS
  0
LAYER
  5
120
330
2
100
AcDbSymbolTableRecord
100
AcDbLayerTableRecord
  2
232
 70
     0
 62
     7
  6
CONTINUOUS
  0
LAYER
  5
121
330
2
100
AcDbSymbolTableRecord
100
AcDbLayerTableRecord
  2
233
 70
     0
 62
     7
  6
CONTINUOUS
  0
LAYER
  5
122
330
2
100
AcDbSymbolTableRecord
100
AcDbLayerTableRecord
  2
234
 70
     0
 62
     7
  6
CONTINUOUS
  0
LAYER
  5
123
330
2
100
AcDbSymbolTableRecord
100
AcDbLayerTableRecord
  2
235
 70
     0
 62
     7
  6
CONTINUOUS
  0
LAYER
  5
124
330
2
100
AcDbSymbolTableRecord
100
AcDbLayerTableRecord
  2
236
 70
     0
 62
     7
  6
CONTINUOUS
  0
LAYER
  5
125
330
2
100
AcDbSymbolTableRecord
100
AcDbLayerTableRecord
  2
237
 70
     0
 62
     7
  6
CONTINUOUS
  0
LAYER
  5
126
330
2
100
AcDbSymbolTableRecord
100
AcDbLayerTableRecord
  2
238
 70
     0
 62
     7
  6
CONTINUOUS
  0
LAYER
  5
127
330
2
100
AcDbSymbolTableRecord
100
AcDbLayerTableRecord
  2
239
 70
     0
 62
     7
  6
CONTINUOUS
  0
LAYER
  5
128
330
2
100
AcDbSymbolTableRecord
100
AcDbLayerTableRecord
  2
240
 70
     0
 62
     7
  6
CONTINUOUS
  0
LAYER
  5
129
330
2
100
AcDbSymbolTableRecord
100
AcDbLayerTableRecord
  2
241
 70
     0
 62
     7
  6
CONTINUOUS
  0
LAYER
  5
12A
330
2
100
AcDbSymbolTableRecord
100
AcDbLayerTableRecord
  2
242
 70
     0
 62
     7
  6
CONTINUOUS
  0
LAYER
  5
12B
330
2
100
AcDbSymbolTableRecord
100
AcDbLayerTableRecord
  2
243
 70
     0
 62
     7
  6
CONTINUOUS
  0
LAYER
  5
12C
330
2
100
AcDbSymbolTableRecord
100
AcDbLayerTableRecord
  2
244
 70
     0
 62
     7
  6
CONTINUOUS
  0
LAYER
  5
12D
330
2
100
AcDbSymbolTableRecord
100
AcDbLayerTableRecord
  2
245
 70
     0
 62
     7
  6
CONTINUOUS
  0
LAYER
  5
12E
330
2
100
AcDbSymbolTableRecord
100
AcDbLayerTableRecord
  2
246
 70
     0
 62
     7
  6
CONTINUOUS
  0
LAYER
  5
12F
330
2
100
AcDbSymbolTableRecord
100
AcDbLayerTableRecord
  2
247
 70
     0
 62
     7
  6
CONTINUOUS
  0
LAYER
  5
130
330
2
100
AcDbSymbolTableRecord
100
AcDbLayerTableRecord
  2
248
 70
     0
 62
     7
  6
CONTINUOUS
  0
LAYER
  5
131
330
2
100
AcDbSymbolTableRecord
100
AcDbLayerTableRecord
  2
249
 70
     0
 62
     7
  6
CONTINUOUS
  0
LAYER
  5
132
330
2
100
AcDbSymbolTableRecord
100
AcDbLayerTableRecord
  2
250
 70
     0
 62
     7
  6
CONTINUOUS
  0
LAYER
  5
133
330
2
100
AcDbSymbolTableRecord
100
AcDbLayerTableRecord
  2
251
 70
     0
 62
     7
  6
CONTINUOUS
  0
LAYER
  5
134
330
2
100
AcDbSymbolTableRecord
100
AcDbLayerTableRecord
  2
252
 70
     0
 62
     7
  6
CONTINUOUS
  0
LAYER
  5
135
330
2
100
AcDbSymbolTableRecord
100
AcDbLayerTableRecord
  2
253
 70
     0
 62
     7
  6
CONTINUOUS
  0
LAYER
  5
136
330
2
100
AcDbSymbolTableRecord
100
AcDbLayerTableRecord
  2
254
 70
     0
 62
     7
  6
CONTINUOUS
  0
LAYER
  5
5A2
330
2
100
AcDbSymbolTableRecord
100
AcDbLayerTableRecord
  2
DEFPOINTS
 70
     0
 62
     7
  6
CONTINUOUS
  0
ENDTAB
  0
TABLE
  2
STYLE
  5
3
330
0
100
AcDbSymbolTable
 70
     3
  0
STYLE
  5
F
330
3
100
AcDbSymbolTableRecord
100
AcDbTextStyleTableRecord
  2
STANDARD
 70
     0
 40
0.0
 41
1.0
 50
0.0
 71
     0
 42
0.2
  3
TXT
  4
BIGFONT
  0
STYLE
  5
38
330
3
100
AcDbSymbolTableRecord
100
AcDbTextStyleTableRecord
  2
STANDARD1
 70
     4
 40
0.0
 41
1.0
 50
0.0
 71
     0
 42
0.2
  3
TXT
  4
BIGFONT
  0
STYLE
  5
137
330
3
100
AcDbSymbolTableRecord
100
AcDbTextStyleTableRecord
  2
GMM001
 70
     0
 40
0.0
 41
0.77777777777778
 50
0.0
 71
     0
 42
1.0
  3
txt.shx
  4
bigfont.shx
  0
ENDTAB
  0
TABLE
  2
VIEW
  5
6
330
0
100
AcDbSymbolTable
 70
     0
  0
ENDTAB
  0
TABLE
  2
UCS
  5
7
330
0
100
AcDbSymbolTable
 70
     0
  0
ENDTAB
  0
TABLE
  2
APPID
  5
9
330
0
100
AcDbSymbolTable
 70
     1
  0
APPID
  5
10
330
9
100
AcDbSymbolTableRecord
100
AcDbRegAppTableRecord
  2
ACAD
 70
     0
  0
ENDTAB
  0
TABLE
  2
DIMSTYLE
  5
A
330
0
100
AcDbSymbolTable
 70
    10
  0
DIMSTYLE
105
1D
330
A
100
AcDbSymbolTableRecord
100
AcDbDimStyleTableRecord
  2
STANDARD
 70
     0
  3

  4

  5

  6

  7

 40
1.0
 41
0.18
 42
0.0625
 43
0.38
 44
0.18
 45
0.0
 46
0.0
 47
0.0
 48
0.0
140
0.18
141
0.09
142
0.0
143
25.4
144
1.0
145
0.0
146
1.0
147
0.09
 71
     0
 72
     0
 73
     1
 74
     1
 75
     0
 76
     0
 77
     0
 78
     0
170
     0
171
     2
172
     0
173
     0
174
     0
175
     0
176
     0
177
     0
178
     0
270
     2
271
     4
272
     4
273
     2
274
     2
340
F
275
     0
280
     0
281
     0
282
     0
283
     1
284
     0
285
     0
286
     0
287
     3
288
     0
  0
DIMSTYLE
105
138
102
{ACAD_REACTORS
330
420
330
421
330
422
330
43A
330
4E3
330
510
102
}
330
A
100
AcDbSymbolTableRecord
100
AcDbDimStyleTableRecord
  2
GMM001
 70
     0
  3

  4

  5

  6
OPEN30
  7
OPEN30
 40
1.0
 41
3.0
 42
3.0
 43
3.0
 44
3.0
 45
0.0
 46
0.0
 47
0.0
 48
0.0
140
6.75
141
1.5
142
0.0
143
0.0394
144
1.0
145
0.0
146
0.55555555555556
147
0.75
 71
     0
 72
     0
 73
     0
 74
     0
 75
     0
 76
     0
 77
     3
 78
     8
170
     0
171
     2
172
     1
173
     1
174
     0
175
     0
176
     1
177
     1
178
     3
270
     2
271
     6
272
     0
273
     2
274
     2
340
137
275
     0
280
     0
281
     0
282
     0
283
     1
284
     0
285
     0
286
     0
287
     3
288
     0
  0
DIMSTYLE
105
139
102
{ACAD_REACTORS
330
423
102
}
330
A
100
AcDbSymbolTableRecord
100
AcDbDimStyleTableRecord
  2
GMM002
 70
     0
  3
%%c<>
  4

  5

  6
OPEN30
  7
OPEN30
 40
1.0
 41
3.0
 42
3.0
 43
3.0
 44
3.0
 45
0.0
 46
0.0
 47
0.0
 48
0.0
140
6.75
141
1.5
142
0.0
143
0.0394
144
1.0
145
0.0
146
0.55555555555556
147
1.8839456346106
 71
     0
 72
     0
 73
     0
 74
     0
 75
     0
 76
     0
 77
     3
 78
     8
170
     0
171
     2
172
     1
173
     1
174
     0
175
     0
176
     1
177
     1
178
     3
270
     2
271
     6
272
     0
273
     2
274
     2
340
137
275
     0
280
     0
281
     0
282
     0
283
     1
284
     0
285
     0
286
     0
287
     3
288
     1
  0
DIMSTYLE
105
13A
102
{ACAD_REACTORS
330
424
330
425
102
}
330
A
100
AcDbSymbolTableRecord
100
AcDbDimStyleTableRecord
  2
GMM003
 70
     0
  3
□<>
  4

  5

  6
OPEN30
  7
OPEN30
 40
1.0
 41
3.0
 42
3.0
 43
3.0
 44
3.0
 45
0.0
 46
0.0
 47
0.0
 48
0.0
140
6.75
141
1.5
142
0.0
143
0.0394
144
1.0
145
0.0
146
0.55555555555556
147
0.75
 71
     0
 72
     0
 73
     0
 74
     0
 75
     0
 76
     0
 77
     3
 78
     8
170
     0
171
     2
172
     1
173
     1
174
     0
175
     0
176
     1
177
     1
178
     3
270
     2
271
     6
272
     0
273
     2
274
     2
340
137
275
     0
280
     0
281
     0
282
     0
283
     1
284
     0
285
     0
286
     0
287
     3
288
     0
  0
DIMSTYLE
105
13B
330
A
100
AcDbSymbolTableRecord
100
AcDbDimStyleTableRecord
  2
GMM004
 70
     0
  3

  4

  5

  6
OPEN30
  7
OPEN30
 40
1.0
 41
3.0
 42
3.0
 43
3.0
 44
3.0
 45
0.0
 46
0.0
 47
0.0
 48
0.0
140
6.75
141
1.5
142
0.0
143
0.0394
144
1.0
145
0.0
146
0.55555555555556
147
0.0
 71
     0
 72
     0
 73
     0
 74
     0
 75
     0
 76
     0
 77
     1
 78
     8
170
     0
171
     2
172
     1
173
     1
174
     0
175
     0
176
     1
177
     1
178
     3
270
     2
271
     6
272
     0
273
     2
274
     2
340
137
275
     0
280
     0
281
     0
282
     0
283
     1
284
     0
285
     0
286
     0
287
     3
288
     0
  0
DIMSTYLE
105
13C
102
{ACAD_REACTORS
330
4E4
102
}
330
A
100
AcDbSymbolTableRecord
100
AcDbDimStyleTableRecord
  2
GMM005
 70
     0
  3
%%c<>
  4

  5

  6
OPEN30
  7
OPEN30
 40
1.0
 41
3.0
 42
3.0
 43
3.0
 44
3.0
 45
0.0
 46
0.0
 47
0.0
 48
0.0
140
6.75
141
1.5
142
0.0
143
0.0394
144
1.0
145
0.0
146
0.55555555555556
147
0.75
 71
     0
 72
     0
 73
     0
 74
     0
 75
     0
 76
     0
 77
     3
 78
     8
170
     0
171
     2
172
     1
173
     1
174
     0
175
     0
176
     1
177
     1
178
     3
270
     2
271
     6
272
     0
273
     2
274
     2
340
137
275
     0
280
     0
281
     0
282
     0
283
     1
284
     0
285
     0
286
     0
287
     3
288
     0
  0
DIMSTYLE
105
13D
102
{ACAD_REACTORS
330
4EB
102
}
330
A
100
AcDbSymbolTableRecord
100
AcDbDimStyleTableRecord
  2
GMM006
 70
     0
  3

  4

  5

  6
OPEN30
  7
NONE
 40
1.0
 41
3.0
 42
3.0
 43
3.0
 44
3.0
 45
0.0
 46
0.0
 47
0.0
 48
0.0
140
6.75
141
1.5
142
0.0
143
0.0394
144
1.0
145
0.0
146
0.55555555555556
147
0.8070488310737299
 71
     0
 72
     0
 73
     0
 74
     0
 75
     0
 76
     0
 77
     3
 78
     8
170
     0
171
     2
172
     1
173
     1
174
     0
175
     0
176
     1
177
     1
178
     3
270
     2
271
     6
272
     0
273
     2
274
     2
340
137
275
     0
280
     0
281
     0
282
     0
283
     1
284
     0
285
     0
286
     0
287
     3
288
     1
  0
DIMSTYLE
105
13E
102
{ACAD_REACTORS
330
4EC
102
}
330
A
100
AcDbSymbolTableRecord
100
AcDbDimStyleTableRecord
  2
GMM007
 70
     0
  3

  4

  5

  6
OPEN30
  7
OPEN30
 40
1.0
 41
3.0
 42
3.0
 43
3.0
 44
3.0
 45
0.0
 46
0.0
 47
0.0
 48
0.0
140
6.75
141
1.5
142
0.0
143
0.0394
144
1.0
145
0.0
146
0.55555555555556
147
0.8306995571513498
 71
     0
 72
     0
 73
     0
 74
     0
 75
     0
 76
     0
 77
     3
 78
     8
170
     0
171
     2
172
     1
173
     1
174
     0
175
     0
176
     1
177
     1
178
     3
270
     2
271
     6
272
     0
273
     2
274
     2
340
137
275
     0
280
     0
281
     0
282
     0
283
     1
284
     0
285
     0
286
     0
287
     3
288
     1
  0
DIMSTYLE
105
13F
102
{ACAD_REACTORS
330
50B
330
50C
330
50E
102
}
330
A
100
AcDbSymbolTableRecord
100
AcDbDimStyleTableRecord
  2
GMM008
 70
     0
  3

  4

  5

  6
OPEN30
  7
OPEN30
 40
1.0
 41
3.0
 42
3.0
 43
3.0
 44
3.0
 45
0.0
 46
0.0
 47
0.0
 48
0.0
140
6.75
141
1.5
142
0.0
143
0.0394
144
1.0
145
0.0
146
0.55555555555556
147
0.75
 71
     0
 72
     0
 73
     0
 74
     0
 75
     0
 76
     0
 77
     3
 78
     8
170
     0
171
     2
172
     1
173
     1
174
     0
175
     0
176
     1
177
     1
178
     3
270
     2
271
     6
272
     0
273
     2
274
     2
340
137
275
     0
280
     0
281
     0
282
     0
283
     1
284
     0
285
     0
286
     0
287
     3
288
     0
  0
DIMSTYLE
105
140
102
{ACAD_REACTORS
330
50F
102
}
330
A
100
AcDbSymbolTableRecord
100
AcDbDimStyleTableRecord
  2
GMM009
 70
     0
  3

  4

  5

  6
NONE
  7
NONE
 40
1.0
 41
3.0
 42
3.0
 43
3.0
 44
3.0
 45
0.0
 46
0.0
 47
0.0
 48
0.0
140
6.75
141
1.5
142
0.0
143
0.0394
144
1.0
145
0.0
146
0.55555555555556
147
0.75
 71
     0
 72
     0
 73
     0
 74
     0
 75
     0
 76
     0
 77
     3
 78
     8
170
     0
171
     2
172
     1
173
     1
174
     0
175
     0
176
     1
177
     1
178
     3
270
     2
271
     6
272
     0
273
     2
274
     2
340
137
275
     0
280
     0
281
     0
282
     0
283
     1
284
     0
285
     0
286
     0
287
     3
288
     0
  0
ENDTAB
  0
TABLE
  2
BLOCK_RECORD
  5
1
330
0
100
AcDbSymbolTable
 70
    41
  0
BLOCK_RECORD
  5
18
102
{ACAD_XDICTIONARY
360
56E
102
}
330
1
100
AcDbSymbolTableRecord
100
AcDbBlockTableRecord
  2
*MODEL_SPACE
  0
BLOCK_RECORD
  5
15
102
{ACAD_XDICTIONARY
360
56C
102
}
330
1
100
AcDbSymbolTableRecord
100
AcDbBlockTableRecord
  2
*PAPER_SPACE
  0
BLOCK_RECORD
  5
141
330
1
100
AcDbSymbolTableRecord
100
AcDbBlockTableRecord
  2
*D0
  0
BLOCK_RECORD
  5
142
330
1
100
AcDbSymbolTableRecord
100
AcDbBlockTableRecord
  2
*D1
  0
BLOCK_RECORD
  5
143
330
1
100
AcDbSymbolTableRecord
100
AcDbBlockTableRecord
  2
*D2
  0
BLOCK_RECORD
  5
144
330
1
100
AcDbSymbolTableRecord
100
AcDbBlockTableRecord
  2
*D3
  0
BLOCK_RECORD
  5
145
330
1
100
AcDbSymbolTableRecord
100
AcDbBlockTableRecord
  2
*D4
  0
BLOCK_RECORD
  5
146
330
1
100
AcDbSymbolTableRecord
100
AcDbBlockTableRecord
  2
*D5
  0
BLOCK_RECORD
  5
147
330
1
100
AcDbSymbolTableRecord
100
AcDbBlockTableRecord
  2
*D6
  0
BLOCK_RECORD
  5
148
330
1
100
AcDbSymbolTableRecord
100
AcDbBlockTableRecord
  2
GMM001
  0
BLOCK_RECORD
  5
149
330
1
100
AcDbSymbolTableRecord
100
AcDbBlockTableRecord
  2
*D8
  0
BLOCK_RECORD
  5
14A
330
1
100
AcDbSymbolTableRecord
100
AcDbBlockTableRecord
  2
*D9
  0
BLOCK_RECORD
  5
14B
330
1
100
AcDbSymbolTableRecord
100
AcDbBlockTableRecord
  2
*D10
  0
BLOCK_RECORD
  5
14C
330
1
100
AcDbSymbolTableRecord
100
AcDbBlockTableRecord
  2
*D11
  0
BLOCK_RECORD
  5
14D
330
1
100
AcDbSymbolTableRecord
100
AcDbBlockTableRecord
  2
*D12
  0
BLOCK_RECORD
  5
14E
330
1
100
AcDbSymbolTableRecord
100
AcDbBlockTableRecord
  2
*D13
  0
BLOCK_RECORD
  5
14F
330
1
100
AcDbSymbolTableRecord
100
AcDbBlockTableRecord
  2
*D14
  0
BLOCK_RECORD
  5
150
330
1
100
AcDbSymbolTableRecord
100
AcDbBlockTableRecord
  2
*D15
  0
BLOCK_RECORD
  5
151
330
1
100
AcDbSymbolTableRecord
100
AcDbBlockTableRecord
  2
*D16
  0
BLOCK_RECORD
  5
152
330
1
100
AcDbSymbolTableRecord
100
AcDbBlockTableRecord
  2
_ARCHTICK
  0
BLOCK_RECORD
  5
153
330
1
100
AcDbSymbolTableRecord
100
AcDbBlockTableRecord
  2
_BOXBLANK
  0
BLOCK_RECORD
  5
154
330
1
100
AcDbSymbolTableRecord
100
AcDbBlockTableRecord
  2
_BOXFILLED
  0
BLOCK_RECORD
  5
155
330
1
100
AcDbSymbolTableRecord
100
AcDbBlockTableRecord
  2
_CLOSED
  0
BLOCK_RECORD
  5
156
330
1
100
AcDbSymbolTableRecord
100
AcDbBlockTableRecord
  2
_CLOSEDBLANK
  0
BLOCK_RECORD
  5
157
330
1
100
AcDbSymbolTableRecord
100
AcDbBlockTableRecord
  2
_DATUMBLANK
  0
BLOCK_RECORD
  5
158
330
1
100
AcDbSymbolTableRecord
100
AcDbBlockTableRecord
  2
_DATUMFILLED
  0
BLOCK_RECORD
  5
159
330
1
100
AcDbSymbolTableRecord
100
AcDbBlockTableRecord
  2
_DOT
  0
BLOCK_RECORD
  5
15A
330
1
100
AcDbSymbolTableRecord
100
AcDbBlockTableRecord
  2
_DOTBLANK
  0
BLOCK_RECORD
  5
15B
330
1
100
AcDbSymbolTableRecord
100
AcDbBlockTableRecord
  2
_DOTSMALL
  0
BLOCK_RECORD
  5
15C
330
1
100
AcDbSymbolTableRecord
100
AcDbBlockTableRecord
  2
_INTEGRAL
  0
BLOCK_RECORD
  5
15D
330
1
100
AcDbSymbolTableRecord
100
AcDbBlockTableRecord
  2
_NONE
  0
BLOCK_RECORD
  5
15E
330
1
100
AcDbSymbolTableRecord
100
AcDbBlockTableRecord
  2
_OBLIQUE
  0
BLOCK_RECORD
  5
15F
330
1
100
AcDbSymbolTableRecord
100
AcDbBlockTableRecord
  2
_OPEN
  0
BLOCK_RECORD
  5
160
330
1
100
AcDbSymbolTableRecord
100
AcDbBlockTableRecord
  2
_OPEN30
  0
BLOCK_RECORD
  5
161
330
1
100
AcDbSymbolTableRecord
100
AcDbBlockTableRecord
  2
_OPEN90
  0
BLOCK_RECORD
  5
162
330
1
100
AcDbSymbolTableRecord
100
AcDbBlockTableRecord
  2
_ORIGIN
  0
BLOCK_RECORD
  5
5A3
330
1
100
AcDbSymbolTableRecord
100
AcDbBlockTableRecord
  2
*D34
  0
BLOCK_RECORD
  5
5B2
330
1
100
AcDbSymbolTableRecord
100
AcDbBlockTableRecord
  2
*D35
  0
BLOCK_RECORD
  5
5C0
330
1
100
AcDbSymbolTableRecord
100
AcDbBlockTableRecord
  2
*D36
  0
BLOCK_RECORD
  5
5D0
330
1
100
AcDbSymbolTableRecord
100
AcDbBlockTableRecord
  2
*D37
  0
BLOCK_RECORD
  5
5DF
330
1
100
AcDbSymbolTableRecord
100
AcDbBlockTableRecord
  2
*D38
  0
BLOCK_RECORD
  5
61A
330
1
100
AcDbSymbolTableRecord
100
AcDbBlockTableRecord
  2
*D39
  0
BLOCK_RECORD
  5
628
330
1
100
AcDbSymbolTableRecord
100
AcDbBlockTableRecord
  2
*D40
  0
ENDTAB
  0
ENDSEC
  0
SECTION
  2
BLOCKS
  0
BLOCK
  5
19
330
18
100
AcDbEntity
  8
0
100
AcDbBlockBegin
  2
*MODEL_SPACE
 70
     0
 10
0.0
 20
0.0
 30
0.0
  3
*MODEL_SPACE
  1

  0
ENDBLK
  5
1A
330
18
100
AcDbEntity
  8
0
100
AcDbBlockEnd
  0
BLOCK
  5
16
330
15
100
AcDbEntity
 67
     1
  8
0
100
AcDbBlockBegin
  2
*PAPER_SPACE
 70
     0
 10
0.0
 20
0.0
 30
0.0
  3
*PAPER_SPACE
  1

  0
ENDBLK
  5
17
330
15
100
AcDbEntity
 67
     1
  8
0
100
AcDbBlockEnd
  0
BLOCK
  5
1B5
330
141
100
AcDbEntity
  8
0
100
AcDbBlockBegin
  2
*D0
 70
     1
 10
0.0
 20
0.0
 30
0.0
  3
*D0
  1

  0
LINE
  5
1B6
330
141
100
AcDbEntity
  8
0
  6
CONTINUOUS
 62
     1
100
AcDbLine
 10
80.52021089630901
 20
155.59294871795
 30
0.0
 11
80.52021089630901
 21
136.8963119370999
 31
0.0
  0
LINE
  5
1B7
330
141
100
AcDbEntity
  8
0
  6
CONTINUOUS
 62
     1
100
AcDbLine
 10
110.52021089631
 20
155.59294871795
 30
0.0
 11
110.52021089631
 21
136.8963119370999
 31
0.0
  0
LINE
  5
1B8
330
141
100
AcDbEntity
  8
0
  6
CONTINUOUS
 62
     1
100
AcDbLine
 10
80.52021089630901
 20
139.8963119370999
 30
0.0
 11
95.52021089630899
 21
139.8963119370999
 31
0.0
  0
LINE
  5
1B9
330
141
100
AcDbEntity
  8
0
  6
CONTINUOUS
 62
     1
100
AcDbLine
 10
110.52021089631
 20
139.8963119370999
 30
0.0
 11
95.52021089630899
 21
139.8963119370999
 31
0.0
  0
INSERT
  5
1BA
330
141
100
AcDbEntity
  8
0
  6
CONTINUOUS
 62
     1
100
AcDbBlockReference
  2
_OPEN30
 10
80.52021089630901
 20
139.8963119370999
 30
0.0
 41
3.0
 42
3.0
 43
3.0
 50
180.0
  0
INSERT
  5
1BB
330
141
100
AcDbEntity
  8
0
  6
CONTINUOUS
 62
     1
100
AcDbBlockReference
  2
_OPEN30
 10
110.52021089631
 20
139.8963119370999
 30
0.0
 41
3.0
 42
3.0
 43
3.0
  0
MTEXT
  5
1BC
330
141
100
AcDbEntity
  8
0
 62
     3
100
AcDbMText
 10
95.52021089630899
 20
140.6463119370999
 30
0.0
 40
6.75
 41
0.0
 71
     8
 72
     1
  1
\A1;30
  7
GMM001
1001
ACAD
1000
MTEXTBEGIN
1070
    73
1070
     1
1070
    44
1040
1.0
1070
    74
1070
     0
1000
MTEXTEND
1000
MTEXTBEGIN
1070
    73
1070
     1
1070
    44
1040
1.0
1070
    74
1070
     0
1000
MTEXTEND
1000
MTEXTBEGIN
1070
    73
1070
     1
1070
    44
1040
1.0
1070
    74
1070
     0
1000
MTEXTEND
  0
ENDBLK
  5
1BD
330
141
100
AcDbEntity
  8
0
100
AcDbBlockEnd
  0
BLOCK
  5
1BE
330
142
100
AcDbEntity
  8
0
100
AcDbBlockBegin
  2
*D1
 70
     1
 10
0.0
 20
0.0
 30
0.0
  3
*D1
  1

  0
LINE
  5
1BF
330
142
100
AcDbEntity
  8
0
  6
CONTINUOUS
 62
     1
100
AcDbLine
 10
114.02021089631
 20
154.8963119371
 30
0.0
 11
155.52021089631
 21
154.8963119371
 31
0.0
  0
LINE
  5
1C0
330
142
100
AcDbEntity
  8
0
  6
CONTINUOUS
 62
     1
100
AcDbLine
 10
118.5202108963099
 20
222.8963119371
 30
0.0
 11
155.52021089631
 21
222.8963119371
 31
0.0
  0
LINE
  5
1C1
330
142
100
AcDbEntity
  8
0
  6
CONTINUOUS
 62
     1
100
AcDbLine
 10
152.52021089631
 20
154.8963119371
 30
0.0
 11
152.52021089631
 21
188.8963119370997
 31
0.0
  0
LINE
  5
1C2
330
142
100
AcDbEntity
  8
0
  6
CONTINUOUS
 62
     1
100
AcDbLine
 10
152.52021089631
 20
222.8963119371
 30
0.0
 11
152.52021089631
 21
188.8963119370997
 31
0.0
  0
INSERT
  5
1C3
330
142
100
AcDbEntity
  8
0
  6
CONTINUOUS
 62
     1
100
AcDbBlockReference
  2
_OPEN30
 10
152.52021089631
 20
154.8963119371
 30
0.0
 41
3.0
 42
3.0
 43
3.0
 50
270.0
  0
INSERT
  5
1C4
330
142
100
AcDbEntity
  8
0
  6
CONTINUOUS
 62
     1
100
AcDbBlockReference
  2
_OPEN30
 10
152.52021089631
 20
222.8963119371
 30
0.0
 41
3.0
 42
3.0
 43
3.0
 50
90.0
  0
MTEXT
  5
1C5
330
142
100
AcDbEntity
  8
0
 62
     3
100
AcDbMText
 10
151.7702108963099
 20
188.8963119370997
 30
0.0
 40
6.75
 41
0.0
 71
     8
 72
     1
  1
\A1;68
  7
GMM001
 11
0.0
 21
1.0
 31
0.0
1001
ACAD
1000
MTEXTBEGIN
1070
    73
1070
     1
1070
    44
1040
1.0
1070
    74
1070
     0
1000
MTEXTEND
1000
MTEXTBEGIN
1070
    73
1070
     1
1070
    44
1040
1.0
1070
    74
1070
     0
1000
MTEXTEND
1000
MTEXTBEGIN
1070
    73
1070
     1
1070
    44
1040
1.0
1070
    74
1070
     0
1000
MTEXTEND
  0
ENDBLK
  5
1C6
330
142
100
AcDbEntity
  8
0
100
AcDbBlockEnd
  0
BLOCK
  5
1C7
330
143
100
AcDbEntity
  8
0
100
AcDbBlockBegin
  2
*D2
 70
     1
 10
0.0
 20
0.0
 30
0.0
  3
*D2
  1

  0
LINE
  5
1C8
330
143
100
AcDbEntity
  8
0
  6
CONTINUOUS
 62
     1
100
AcDbLine
 10
116.25841346154
 20
161.8963119370999
 30
0.0
 11
140.52021089631
 21
161.8963119370999
 31
0.0
  0
LINE
  5
1C9
330
143
100
AcDbEntity
  8
0
  6
CONTINUOUS
 62
     1
100
AcDbLine
 10
123.9834334816199
 20
176.8963119371
 30
0.0
 11
140.52021089631
 21
176.8963119371
 31
0.0
  0
LINE
  5
1CA
330
143
100
AcDbEntity
  8
0
  6
CONTINUOUS
 62
     1
100
AcDbLine
 10
137.52021089631
 20
161.8963119370999
 30
0.0
 11
137.52021089631
 21
169.3963119371
 31
0.0
  0
LINE
  5
1CB
330
143
100
AcDbEntity
  8
0
  6
CONTINUOUS
 62
     1
100
AcDbLine
 10
137.52021089631
 20
176.8963119371
 30
0.0
 11
137.52021089631
 21
169.3963119371
 31
0.0
  0
INSERT
  5
1CC
330
143
100
AcDbEntity
  8
0
  6
CONTINUOUS
 62
     1
100
AcDbBlockReference
  2
_OPEN30
 10
137.52021089631
 20
161.8963119370999
 30
0.0
 41
3.0
 42
3.0
 43
3.0
 50
270.0
  0
INSERT
  5
1CD
330
143
100
AcDbEntity
  8
0
  6
CONTINUOUS
 62
     1
100
AcDbBlockReference
  2
_OPEN30
 10
137.52021089631
 20
176.8963119371
 30
0.0
 41
3.0
 42
3.0
 43
3.0
 50
90.0
  0
MTEXT
  5
1CE
330
143
100
AcDbEntity
  8
0
 62
     3
100
AcDbMText
 10
136.77021089631
 20
169.3963119371
 30
0.0
 40
6.75
 41
0.0
 71
     8
 72
     1
  1
\A1;15
  7
GMM001
 11
0.0
 21
1.0
 31
0.0
1001
ACAD
1000
MTEXTBEGIN
1070
    73
1070
     1
1070
    44
1040
1.0
1070
    74
1070
     0
1000
MTEXTEND
1000
MTEXTBEGIN
1070
    73
1070
     1
1070
    44
1040
1.0
1070
    74
1070
     0
1000
MTEXTEND
1000
MTEXTBEGIN
1070
    73
1070
     1
1070
    44
1040
1.0
1070
    74
1070
     0
1000
MTEXTEND
  0
ENDBLK
  5
1CF
330
143
100
AcDbEntity
  8
0
100
AcDbBlockEnd
  0
BLOCK
  5
1D0
330
144
100
AcDbEntity
  8
0
100
AcDbBlockBegin
  2
*D3
 70
     1
 10
0.0
 20
0.0
 30
0.0
  3
*D3
  1

  0
LINE
  5
1D1
330
144
100
AcDbEntity
  8
0
  6
CONTINUOUS
 62
     1
100
AcDbLine
 10
349.86191416412
 20
191.8963119370999
 30
0.0
 11
420.36191416412
 21
191.8963119370999
 31
0.0
  0
LINE
  5
1D2
330
144
100
AcDbEntity
  8
0
  6
CONTINUOUS
 62
     1
100
AcDbLine
 10
349.86191416412
 20
161.8963119370999
 30
0.0
 11
420.36191416412
 21
161.8963119370999
 31
0.0
  0
LINE
  5
1D3
330
144
100
AcDbEntity
  8
0
  6
CONTINUOUS
 62
     1
100
AcDbLine
 10
417.36191416412
 20
191.8963119370999
 30
0.0
 11
417.36191416412
 21
176.8963119371
 31
0.0
  0
LINE
  5
1D4
330
144
100
AcDbEntity
  8
0
  6
CONTINUOUS
 62
     1
100
AcDbLine
 10
417.36191416412
 20
161.8963119370999
 30
0.0
 11
417.36191416412
 21
176.8963119371
 31
0.0
  0
INSERT
  5
1D5
330
144
100
AcDbEntity
  8
0
  6
CONTINUOUS
 62
     1
100
AcDbBlockReference
  2
_OPEN30
 10
417.36191416412
 20
191.8963119370999
 30
0.0
 41
3.0
 42
3.0
 43
3.0
 50
90.0
  0
INSERT
  5
1D6
330
144
100
AcDbEntity
  8
0
  6
CONTINUOUS
 62
     1
100
AcDbBlockReference
  2
_OPEN30
 10
417.36191416412
 20
161.8963119370999
 30
0.0
 41
3.0
 42
3.0
 43
3.0
 50
270.0
  0
MTEXT
  5
1D7
330
144
100
AcDbEntity
  8
0
 62
     3
100
AcDbMText
 10
415.4779685295101
 20
174.05776045514
 30
0.0
 40
6.75
 41
0.0
 71
     8
 72
     1
  1
\A1;%%c30
  7
GMM001
 11
0.0
 21
1.0
 31
0.0
1001
ACAD
1000
MTEXTBEGIN
1070
    73
1070
     1
1070
    44
1040
1.0
1070
    74
1070
     0
1000
MTEXTEND
1000
MTEXTBEGIN
1070
    73
1070
     1
1070
    44
1040
1.0
1070
    74
1070
     0
1000
MTEXTEND
1000
MTEXTBEGIN
1070
    73
1070
     1
1070
    44
1040
1.0
1070
    74
1070
     0
1000
MTEXTEND
  0
ENDBLK
  5
1D8
330
144
100
AcDbEntity
  8
0
100
AcDbBlockEnd
  0
BLOCK
  5
1D9
330
145
100
AcDbEntity
  8
0
100
AcDbBlockBegin
  2
*D4
 70
     1
 10
0.0
 20
0.0
 30
0.0
  3
*D4
  1

  0
LINE
  5
1DA
330
145
100
AcDbEntity
  8
0
  6
CONTINUOUS
 62
     1
100
AcDbLine
 10
455.91652206994
 20
200.9793276744499
 30
0.0
 11
455.91652206994
 21
222.3963119371
 31
0.0
  0
LINE
  5
1DB
330
145
100
AcDbEntity
  8
0
  6
CONTINUOUS
 62
     1
100
AcDbLine
 10
489.91652206994
 20
200.9793276744499
 30
0.0
 11
489.91652206994
 21
222.3963119371
 31
0.0
  0
LINE
  5
1DC
330
145
100
AcDbEntity
  8
0
  6
CONTINUOUS
 62
     1
100
AcDbLine
 10
455.91652206994
 20
219.3963119370998
 30
0.0
 11
472.91652206994
 21
219.3963119370998
 31
0.0
  0
LINE
  5
1DD
330
145
100
AcDbEntity
  8
0
  6
CONTINUOUS
 62
     1
100
AcDbLine
 10
489.91652206994
 20
219.3963119370998
 30
0.0
 11
472.91652206994
 21
219.3963119370998
 31
0.0
  0
INSERT
  5
1DE
330
145
100
AcDbEntity
  8
0
  6
CONTINUOUS
 62
     1
100
AcDbBlockReference
  2
_OPEN30
 10
455.91652206994
 20
219.3963119370998
 30
0.0
 41
3.0
 42
3.0
 43
3.0
 50
180.0
  0
INSERT
  5
1DF
330
145
100
AcDbEntity
  8
0
  6
CONTINUOUS
 62
     1
100
AcDbBlockReference
  2
_OPEN30
 10
489.91652206994
 20
219.3963119370998
 30
0.0
 41
3.0
 42
3.0
 43
3.0
  0
MTEXT
  5
1E0
330
145
100
AcDbEntity
  8
0
 62
     3
100
AcDbMText
 10
472.91652206994
 20
220.1463119371
 30
0.0
 40
6.75
 41
0.0
 71
     8
 72
     1
  1
\A1;□34
  7
GMM001
1001
ACAD
1000
MTEXTBEGIN
1070
    73
1070
     1
1070
    44
1040
1.0
1070
    74
1070
     0
1000
MTEXTEND
1000
MTEXTBEGIN
1070
    73
1070
     1
1070
    44
1040
1.0
1070
    74
1070
     0
1000
MTEXTEND
1000
MTEXTBEGIN
1070
    73
1070
     1
1070
    44
1040
1.0
1070
    74
1070
     0
1000
MTEXTEND
  0
ENDBLK
  5
1E1
330
145
100
AcDbEntity
  8
0
100
AcDbBlockEnd
  0
BLOCK
  5
1E2
330
146
100
AcDbEntity
  8
0
100
AcDbBlockBegin
  2
*D5
 70
     1
 10
0.0
 20
0.0
 30
0.0
  3
*D5
  1

  0
LINE
  5
1E3
330
146
100
AcDbEntity
  8
0
  6
CONTINUOUS
 62
     1
100
AcDbLine
 10
450.41652206994
 20
199.3963119370999
 30
0.0
 11
450.41652206994
 21
237.3963119371
 31
0.0
  0
LINE
  5
1E4
330
146
100
AcDbEntity
  8
0
  6
CONTINUOUS
 62
     1
100
AcDbLine
 10
495.41652206994
 20
199.3963119370999
 30
0.0
 11
495.41652206994
 21
237.3963119371
 31
0.0
  0
LINE
  5
1E5
330
146
100
AcDbEntity
  8
0
  6
CONTINUOUS
 62
     1
100
AcDbLine
 10
450.41652206994
 20
234.3963119371
 30
0.0
 11
472.91652206994
 21
234.3963119371
 31
0.0
  0
LINE
  5
1E6
330
146
100
AcDbEntity
  8
0
  6
CONTINUOUS
 62
     1
100
AcDbLine
 10
495.41652206994
 20
234.3963119371
 30
0.0
 11
472.91652206994
 21
234.3963119371
 31
0.0
  0
INSERT
  5
1E7
330
146
100
AcDbEntity
  8
0
  6
CONTINUOUS
 62
     1
100
AcDbBlockReference
  2
_OPEN30
 10
450.41652206994
 20
234.3963119371
 30
0.0
 41
3.0
 42
3.0
 43
3.0
 50
180.0
  0
INSERT
  5
1E8
330
146
100
AcDbEntity
  8
0
  6
CONTINUOUS
 62
     1
100
AcDbBlockReference
  2
_OPEN30
 10
495.41652206994
 20
234.3963119371
 30
0.0
 41
3.0
 42
3.0
 43
3.0
  0
MTEXT
  5
1E9
330
146
100
AcDbEntity
  8
0
 62
     3
100
AcDbMText
 10
472.91652206994
 20
235.1463119371
 30
0.0
 40
6.75
 41
0.0
 71
     8
 72
     1
  1
\A1;□45
  7
GMM001
1001
ACAD
1000
MTEXTBEGIN
1070
    73
1070
     1
1070
    44
1040
1.0
1070
    74
1070
     0
1000
MTEXTEND
1000
MTEXTBEGIN
1070
    73
1070
     1
1070
    44
1040
1.0
1070
    74
1070
     0
1000
MTEXTEND
1000
MTEXTBEGIN
1070
    73
1070
     1
1070
    44
1040
1.0
1070
    74
1070
     0
1000
MTEXTEND
  0
ENDBLK
  5
1EA
330
146
100
AcDbEntity
  8
0
100
AcDbBlockEnd
  0
BLOCK
  5
1EB
330
147
100
AcDbEntity
  8
0
100
AcDbBlockBegin
  2
*D6
 70
     1
 10
0.0
 20
0.0
 30
0.0
  3
*D6
  1

  0
LINE
  5
1EC
330
147
100
AcDbEntity
  8
0
  6
CONTINUOUS
 62
     1
100
AcDbLine
 10
336.86191416412
 20
151.3963119370998
 30
0.0
 11
336.86191416412
 21
133.8963119370999
 31
0.0
  0
LINE
  5
1ED
330
147
100
AcDbEntity
  8
0
  6
CONTINUOUS
 62
     1
100
AcDbLine
 10
343.86191416412
 20
151.3963119370998
 30
0.0
 11
343.86191416412
 21
133.8963119370999
 31
0.0
  0
LINE
  5
1EE
330
147
100
AcDbEntity
  8
0
  6
CONTINUOUS
 62
     1
100
AcDbLine
 10
336.86191416412
 20
136.8963119370999
 30
0.0
 11
340.36191416412
 21
136.8963119370999
 31
0.0
  0
LINE
  5
1EF
330
147
100
AcDbEntity
  8
0
  6
CONTINUOUS
 62
     1
100
AcDbLine
 10
343.86191416412
 20
136.8963119370999
 30
0.0
 11
340.36191416412
 21
136.8963119370999
 31
0.0
  0
INSERT
  5
1F0
330
147
100
AcDbEntity
  8
0
  6
CONTINUOUS
 62
     1
100
AcDbBlockReference
  2
_OPEN30
 10
336.86191416412
 20
136.8963119370999
 30
0.0
 41
3.0
 42
3.0
 43
3.0
 50
180.0
  0
INSERT
  5
1F1
330
147
100
AcDbEntity
  8
0
  6
CONTINUOUS
 62
     1
100
AcDbBlockReference
  2
_OPEN30
 10
343.86191416412
 20
136.8963119370999
 30
0.0
 41
3.0
 42
3.0
 43
3.0
  0
MTEXT
  5
1F2
330
147
100
AcDbEntity
  8
0
 62
     3
100
AcDbMText
 10
340.36191416412
 20
137.6463119370999
 30
0.0
 40
6.75
 41
0.0
 71
     8
 72
     1
  1
\A1;7
  7
GMM001
1001
ACAD
1000
MTEXTBEGIN
1070
    73
1070
     1
1070
    44
1040
1.0
1070
    74
1070
     0
1000
MTEXTEND
1000
MTEXTBEGIN
1070
    73
1070
     1
1070
    44
1040
1.0
1070
    74
1070
     0
1000
MTEXTEND
1000
MTEXTBEGIN
1070
    73
1070
     1
1070
    44
1040
1.0
1070
    74
1070
     0
1000
MTEXTEND
  0
ENDBLK
  5
1F3
330
147
100
AcDbEntity
  8
0
100
AcDbBlockEnd
  0
BLOCK
  5
1F4
330
148
100
AcDbEntity
  8
0
100
AcDbBlockBegin
  2
GMM001
 70
     0
 10
0.0
 20
0.0
 30
0.0
  3
GMM001
  1

  0
LINE
  5
1F5
330
148
100
AcDbEntity
  8
0
  6
CONTINUOUS
 62
     3
100
AcDbLine
 10
-2.325411411296999
 20
-1.3089735769153
 30
0.0
 11
0.0
 21
2.7187571360685
 31
0.0
  0
LINE
  5
1F6
330
148
100
AcDbEntity
  8
0
  6
CONTINUOUS
 62
     3
100
AcDbLine
 10
2.325411411296999
 20
-1.3089735769153
 30
0.0
 11
-2.325411411296999
 21
-1.3089735769153
 31
0.0
  0
TEXT
  5
1F7
330
148
100
AcDbEntity
  8
0
 62
     3
100
AcDbText
 10
-0.7224541119603001
 20
-1.518757136068499
 30
0.0
 40
3.6
  1
1
 41
0.38888888888889
100
AcDbText
  0
LINE
  5
1F8
330
148
100
AcDbEntity
  8
0
  6
CONTINUOUS
 62
     3
100
AcDbLine
 10
2.325411411296999
 20
-1.3089735769153
 30
0.0
 11
0.0
 21
2.7187571360685
 31
0.0
  0
ENDBLK
  5
1F9
330
148
100
AcDbEntity
  8
0
100
AcDbBlockEnd
  0
BLOCK
  5
1FA
330
149
100
AcDbEntity
  8
0
100
AcDbBlockBegin
  2
*D8
 70
     1
 10
0.0
 20
0.0
 30
0.0
  3
*D8
  1

  0
LINE
  5
1FB
330
149
100
AcDbEntity
  8
0
  6
CONTINUOUS
 62
     1
100
AcDbLine
 10
362.86191416412
 20
168.8963119370999
 30
0.0
 11
362.86191416412
 21
148.8963119371
 31
0.0
  0
LINE
  5
1FC
330
149
100
AcDbEntity
  8
0
  6
CONTINUOUS
 62
     1
100
AcDbLine
 10
382.86191416412
 20
168.8963119370999
 30
0.0
 11
382.86191416412
 21
148.8963119371
 31
0.0
  0
LINE
  5
1FD
330
149
100
AcDbEntity
  8
0
  6
CONTINUOUS
 62
     1
100
AcDbLine
 10
362.86191416412
 20
151.8963119371
 30
0.0
 11
372.86191416412
 21
151.8963119371
 31
0.0
  0
LINE
  5
1FE
330
149
100
AcDbEntity
  8
0
  6
CONTINUOUS
 62
     1
100
AcDbLine
 10
382.86191416412
 20
151.8963119371
 30
0.0
 11
372.86191416412
 21
151.8963119371
 31
0.0
  0
INSERT
  5
1FF
330
149
100
AcDbEntity
  8
0
  6
CONTINUOUS
 62
     1
100
AcDbBlockReference
  2
_OPEN30
 10
362.86191416412
 20
151.8963119371
 30
0.0
 41
3.0
 42
3.0
 43
3.0
 50
180.0
  0
INSERT
  5
200
330
149
100
AcDbEntity
  8
0
  6
CONTINUOUS
 62
     1
100
AcDbBlockReference
  2
_OPEN30
 10
382.86191416412
 20
151.8963119371
 30
0.0
 41
3.0
 42
3.0
 43
3.0
  0
MTEXT
  5
201
330
149
100
AcDbEntity
  8
0
 62
     3
100
AcDbMText
 10
372.86191416412
 20
152.6463119370999
 30
0.0
 40
6.75
 41
0.0
 71
     8
 72
     1
  1
\A1;20
  7
GMM001
1001
ACAD
1000
MTEXTBEGIN
1070
    73
1070
     1
1070
    44
1040
1.0
1070
    74
1070
     0
1000
MTEXTEND
1000
MTEXTBEGIN
1070
    73
1070
     1
1070
    44
1040
1.0
1070
    74
1070
     0
1000
MTEXTEND
1000
MTEXTBEGIN
1070
    73
1070
     1
1070
    44
1040
1.0
1070
    74
1070
     0
1000
MTEXTEND
  0
ENDBLK
  5
202
330
149
100
AcDbEntity
  8
0
100
AcDbBlockEnd
  0
BLOCK
  5
203
330
14A
100
AcDbEntity
  8
0
100
AcDbBlockBegin
  2
*D9
 70
     1
 10
0.0
 20
0.0
 30
0.0
  3
*D9
  1

  0
LINE
  5
204
330
14A
100
AcDbEntity
  8
0
  6
CONTINUOUS
 62
     1
100
AcDbLine
 10
357.86191416412
 20
169.3963119371
 30
0.0
 11
405.86191416412
 21
169.3963119371
 31
0.0
  0
LINE
  5
205
330
14A
100
AcDbEntity
  8
0
  6
CONTINUOUS
 62
     1
100
AcDbLine
 10
357.86191416412
 20
184.3963119370999
 30
0.0
 11
405.86191416412
 21
184.3963119370999
 31
0.0
  0
LINE
  5
206
330
14A
100
AcDbEntity
  8
0
  6
CONTINUOUS
 62
     1
100
AcDbLine
 10
402.86191416412
 20
169.3963119371
 30
0.0
 11
402.86191416412
 21
176.8963119371
 31
0.0
  0
LINE
  5
207
330
14A
100
AcDbEntity
  8
0
  6
CONTINUOUS
 62
     1
100
AcDbLine
 10
402.86191416412
 20
184.3963119370999
 30
0.0
 11
402.86191416412
 21
176.8963119371
 31
0.0
  0
INSERT
  5
208
330
14A
100
AcDbEntity
  8
0
  6
CONTINUOUS
 62
     1
100
AcDbBlockReference
  2
_OPEN30
 10
402.86191416412
 20
169.3963119371
 30
0.0
 41
3.0
 42
3.0
 43
3.0
 50
270.0
  0
INSERT
  5
209
330
14A
100
AcDbEntity
  8
0
  6
CONTINUOUS
 62
     1
100
AcDbBlockReference
  2
_OPEN30
 10
402.86191416412
 20
184.3963119370999
 30
0.0
 41
3.0
 42
3.0
 43
3.0
 50
90.0
  0
MTEXT
  5
20A
330
14A
100
AcDbEntity
  8
0
 62
     3
100
AcDbMText
 10
402.11191416412
 20
176.8963119371
 30
0.0
 40
6.75
 41
0.0
 71
     8
 72
     1
  1
\A1;%%c15
  7
GMM001
 11
0.0
 21
1.0
 31
0.0
1001
ACAD
1000
MTEXTBEGIN
1070
    73
1070
     1
1070
    44
1040
1.0
1070
    74
1070
     0
1000
MTEXTEND
1000
MTEXTBEGIN
1070
    73
1070
     1
1070
    44
1040
1.0
1070
    74
1070
     0
1000
MTEXTEND
1000
MTEXTBEGIN
1070
    73
1070
     1
1070
    44
1040
1.0
1070
    74
1070
     0
1000
MTEXTEND
  0
ENDBLK
  5
20B
330
14A
100
AcDbEntity
  8
0
100
AcDbBlockEnd
  0
BLOCK
  5
20C
330
14B
100
AcDbEntity
  8
0
100
AcDbBlockBegin
  2
*D10
 70
     1
 10
0.0
 20
0.0
 30
0.0
  3
*D10
  1

  0
LINE
  5
20D
330
14B
100
AcDbEntity
  8
0
  6
CONTINUOUS
 62
     1
100
AcDbLine
 10
355.86191416412
 20
169.0132605177
 30
0.0
 11
355.86191416412
 21
133.8963119370999
 31
0.0
  0
LINE
  5
20E
330
14B
100
AcDbEntity
  8
0
  6
CONTINUOUS
 62
     1
100
AcDbLine
 10
352.11191416412
 20
136.8963119370999
 30
0.0
 11
358.61191416412
 21
136.8963119370999
 31
0.0
  0
LINE
  5
20F
330
14B
100
AcDbEntity
  8
0
  6
CONTINUOUS
 62
     1
100
AcDbLine
 10
361.36191416412
 20
136.8963119370999
 30
0.0
 11
358.61191416412
 21
136.8963119370999
 31
0.0
  0
INSERT
  5
210
330
14B
100
AcDbEntity
  8
0
  6
CONTINUOUS
 62
     1
100
AcDbBlockReference
  2
_OPEN30
 10
355.86191416412
 20
136.8963119370999
 30
0.0
 41
3.0
 42
3.0
 43
3.0
  0
MTEXT
  5
211
330
14B
100
AcDbEntity
  8
0
 62
     3
100
AcDbMText
 10
356.2585733881998
 20
137.70336076818
 30
0.0
 40
6.75
 41
0.0
 71
     8
 72
     1
  1
\A1;5.5
  7
GMM001
1001
ACAD
1000
MTEXTBEGIN
1070
    73
1070
     1
1070
    44
1040
1.0
1070
    74
1070
     0
1000
MTEXTEND
1000
MTEXTBEGIN
1070
    73
1070
     1
1070
    44
1040
1.0
1070
    74
1070
     0
1000
MTEXTEND
1000
MTEXTBEGIN
1070
    73
1070
     1
1070
    44
1040
1.0
1070
    74
1070
     0
1000
MTEXTEND
  0
ENDBLK
  5
212
330
14B
100
AcDbEntity
  8
0
100
AcDbBlockEnd
  0
BLOCK
  5
213
330
14C
100
AcDbEntity
  8
0
100
AcDbBlockBegin
  2
*D11
 70
     1
 10
0.0
 20
0.0
 30
0.0
  3
*D11
  1

  0
LINE
  5
214
330
14C
100
AcDbEntity
  8
0
  6
CONTINUOUS
 62
     1
100
AcDbLine
 10
361.36191416412
 20
166.8963119370999
 30
0.0
 11
361.36191416412
 21
133.8963119370999
 31
0.0
  0
LINE
  5
215
330
14C
100
AcDbEntity
  8
0
  6
CONTINUOUS
 62
     1
100
AcDbLine
 10
382.86191416412
 20
168.8963119370999
 30
0.0
 11
382.86191416412
 21
133.8963119370999
 31
0.0
  0
LINE
  5
216
330
14C
100
AcDbEntity
  8
0
  6
CONTINUOUS
 62
     1
100
AcDbLine
 10
361.36191416412
 20
136.8963119370999
 30
0.0
 11
372.11191416412
 21
136.8963119370999
 31
0.0
  0
LINE
  5
217
330
14C
100
AcDbEntity
  8
0
  6
CONTINUOUS
 62
     1
100
AcDbLine
 10
382.86191416412
 20
136.8963119370999
 30
0.0
 11
372.11191416412
 21
136.8963119370999
 31
0.0
  0
INSERT
  5
218
330
14C
100
AcDbEntity
  8
0
  6
CONTINUOUS
 62
     1
100
AcDbBlockReference
  2
_OPEN30
 10
361.36191416412
 20
136.8963119370999
 30
0.0
 41
3.0
 42
3.0
 43
3.0
 50
180.0
  0
INSERT
  5
219
330
14C
100
AcDbEntity
  8
0
  6
CONTINUOUS
 62
     1
100
AcDbBlockReference
  2
_OPEN30
 10
382.86191416412
 20
136.8963119370999
 30
0.0
 41
3.0
 42
3.0
 43
3.0
  0
MTEXT
  5
21A
330
14C
100
AcDbEntity
  8
0
 62
     3
100
AcDbMText
 10
373.61976727686
 20
137.7270114942499
 30
0.0
 40
6.75
 41
0.0
 71
     8
 72
     1
  1
\A1;21.5
  7
GMM001
1001
ACAD
1000
MTEXTBEGIN
1070
    73
1070
     1
1070
    44
1040
1.0
1070
    74
1070
     0
1000
MTEXTEND
1000
MTEXTBEGIN
1070
    73
1070
     1
1070
    44
1040
1.0
1070
    74
1070
     0
1000
MTEXTEND
1000
MTEXTBEGIN
1070
    73
1070
     1
1070
    44
1040
1.0
1070
    74
1070
     0
1000
MTEXTEND
  0
ENDBLK
  5
21B
330
14C
100
AcDbEntity
  8
0
100
AcDbBlockEnd
  0
BLOCK
  5
21C
330
14D
100
AcDbEntity
  8
0
100
AcDbBlockBegin
  2
*D12
 70
     1
 10
0.0
 20
0.0
 30
0.0
  3
*D12
  1

  0
LINE
  5
21D
330
14D
100
AcDbEntity
  8
0
  6
CONTINUOUS
 62
     1
100
AcDbLine
 10
177.8619141641199
 20
223.8963119370999
 30
0.0
 11
177.8619141641199
 21
303.75511230161
 31
0.0
  0
LINE
  5
21E
330
14D
100
AcDbEntity
  8
0
  6
CONTINUOUS
 62
     1
100
AcDbLine
 10
303.86191416412
 20
222.92349219381
 30
0.0
 11
303.86191416412
 21
303.75511230161
 31
0.0
  0
LINE
  5
21F
330
14D
100
AcDbEntity
  8
0
  6
CONTINUOUS
 62
     1
100
AcDbLine
 10
177.8619141641199
 20
300.7551123016098
 30
0.0
 11
240.86191416412
 21
300.7551123016098
 31
0.0
  0
LINE
  5
220
330
14D
100
AcDbEntity
  8
0
  6
CONTINUOUS
 62
     1
100
AcDbLine
 10
303.86191416412
 20
300.7551123016098
 30
0.0
 11
240.86191416412
 21
300.7551123016098
 31
0.0
  0
INSERT
  5
221
330
14D
100
AcDbEntity
  8
0
  6
CONTINUOUS
 62
     1
100
AcDbBlockReference
  2
_OPEN30
 10
177.8619141641199
 20
300.7551123016098
 30
0.0
 41
3.0
 42
3.0
 43
3.0
 50
180.0
  0
INSERT
  5
222
330
14D
100
AcDbEntity
  8
0
  6
CONTINUOUS
 62
     1
100
AcDbBlockReference
  2
_OPEN30
 10
303.86191416412
 20
300.7551123016098
 30
0.0
 41
3.0
 42
3.0
 43
3.0
  0
MTEXT
  5
223
330
14D
100
AcDbEntity
  8
0
 62
     3
100
AcDbMText
 10
240.86191416412
 20
301.50511230161
 30
0.0
 40
6.75
 41
0.0
 71
     8
 72
     1
  1
\A1;(127)
  7
GMM001
1001
ACAD
1000
MTEXTBEGIN
1070
    73
1070
     1
1070
    44
1040
1.0
1070
    74
1070
     0
1000
MTEXTEND
1000
MTEXTBEGIN
1070
    73
1070
     1
1070
    44
1040
1.0
1070
    74
1070
     0
1000
MTEXTEND
1000
MTEXTBEGIN
1070
    73
1070
     1
1070
    44
1040
1.0
1070
    74
1070
     0
1000
MTEXTEND
  0
ENDBLK
  5
224
330
14D
100
AcDbEntity
  8
0
100
AcDbBlockEnd
  0
BLOCK
  5
225
330
14E
100
AcDbEntity
  8
0
100
AcDbBlockBegin
  2
*D13
 70
     1
 10
0.0
 20
0.0
 30
0.0
  3
*D13
  1

  0
LINE
  5
226
330
14E
100
AcDbEntity
  8
0
  6
CONTINUOUS
 62
     1
100
AcDbLine
 10
177.8619141641199
 20
223.8963119370999
 30
0.0
 11
177.8619141641199
 21
318.7551123016098
 31
0.0
  0
LINE
  5
227
330
14E
100
AcDbEntity
  8
0
  6
CONTINUOUS
 62
     1
100
AcDbLine
 10
316.8661378011297
 20
202.2035029615798
 30
0.0
 11
316.8661378011297
 21
318.7551123016098
 31
0.0
  0
LINE
  5
228
330
14E
100
AcDbEntity
  8
0
  6
CONTINUOUS
 62
     1
100
AcDbLine
 10
177.8619141641199
 20
315.7551123016098
 30
0.0
 11
247.36402598262
 21
315.7551123016098
 31
0.0
  0
LINE
  5
229
330
14E
100
AcDbEntity
  8
0
  6
CONTINUOUS
 62
     1
100
AcDbLine
 10
316.8661378011297
 20
315.7551123016098
 30
0.0
 11
247.36402598262
 21
315.7551123016098
 31
0.0
  0
INSERT
  5
22A
330
14E
100
AcDbEntity
  8
0
  6
CONTINUOUS
 62
     1
100
AcDbBlockReference
  2
_OPEN30
 10
177.8619141641199
 20
315.7551123016098
 30
0.0
 41
3.0
 42
3.0
 43
3.0
 50
180.0
  0
INSERT
  5
22B
330
14E
100
AcDbEntity
  8
0
  6
CONTINUOUS
 62
     1
100
AcDbBlockReference
  2
_OPEN30
 10
316.8661378011297
 20
315.7551123016098
 30
0.0
 41
3.0
 42
3.0
 43
3.0
  0
MTEXT
  5
22C
330
14E
100
AcDbEntity
  8
0
 62
     3
100
AcDbMText
 10
247.36402598262
 20
316.50511230161
 30
0.0
 40
6.75
 41
0.0
 71
     8
 72
     1
  1
\A1;(140)
  7
GMM001
1001
ACAD
1000
MTEXTBEGIN
1070
    73
1070
     1
1070
    44
1040
1.0
1070
    74
1070
     0
1000
MTEXTEND
1000
MTEXTBEGIN
1070
    73
1070
     1
1070
    44
1040
1.0
1070
    74
1070
     0
1000
MTEXTEND
1000
MTEXTBEGIN
1070
    73
1070
     1
1070
    44
1040
1.0
1070
    74
1070
     0
1000
MTEXTEND
  0
ENDBLK
  5
22D
330
14E
100
AcDbEntity
  8
0
100
AcDbBlockEnd
  0
BLOCK
  5
22E
330
14F
100
AcDbEntity
  8
0
100
AcDbBlockBegin
  2
*D14
 70
     1
 10
0.0
 20
0.0
 30
0.0
  3
*D14
  1

  0
LINE
  5
22F
330
14F
100
AcDbEntity
  8
0
  6
CONTINUOUS
 62
     1
100
AcDbLine
 10
177.8619141641199
 20
152.3963119370999
 30
0.0
 11
177.8619141641199
 21
118.8963119370999
 31
0.0
  0
LINE
  5
230
330
14F
100
AcDbEntity
  8
0
  6
CONTINUOUS
 62
     1
100
AcDbLine
 10
177.8619141641199
 20
121.8963119370999
 30
0.0
 11
260.86191416412
 21
121.8963119370999
 31
0.0
  0
LINE
  5
231
330
14F
100
AcDbEntity
  8
0
  6
CONTINUOUS
 62
     1
100
AcDbLine
 10
343.86191416412
 20
121.8963119370999
 30
0.0
 11
260.86191416412
 21
121.8963119370999
 31
0.0
  0
INSERT
  5
232
330
14F
100
AcDbEntity
  8
0
  6
CONTINUOUS
 62
     1
100
AcDbBlockReference
  2
_OPEN30
 10
177.8619141641199
 20
121.8963119370999
 30
0.0
 41
3.0
 42
3.0
 43
3.0
 50
180.0
  0
INSERT
  5
233
330
14F
100
AcDbEntity
  8
0
  6
CONTINUOUS
 62
     1
100
AcDbBlockReference
  2
_OPEN30
 10
343.86191416412
 20
121.8963119370999
 30
0.0
 41
3.0
 42
3.0
 43
3.0
  0
MTEXT
  5
234
330
14F
100
AcDbEntity
  8
0
 62
     3
100
AcDbMText
 10
260.86191416412
 20
122.6463119371
 30
0.0
 40
6.75
 41
0.0
 71
     8
 72
     1
  1
\A1;L
  7
GMM001
1001
ACAD
1000
MTEXTBEGIN
1070
    73
1070
     1
1070
    44
1040
1.0
1070
    74
1070
     0
1000
MTEXTEND
1000
MTEXTBEGIN
1070
    73
1070
     1
1070
    44
1040
1.0
1070
    74
1070
     0
1000
MTEXTEND
1000
MTEXTBEGIN
1070
    73
1070
     1
1070
    44
1040
1.0
1070
    74
1070
     0
1000
MTEXTEND
  0
ENDBLK
  5
235
330
14F
100
AcDbEntity
  8
0
100
AcDbBlockEnd
  0
BLOCK
  5
236
330
150
100
AcDbEntity
  8
0
100
AcDbBlockBegin
  2
*D15
 70
     1
 10
0.0
 20
0.0
 30
0.0
  3
*D15
  1

  0
LINE
  5
237
330
150
100
AcDbEntity
  8
0
  6
CONTINUOUS
 62
     1
100
AcDbLine
 10
343.86191416412
 20
151.3963119370998
 30
0.0
 11
343.86191416412
 21
118.8963119370999
 31
0.0
  0
LINE
  5
238
330
150
100
AcDbEntity
  8
0
  6
CONTINUOUS
 62
     1
100
AcDbLine
 10
343.86191416412
 20
121.8963119370999
 30
0.0
 11
345.36191416412
 21
121.8963119370999
 31
0.0
  0
LINE
  5
239
330
150
100
AcDbEntity
  8
0
  6
CONTINUOUS
 62
     1
100
AcDbLine
 10
346.86191416412
 20
121.8963119370999
 30
0.0
 11
345.36191416412
 21
121.8963119370999
 31
0.0
  0
MTEXT
  5
23A
330
150
100
AcDbEntity
  8
0
 62
     3
100
AcDbMText
 10
345.36191416412
 20
122.6463119371
 30
0.0
 40
6.75
 41
0.0
 71
     8
 72
     1
  1
\A1;3
  7
GMM001
1001
ACAD
1000
MTEXTBEGIN
1070
    73
1070
     1
1070
    44
1040
1.0
1070
    74
1070
     0
1000
MTEXTEND
1000
MTEXTBEGIN
1070
    73
1070
     1
1070
    44
1040
1.0
1070
    74
1070
     0
1000
MTEXTEND
1000
MTEXTBEGIN
1070
    73
1070
     1
1070
    44
1040
1.0
1070
    74
1070
     0
1000
MTEXTEND
  0
ENDBLK
  5
23B
330
150
100
AcDbEntity
  8
0
100
AcDbBlockEnd
  0
BLOCK
  5
23C
330
151
100
AcDbEntity
  8
0
100
AcDbBlockBegin
  2
*D16
 70
     1
 10
0.0
 20
0.0
 30
0.0
  3
*D16
  1

  0
LINE
  5
23D
330
151
100
AcDbEntity
  8
0
  6
CONTINUOUS
 62
     1
100
AcDbLine
 10
346.86191416412
 20
158.8963119370999
 30
0.0
 11
346.86191416412
 21
118.8963119370999
 31
0.0
  0
LINE
  5
23E
330
151
100
AcDbEntity
  8
0
  6
CONTINUOUS
 62
     1
100
AcDbLine
 10
382.86191416412
 20
168.8963119370999
 30
0.0
 11
382.86191416412
 21
118.8963119370999
 31
0.0
  0
LINE
  5
23F
330
151
100
AcDbEntity
  8
0
  6
CONTINUOUS
 62
     1
100
AcDbLine
 10
346.86191416412
 20
121.8963119370999
 30
0.0
 11
364.86191416412
 21
121.8963119370999
 31
0.0
  0
LINE
  5
240
330
151
100
AcDbEntity
  8
0
  6
CONTINUOUS
 62
     1
100
AcDbLine
 10
382.86191416412
 20
121.8963119370999
 30
0.0
 11
364.86191416412
 21
121.8963119370999
 31
0.0
  0
INSERT
  5
241
330
151
100
AcDbEntity
  8
0
  6
CONTINUOUS
 62
     1
100
AcDbBlockReference
  2
_OPEN30
 10
346.86191416412
 20
121.8963119370999
 30
0.0
 41
3.0
 42
3.0
 43
3.0
 50
180.0
  0
INSERT
  5
242
330
151
100
AcDbEntity
  8
0
  6
CONTINUOUS
 62
     1
100
AcDbBlockReference
  2
_OPEN30
 10
382.86191416412
 20
121.8963119370999
 30
0.0
 41
3.0
 42
3.0
 43
3.0
  0
MTEXT
  5
243
330
151
100
AcDbEntity
  8
0
 62
     3
100
AcDbMText
 10
364.86191416412
 20
122.6463119371
 30
0.0
 40
6.75
 41
0.0
 71
     8
 72
     1
  1
\A1;36
  7
GMM001
1001
ACAD
1000
MTEXTBEGIN
1070
    73
1070
     1
1070
    44
1040
1.0
1070
    74
1070
     0
1000
MTEXTEND
1000
MTEXTBEGIN
1070
    73
1070
     1
1070
    44
1040
1.0
1070
    74
1070
     0
1000
MTEXTEND
1000
MTEXTBEGIN
1070
    73
1070
     1
1070
    44
1040
1.0
1070
    74
1070
     0
1000
MTEXTEND
  0
ENDBLK
  5
244
330
151
100
AcDbEntity
  8
0
100
AcDbBlockEnd
  0
BLOCK
  5
163
330
152
100
AcDbEntity
  8
0
100
AcDbBlockBegin
  2
_ARCHTICK
 70
     0
 10
0.0
 20
0.0
 30
0.0
  3
_ARCHTICK
  1

  0
POLYLINE
  5
164
330
152
100
AcDbEntity
  8
0
  6
BYBLOCK
 62
     0
100
AcDb2dPolyline
 66
     1
 10
0.0
 20
0.0
 30
0.0
 70
     1
 40
0.15
 41
0.15
  0
VERTEX
  5
638
330
164
100
AcDbEntity
  8
0
  6
BYBLOCK
 62
     0
100
AcDbVertex
100
AcDb2dVertex
 10
-0.5
 20
-0.5
 30
0.0
  0
VERTEX
  5
639
330
164
100
AcDbEntity
  8
0
  6
BYBLOCK
 62
     0
100
AcDbVertex
100
AcDb2dVertex
 10
0.5
 20
0.5
 30
0.0
  0
SEQEND
  5
63A
330
164
100
AcDbEntity
  8
0
  6
BYBLOCK
 62
     0
  0
ENDBLK
  5
168
330
152
100
AcDbEntity
  8
0
100
AcDbBlockEnd
  0
BLOCK
  5
16C
330
153
100
AcDbEntity
  8
0
100
AcDbBlockBegin
  2
_BOXBLANK
 70
     0
 10
0.0
 20
0.0
 30
0.0
  3
_BOXBLANK
  1

  0
LINE
  5
16D
330
153
100
AcDbEntity
  8
0
  6
BYBLOCK
 62
     0
100
AcDbLine
 10
-0.5
 20
-0.5
 30
0.0
 11
0.5
 21
-0.5
 31
0.0
  0
LINE
  5
16E
330
153
100
AcDbEntity
  8
0
  6
BYBLOCK
 62
     0
100
AcDbLine
 10
0.5
 20
-0.5
 30
0.0
 11
0.5
 21
0.5
 31
0.0
  0
LINE
  5
16F
330
153
100
AcDbEntity
  8
0
  6
BYBLOCK
 62
     0
100
AcDbLine
 10
0.5
 20
0.5
 30
0.0
 11
-0.5
 21
0.5
 31
0.0
  0
LINE
  5
170
330
153
100
AcDbEntity
  8
0
  6
BYBLOCK
 62
     0
100
AcDbLine
 10
-0.5
 20
0.5
 30
0.0
 11
-0.5
 21
-0.5
 31
0.0
  0
LINE
  5
171
330
153
100
AcDbEntity
  8
0
  6
BYBLOCK
 62
     0
100
AcDbLine
 10
-0.5
 20
0.0
 30
0.0
 11
-1.0
 21
0.0
 31
0.0
  0
ENDBLK
  5
172
330
153
100
AcDbEntity
  8
0
100
AcDbBlockEnd
  0
BLOCK
  5
173
330
154
100
AcDbEntity
  8
0
100
AcDbBlockBegin
  2
_BOXFILLED
 70
     0
 10
0.0
 20
0.0
 30
0.0
  3
_BOXFILLED
  1

  0
SOLID
  5
174
330
154
100
AcDbEntity
  8
0
  6
BYBLOCK
 62
     0
100
AcDbTrace
 10
-0.5
 20
0.5
 30
0.0
 11
0.5
 21
0.5
 31
0.0
 12
-0.5
 22
-0.5
 32
0.0
 13
0.5
 23
-0.5
 33
0.0
  0
LINE
  5
175
330
154
100
AcDbEntity
  8
0
  6
BYBLOCK
 62
     0
100
AcDbLine
 10
-0.5
 20
0.0
 30
0.0
 11
-1.0
 21
0.0
 31
0.0
  0
ENDBLK
  5
176
330
154
100
AcDbEntity
  8
0
100
AcDbBlockEnd
  0
BLOCK
  5
177
330
155
100
AcDbEntity
  8
0
100
AcDbBlockBegin
  2
_CLOSED
 70
     0
 10
0.0
 20
0.0
 30
0.0
  3
_CLOSED
  1

  0
LINE
  5
178
330
155
100
AcDbEntity
  8
0
  6
BYBLOCK
 62
     0
100
AcDbLine
 10
-1.0
 20
0.16666666666667
 30
0.0
 11
0.0
 21
0.0
 31
0.0
  0
LINE
  5
179
330
155
100
AcDbEntity
  8
0
  6
BYBLOCK
 62
     0
100
AcDbLine
 10
0.0
 20
0.0
 30
0.0
 11
-1.0
 21
-0.16666666666667
 31
0.0
  0
LINE
  5
17A
330
155
100
AcDbEntity
  8
0
  6
BYBLOCK
 62
     0
100
AcDbLine
 10
-1.0
 20
0.16666666666667
 30
0.0
 11
-1.0
 21
-0.16666666666667
 31
0.0
  0
LINE
  5
17B
330
155
100
AcDbEntity
  8
0
  6
BYBLOCK
 62
     0
100
AcDbLine
 10
0.0
 20
0.0
 30
0.0
 11
-1.0
 21
0.0
 31
0.0
  0
ENDBLK
  5
17C
330
155
100
AcDbEntity
  8
0
100
AcDbBlockEnd
  0
BLOCK
  5
18C
330
156
100
AcDbEntity
  8
0
100
AcDbBlockBegin
  2
_CLOSEDBLANK
 70
     0
 10
0.0
 20
0.0
 30
0.0
  3
_CLOSEDBLANK
  1

  0
LINE
  5
18D
330
156
100
AcDbEntity
  8
0
  6
BYBLOCK
 62
     0
100
AcDbLine
 10
-1.0
 20
0.16666666666667
 30
0.0
 11
0.0
 21
0.0
 31
0.0
  0
LINE
  5
18E
330
156
100
AcDbEntity
  8
0
  6
BYBLOCK
 62
     0
100
AcDbLine
 10
0.0
 20
0.0
 30
0.0
 11
-1.0
 21
-0.16666666666667
 31
0.0
  0
LINE
  5
18F
330
156
100
AcDbEntity
  8
0
  6
BYBLOCK
 62
     0
100
AcDbLine
 10
-1.0
 20
0.16666666666667
 30
0.0
 11
-1.0
 21
-0.16666666666667
 31
0.0
  0
ENDBLK
  5
190
330
156
100
AcDbEntity
  8
0
100
AcDbBlockEnd
  0
BLOCK
  5
19E
330
157
100
AcDbEntity
  8
0
100
AcDbBlockBegin
  2
_DATUMBLANK
 70
     0
 10
0.0
 20
0.0
 30
0.0
  3
_DATUMBLANK
  1

  0
LINE
  5
19F
330
157
100
AcDbEntity
  8
0
  6
BYBLOCK
 62
     0
100
AcDbLine
 10
0.0
 20
0.5773502700000001
 30
0.0
 11
-1.0
 21
0.0
 31
0.0
  0
LINE
  5
1A0
330
157
100
AcDbEntity
  8
0
  6
BYBLOCK
 62
     0
100
AcDbLine
 10
-1.0
 20
0.0
 30
0.0
 11
0.0
 21
-0.5773502700000001
 31
0.0
  0
LINE
  5
1A1
330
157
100
AcDbEntity
  8
0
  6
BYBLOCK
 62
     0
100
AcDbLine
 10
0.0
 20
-0.5773502700000001
 30
0.0
 11
0.0
 21
0.5773502700000001
 31
0.0
  0
ENDBLK
  5
1A2
330
157
100
AcDbEntity
  8
0
100
AcDbBlockEnd
  0
BLOCK
  5
1A3
330
158
100
AcDbEntity
  8
0
100
AcDbBlockBegin
  2
_DATUMFILLED
 70
     0
 10
0.0
 20
0.0
 30
0.0
  3
_DATUMFILLED
  1

  0
SOLID
  5
1A4
330
158
100
AcDbEntity
  8
0
  6
BYBLOCK
 62
     0
100
AcDbTrace
 10
0.0
 20
0.5773502700000001
 30
0.0
 11
-1.0
 21
0.0
 31
0.0
 12
0.0
 22
-0.5773502700000001
 32
0.0
 13
0.0
 23
-0.5773502700000001
 33
0.0
  0
ENDBLK
  5
1A5
330
158
100
AcDbEntity
  8
0
100
AcDbBlockEnd
  0
BLOCK
  5
191
330
159
100
AcDbEntity
  8
0
100
AcDbBlockBegin
  2
_DOT
 70
     0
 10
0.0
 20
0.0
 30
0.0
  3
_DOT
  1

  0
POLYLINE
  5
192
330
159
100
AcDbEntity
  8
0
  6
BYBLOCK
 62
     0
100
AcDb2dPolyline
 66
     1
 10
0.0
 20
0.0
 30
0.0
 70
     1
 40
0.5
 41
0.5
  0
VERTEX
  5
63B
330
192
100
AcDbEntity
  8
0
  6
BYBLOCK
 62
     0
100
AcDbVertex
100
AcDb2dVertex
 10
-0.25
 20
0.0
 30
0.0
 42
1.0
  0
VERTEX
  5
63C
330
192
100
AcDbEntity
  8
0
  6
BYBLOCK
 62
     0
100
AcDbVertex
100
AcDb2dVertex
 10
0.25
 20
0.0
 30
0.0
 42
1.0
  0
SEQEND
  5
63D
330
192
100
AcDbEntity
  8
0
  6
BYBLOCK
 62
     0
  0
LINE
  5
196
330
159
100
AcDbEntity
  8
0
  6
BYBLOCK
 62
     0
100
AcDbLine
 10
-0.5
 20
0.0
 30
0.0
 11
-1.0
 21
0.0
 31
0.0
  0
ENDBLK
  5
197
330
159
100
AcDbEntity
  8
0
100
AcDbBlockEnd
  0
BLOCK
  5
1AD
330
15A
100
AcDbEntity
  8
0
100
AcDbBlockBegin
  2
_DOTBLANK
 70
     0
 10
0.0
 20
0.0
 30
0.0
  3
_DOTBLANK
  1

  0
CIRCLE
  5
1AE
330
15A
100
AcDbEntity
  8
0
  6
BYBLOCK
 62
     0
100
AcDbCircle
 10
0.0
 20
0.0
 30
0.0
 40
0.5
  0
LINE
  5
1AF
330
15A
100
AcDbEntity
  8
0
  6
BYBLOCK
 62
     0
100
AcDbLine
 10
-0.5
 20
0.0
 30
0.0
 11
-1.0
 21
0.0
 31
0.0
  0
ENDBLK
  5
1B0
330
15A
100
AcDbEntity
  8
0
100
AcDbBlockEnd
  0
BLOCK
  5
198
330
15B
100
AcDbEntity
  8
0
100
AcDbBlockBegin
  2
_DOTSMALL
 70
     0
 10
0.0
 20
0.0
 30
0.0
  3
_DOTSMALL
  1

  0
POLYLINE
  5
199
330
15B
100
AcDbEntity
  8
0
  6
BYBLOCK
 62
     0
100
AcDb2dPolyline
 66
     1
 10
0.0
 20
0.0
 30
0.0
 70
     1
 40
0.5
 41
0.5
  0
VERTEX
  5
63E
330
199
100
AcDbEntity
  8
0
  6
BYBLOCK
 62
     0
100
AcDbVertex
100
AcDb2dVertex
 10
-0.0625
 20
0.0
 30
0.0
 42
1.0
  0
VERTEX
  5
63F
330
199
100
AcDbEntity
  8
0
  6
BYBLOCK
 62
     0
100
AcDbVertex
100
AcDb2dVertex
 10
0.0625
 20
0.0
 30
0.0
 42
1.0
  0
SEQEND
  5
640
330
199
100
AcDbEntity
  8
0
  6
BYBLOCK
 62
     0
  0
ENDBLK
  5
19D
330
15B
100
AcDbEntity
  8
0
100
AcDbBlockEnd
  0
BLOCK
  5
1B1
330
15C
100
AcDbEntity
  8
0
100
AcDbBlockBegin
  2
_INTEGRAL
 70
     0
 10
0.0
 20
0.0
 30
0.0
  3
_INTEGRAL
  1

  0
ARC
  5
1B2
330
15C
100
AcDbEntity
  8
0
  6
BYBLOCK
 62
     0
100
AcDbCircle
 10
0.444888
 20
-0.091335
 30
0.0
 40
0.454167
100
AcDbArc
 50
102.0
 51
168.0
  0
ARC
  5
1B3
330
15C
100
AcDbEntity
  8
0
  6
BYBLOCK
 62
     0
100
AcDbCircle
 10
-0.444888
 20
0.091335
 30
0.0
 40
0.454167
100
AcDbArc
 50
282.0
 51
348.0
  0
ENDBLK
  5
1B4
330
15C
100
AcDbEntity
  8
0
100
AcDbBlockEnd
  0
BLOCK
  5
1AA
330
15D
100
AcDbEntity
  8
0
100
AcDbBlockBegin
  2
_NONE
 70
     0
 10
0.0
 20
0.0
 30
0.0
  3
_NONE
  1

  0
CIRCLE
  5
1AB
330
15D
100
AcDbEntity
  8
0
  6
BYBLOCK
 62
     0
100
AcDbCircle
 10
0.0
 20
0.0
 30
0.0
 40
0.25
  0
ENDBLK
  5
1AC
330
15D
100
AcDbEntity
  8
0
100
AcDbBlockEnd
  0
BLOCK
  5
169
330
15E
100
AcDbEntity
  8
0
100
AcDbBlockBegin
  2
_OBLIQUE
 70
     0
 10
0.0
 20
0.0
 30
0.0
  3
_OBLIQUE
  1

  0
LINE
  5
16A
330
15E
100
AcDbEntity
  8
0
  6
BYBLOCK
 62
     0
100
AcDbLine
 10
-0.5
 20
-0.5
 30
0.0
 11
0.5
 21
0.5
 31
0.0
  0
ENDBLK
  5
16B
330
15E
100
AcDbEntity
  8
0
100
AcDbBlockEnd
  0
BLOCK
  5
17D
330
15F
100
AcDbEntity
  8
0
100
AcDbBlockBegin
  2
_OPEN
 70
     0
 10
0.0
 20
0.0
 30
0.0
  3
_OPEN
  1

  0
LINE
  5
17E
330
15F
100
AcDbEntity
  8
0
  6
BYBLOCK
 62
     0
100
AcDbLine
 10
-1.0
 20
0.16666666666667
 30
0.0
 11
0.0
 21
0.0
 31
0.0
  0
LINE
  5
17F
330
15F
100
AcDbEntity
  8
0
  6
BYBLOCK
 62
     0
100
AcDbLine
 10
0.0
 20
0.0
 30
0.0
 11
-1.0
 21
-0.16666666666667
 31
0.0
  0
LINE
  5
180
330
15F
100
AcDbEntity
  8
0
  6
BYBLOCK
 62
     0
100
AcDbLine
 10
0.0
 20
0.0
 30
0.0
 11
-1.0
 21
0.0
 31
0.0
  0
ENDBLK
  5
181
330
15F
100
AcDbEntity
  8
0
100
AcDbBlockEnd
  0
BLOCK
  5
182
330
160
100
AcDbEntity
  8
0
100
AcDbBlockBegin
  2
_OPEN30
 70
     0
 10
0.0
 20
0.0
 30
0.0
  3
_OPEN30
  1

  0
LINE
  5
183
330
160
100
AcDbEntity
  8
0
  6
BYBLOCK
 62
     0
100
AcDbLine
 10
-1.0
 20
0.2679491924311
 30
0.0
 11
0.0
 21
0.0
 31
0.0
  0
LINE
  5
184
330
160
100
AcDbEntity
  8
0
  6
BYBLOCK
 62
     0
100
AcDbLine
 10
0.0
 20
0.0
 30
0.0
 11
-1.0
 21
-0.2679491924311
 31
0.0
  0
LINE
  5
185
330
160
100
AcDbEntity
  8
0
  6
BYBLOCK
 62
     0
100
AcDbLine
 10
0.0
 20
0.0
 30
0.0
 11
-1.0
 21
0.0
 31
0.0
  0
ENDBLK
  5
186
330
160
100
AcDbEntity
  8
0
100
AcDbBlockEnd
  0
BLOCK
  5
187
330
161
100
AcDbEntity
  8
0
100
AcDbBlockBegin
  2
_OPEN90
 70
     0
 10
0.0
 20
0.0
 30
0.0
  3
_OPEN90
  1

  0
LINE
  5
188
330
161
100
AcDbEntity
  8
0
  6
BYBLOCK
 62
     0
100
AcDbLine
 10
-0.5
 20
0.5
 30
0.0
 11
0.0
 21
0.0
 31
0.0
  0
LINE
  5
189
330
161
100
AcDbEntity
  8
0
  6
BYBLOCK
 62
     0
100
AcDbLine
 10
0.0
 20
0.0
 30
0.0
 11
-0.5
 21
-0.5
 31
0.0
  0
LINE
  5
18A
330
161
100
AcDbEntity
  8
0
  6
BYBLOCK
 62
     0
100
AcDbLine
 10
0.0
 20
0.0
 30
0.0
 11
-1.0
 21
0.0
 31
0.0
  0
ENDBLK
  5
18B
330
161
100
AcDbEntity
  8
0
100
AcDbBlockEnd
  0
BLOCK
  5
1A6
330
162
100
AcDbEntity
  8
0
100
AcDbBlockBegin
  2
_ORIGIN
 70
     0
 10
0.0
 20
0.0
 30
0.0
  3
_ORIGIN
  1

  0
CIRCLE
  5
1A7
330
162
100
AcDbEntity
  8
0
  6
BYBLOCK
 62
     0
100
AcDbCircle
 10
0.0
 20
0.0
 30
0.0
 40
0.5
  0
LINE
  5
1A8
330
162
100
AcDbEntity
  8
0
  6
BYBLOCK
 62
     0
100
AcDbLine
 10
0.0
 20
0.0
 30
0.0
 11
-1.0
 21
0.0
 31
0.0
  0
ENDBLK
  5
1A9
330
162
100
AcDbEntity
  8
0
100
AcDbBlockEnd
  0
BLOCK
  5
5AE
330
5A3
100
AcDbEntity
  8
0
100
AcDbBlockBegin
  2
*D34
 70
     1
 10
0.0
 20
0.0
 30
0.0
  3
*D34
  1

  0
LINE
  5
5A4
330
5A3
100
AcDbEntity
  8
0
  6
CONTINUOUS
 62
     0
100
AcDbLine
 10
334.1104975306799
 20
361.78846153846
 30
0.0
 11
325.3154997245135
 21
361.78846153846
 31
0.0
  0
LINE
  5
5A5
330
5A3
100
AcDbEntity
  8
0
  6
CONTINUOUS
 62
     0
100
AcDbLine
 10
334.2568166893498
 20
392.78846153846
 30
0.0
 11
325.3154997245136
 21
392.78846153846
 31
0.0
  0
LINE
  5
5A6
330
5A3
100
AcDbEntity
  8
0
  6
CONTINUOUS
 62
     0
100
AcDbLine
 10
325.4954997245135
 20
361.96846153846
 30
0.0
 11
325.4954997245135
 21
377.10846153846
 31
0.0
  0
LINE
  5
5A7
330
5A3
100
AcDbEntity
  8
0
  6
CONTINUOUS
 62
     0
100
AcDbLine
 10
325.4954997245135
 20
392.6084615384599
 30
0.0
 11
325.4954997245135
 21
377.46846153846
 31
0.0
  0
SOLID
  5
5A8
330
5A3
100
AcDbEntity
  8
0
  6
CONTINUOUS
 62
     0
100
AcDbTrace
 10
325.4654997245135
 20
361.96846153846
 30
0.0
 11
325.5254997245135
 21
361.96846153846
 31
0.0
 12
325.4954997245135
 22
361.78846153846
 32
0.0
 13
325.4954997245135
 23
361.78846153846
 33
0.0
  0
SOLID
  5
5A9
330
5A3
100
AcDbEntity
  8
0
  6
CONTINUOUS
 62
     0
100
AcDbTrace
 10
325.4654997245136
 20
392.6084615384599
 30
0.0
 11
325.5254997245135
 21
392.6084615384599
 31
0.0
 12
325.4954997245135
 22
392.78846153846
 32
0.0
 13
325.4954997245135
 23
392.78846153846
 33
0.0
  0
MTEXT
  5
5AA
330
5A3
100
AcDbEntity
  8
0
  6
CONTINUOUS
 62
     0
100
AcDbMText
 10
325.4954997245135
 20
377.28846153846
 30
0.0
 40
0.18
 41
0.0
 71
     5
 72
     1
  1
\A1;31.0000
1001
ACAD
1000
MTEXTBEGIN
1070
    73
1070
     1
1070
    44
1040
1.0
1070
    74
1070
     0
1000
MTEXTEND
  0
POINT
  5
5AB
330
5A3
100
AcDbEntity
  8
DEFPOINTS
  6
CONTINUOUS
 62
     0
100
AcDbPoint
 10
334.17299753068
 20
361.78846153846
 30
0.0
  0
POINT
  5
5AC
330
5A3
100
AcDbEntity
  8
DEFPOINTS
  6
CONTINUOUS
 62
     0
100
AcDbPoint
 10
334.3193166893498
 20
392.78846153846
 30
0.0
  0
POINT
  5
5AD
330
5A3
100
AcDbEntity
  8
DEFPOINTS
  6
CONTINUOUS
 62
     0
100
AcDbPoint
 10
325.4954997245135
 20
392.78846153846
 30
0.0
  0
ENDBLK
  5
5AF
330
5A3
100
AcDbEntity
  8
0
100
AcDbBlockEnd
  0
BLOCK
  5
5BD
330
5B2
100
AcDbEntity
  8
0
100
AcDbBlockBegin
  2
*D35
 70
     1
 10
0.0
 20
0.0
 30
0.0
  3
*D35
  1

  0
LINE
  5
5B3
330
5B2
100
AcDbEntity
  8
0
  6
CONTINUOUS
 62
     0
100
AcDbLine
 10
343.92441416412
 20
399.28846153846
 30
0.0
 11
397.3953895993113
 21
399.2884615384599
 31
0.0
  0
LINE
  5
5B4
330
5B2
100
AcDbEntity
  8
0
  6
CONTINUOUS
 62
     0
100
AcDbLine
 10
343.92441416412
 20
355.28846153846
 30
0.0
 11
397.3953895993112
 21
355.2884615384599
 31
0.0
  0
LINE
  5
5B5
330
5B2
100
AcDbEntity
  8
0
  6
CONTINUOUS
 62
     0
100
AcDbLine
 10
397.2153895993113
 20
399.1084615384599
 30
0.0
 11
397.2153895993112
 21
377.4684615384599
 31
0.0
  0
LINE
  5
5B6
330
5B2
100
AcDbEntity
  8
0
  6
CONTINUOUS
 62
     0
100
AcDbLine
 10
397.2153895993112
 20
355.4684615384599
 30
0.0
 11
397.2153895993112
 21
377.1084615384599
 31
0.0
  0
SOLID
  5
5B7
330
5B2
100
AcDbEntity
  8
0
  6
CONTINUOUS
 62
     0
100
AcDbTrace
 10
397.1853895993113
 20
399.1084615384599
 30
0.0
 11
397.2453895993112
 21
399.1084615384599
 31
0.0
 12
397.2153895993113
 22
399.2884615384599
 32
0.0
 13
397.2153895993113
 23
399.2884615384599
 33
0.0
  0
SOLID
  5
5B8
330
5B2
100
AcDbEntity
  8
0
  6
CONTINUOUS
 62
     0
100
AcDbTrace
 10
397.1853895993112
 20
355.4684615384599
 30
0.0
 11
397.2453895993112
 21
355.4684615384599
 31
0.0
 12
397.2153895993112
 22
355.2884615384599
 32
0.0
 13
397.2153895993112
 23
355.2884615384599
 33
0.0
  0
MTEXT
  5
5B9
330
5B2
100
AcDbEntity
  8
0
  6
CONTINUOUS
 62
     0
100
AcDbMText
 10
397.2153895993112
 20
377.28846153846
 30
0.0
 40
0.18
 41
0.0
 71
     5
 72
     1
  1
\A1;44.0000
1001
ACAD
1000
MTEXTBEGIN
1070
    73
1070
     1
1070
    44
1040
1.0
1070
    74
1070
     0
1000
MTEXTEND
  0
POINT
  5
5BA
330
5B2
100
AcDbEntity
  8
DEFPOINTS
  6
CONTINUOUS
 62
     0
100
AcDbPoint
 10
343.86191416412
 20
399.28846153846
 30
0.0
  0
POINT
  5
5BB
330
5B2
100
AcDbEntity
  8
DEFPOINTS
  6
CONTINUOUS
 62
     0
100
AcDbPoint
 10
343.86191416412
 20
355.28846153846
 30
0.0
  0
POINT
  5
5BC
330
5B2
100
AcDbEntity
  8
DEFPOINTS
  6
CONTINUOUS
 62
     0
100
AcDbPoint
 10
397.2153895993112
 20
355.2884615384599
 30
0.0
  0
ENDBLK
  5
5BE
330
5B2
100
AcDbEntity
  8
0
100
AcDbBlockEnd
  0
BLOCK
  5
5CB
330
5C0
100
AcDbEntity
  8
0
100
AcDbBlockBegin
  2
*D36
 70
     1
 10
0.0
 20
0.0
 30
0.0
  3
*D36
  1

  0
LINE
  5
5C1
330
5C0
100
AcDbEntity
  8
0
  6
CONTINUOUS
 62
     0
100
AcDbLine
 10
301.79941416412
 20
399.28846153846
 30
0.0
 11
282.9429615195193
 21
399.28846153846
 31
0.0
  0
LINE
  5
5C2
330
5C0
100
AcDbEntity
  8
0
  6
CONTINUOUS
 62
     0
100
AcDbLine
 10
301.79941416412
 20
355.28846153846
 30
0.0
 11
282.9429615195193
 21
355.28846153846
 31
0.0
  0
LINE
  5
5C3
330
5C0
100
AcDbEntity
  8
0
  6
CONTINUOUS
 62
     0
100
AcDbLine
 10
283.1229615195193
 20
399.10846153846
 30
0.0
 11
283.1229615195193
 21
377.46846153846
 31
0.0
  0
LINE
  5
5C4
330
5C0
100
AcDbEntity
  8
0
  6
CONTINUOUS
 62
     0
100
AcDbLine
 10
283.1229615195193
 20
355.46846153846
 30
0.0
 11
283.1229615195193
 21
377.10846153846
 31
0.0
  0
SOLID
  5
5C5
330
5C0
100
AcDbEntity
  8
0
  6
CONTINUOUS
 62
     0
100
AcDbTrace
 10
283.0929615195194
 20
399.10846153846
 30
0.0
 11
283.1529615195193
 21
399.10846153846
 31
0.0
 12
283.1229615195193
 22
399.28846153846
 32
0.0
 13
283.1229615195193
 23
399.28846153846
 33
0.0
  0
SOLID
  5
5C6
330
5C0
100
AcDbEntity
  8
0
  6
CONTINUOUS
 62
     0
100
AcDbTrace
 10
283.0929615195193
 20
355.46846153846
 30
0.0
 11
283.1529615195193
 21
355.46846153846
 31
0.0
 12
283.1229615195193
 22
355.28846153846
 32
0.0
 13
283.1229615195193
 23
355.28846153846
 33
0.0
  0
MTEXT
  5
5C7
330
5C0
100
AcDbEntity
  8
0
  6
CONTINUOUS
 62
     0
100
AcDbMText
 10
283.1229615195192
 20
377.28846153846
 30
0.0
 40
0.18
 41
0.0
 71
     5
 72
     1
  1
\A1;44.0000
1001
ACAD
1000
MTEXTBEGIN
1070
    73
1070
     1
1070
    44
1040
1.0
1070
    74
1070
     0
1000
MTEXTEND
  0
POINT
  5
5C8
330
5C0
100
AcDbEntity
  8
DEFPOINTS
  6
CONTINUOUS
 62
     0
100
AcDbPoint
 10
301.86191416412
 20
399.28846153846
 30
0.0
  0
POINT
  5
5C9
330
5C0
100
AcDbEntity
  8
DEFPOINTS
  6
CONTINUOUS
 62
     0
100
AcDbPoint
 10
301.86191416412
 20
355.28846153846
 30
0.0
  0
POINT
  5
5CA
330
5C0
100
AcDbEntity
  8
DEFPOINTS
  6
CONTINUOUS
 62
     0
100
AcDbPoint
 10
283.1229615195193
 20
355.28846153846
 30
0.0
  0
ENDBLK
  5
5CC
330
5C0
100
AcDbEntity
  8
0
100
AcDbBlockEnd
  0
BLOCK
  5
5DB
330
5D0
100
AcDbEntity
  8
0
100
AcDbBlockBegin
  2
*D37
 70
     1
 10
0.0
 20
0.0
 30
0.0
  3
*D37
  1

  0
LINE
  5
5D1
330
5D0
100
AcDbEntity
  8
0
  6
CONTINUOUS
 62
     0
100
AcDbLine
 10
346.7210942384999
 20
394.2884615384599
 30
0.0
 11
357.1756534602673
 21
394.2884615384599
 31
0.0
  0
LINE
  5
5D2
330
5D0
100
AcDbEntity
  8
0
  6
CONTINUOUS
 62
     0
100
AcDbLine
 10
346.28213676251
 20
360.28846153846
 30
0.0
 11
357.1756534602672
 21
360.28846153846
 31
0.0
  0
LINE
  5
5D3
330
5D0
100
AcDbEntity
  8
0
  6
CONTINUOUS
 62
     0
100
AcDbLine
 10
356.9956534602673
 20
394.10846153846
 30
0.0
 11
356.9956534602672
 21
377.46846153846
 31
0.0
  0
LINE
  5
5D4
330
5D0
100
AcDbEntity
  8
0
  6
CONTINUOUS
 62
     0
100
AcDbLine
 10
356.9956534602672
 20
360.46846153846
 30
0.0
 11
356.9956534602672
 21
377.10846153846
 31
0.0
  0
SOLID
  5
5D5
330
5D0
100
AcDbEntity
  8
0
  6
CONTINUOUS
 62
     0
100
AcDbTrace
 10
356.9656534602673
 20
394.10846153846
 30
0.0
 11
357.0256534602672
 21
394.10846153846
 31
0.0
 12
356.9956534602673
 22
394.2884615384599
 32
0.0
 13
356.9956534602673
 23
394.2884615384599
 33
0.0
  0
SOLID
  5
5D6
330
5D0
100
AcDbEntity
  8
0
  6
CONTINUOUS
 62
     0
100
AcDbTrace
 10
356.9656534602672
 20
360.46846153846
 30
0.0
 11
357.0256534602672
 21
360.46846153846
 31
0.0
 12
356.9956534602672
 22
360.28846153846
 32
0.0
 13
356.9956534602672
 23
360.28846153846
 33
0.0
  0
MTEXT
  5
5D7
330
5D0
100
AcDbEntity
  8
0
  6
CONTINUOUS
 62
     0
100
AcDbMText
 10
356.9956534602671
 20
377.28846153846
 30
0.0
 40
0.18
 41
0.0
 71
     5
 72
     1
  1
\A1;34.0000
1001
ACAD
1000
MTEXTBEGIN
1070
    73
1070
     1
1070
    44
1040
1.0
1070
    74
1070
     0
1000
MTEXTEND
  0
POINT
  5
5D8
330
5D0
100
AcDbEntity
  8
DEFPOINTS
  6
CONTINUOUS
 62
     0
100
AcDbPoint
 10
346.6585942384999
 20
394.2884615384599
 30
0.0
  0
POINT
  5
5D9
330
5D0
100
AcDbEntity
  8
DEFPOINTS
  6
CONTINUOUS
 62
     0
100
AcDbPoint
 10
346.21963676251
 20
360.28846153846
 30
0.0
  0
POINT
  5
5DA
330
5D0
100
AcDbEntity
  8
DEFPOINTS
  6
CONTINUOUS
 62
     0
100
AcDbPoint
 10
356.9956534602672
 20
360.28846153846
 30
0.0
  0
ENDBLK
  5
5DC
330
5D0
100
AcDbEntity
  8
0
100
AcDbBlockEnd
  0
BLOCK
  5
5EA
330
5DF
100
AcDbEntity
  8
0
100
AcDbBlockBegin
  2
*D38
 70
     1
 10
0.0
 20
0.0
 30
0.0
  3
*D38
  1

  0
LINE
  5
5E0
330
5DF
100
AcDbEntity
  8
0
  6
CONTINUOUS
 62
     0
100
AcDbLine
 10
346.7210942384999
 20
394.2884615384599
 30
0.0
 11
356.5608743418843
 21
394.2884615384599
 31
0.0
  0
LINE
  5
5E1
330
5DF
100
AcDbEntity
  8
0
  6
CONTINUOUS
 62
     0
100
AcDbLine
 10
346.28213676251
 20
360.28846153846
 30
0.0
 11
356.5608743418842
 21
360.28846153846
 31
0.0
  0
LINE
  5
5E2
330
5DF
100
AcDbEntity
  8
0
  6
CONTINUOUS
 62
     0
100
AcDbLine
 10
356.3808743418842
 20
394.10846153846
 30
0.0
 11
356.3808743418842
 21
377.46846153846
 31
0.0
  0
LINE
  5
5E3
330
5DF
100
AcDbEntity
  8
0
  6
CONTINUOUS
 62
     0
100
AcDbLine
 10
356.3808743418842
 20
360.46846153846
 30
0.0
 11
356.3808743418842
 21
377.10846153846
 31
0.0
  0
SOLID
  5
5E4
330
5DF
100
AcDbEntity
  8
0
  6
CONTINUOUS
 62
     0
100
AcDbTrace
 10
356.3508743418843
 20
394.10846153846
 30
0.0
 11
356.4108743418842
 21
394.10846153846
 31
0.0
 12
356.3808743418842
 22
394.2884615384599
 32
0.0
 13
356.3808743418842
 23
394.2884615384599
 33
0.0
  0
SOLID
  5
5E5
330
5DF
100
AcDbEntity
  8
0
  6
CONTINUOUS
 62
     0
100
AcDbTrace
 10
356.3508743418842
 20
360.46846153846
 30
0.0
 11
356.4108743418842
 21
360.46846153846
 31
0.0
 12
356.3808743418842
 22
360.28846153846
 32
0.0
 13
356.3808743418842
 23
360.28846153846
 33
0.0
  0
MTEXT
  5
5E6
330
5DF
100
AcDbEntity
  8
0
  6
CONTINUOUS
 62
     0
100
AcDbMText
 10
356.3808743418841
 20
377.28846153846
 30
0.0
 40
0.18
 41
0.0
 71
     5
 72
     1
  1
\A1;34.0000
1001
ACAD
1000
MTEXTBEGIN
1070
    73
1070
     1
1070
    44
1040
1.0
1070
    74
1070
     0
1000
MTEXTEND
  0
POINT
  5
5E7
330
5DF
100
AcDbEntity
  8
DEFPOINTS
  6
CONTINUOUS
 62
     0
100
AcDbPoint
 10
346.6585942384999
 20
394.2884615384599
 30
0.0
  0
POINT
  5
5E8
330
5DF
100
AcDbEntity
  8
DEFPOINTS
  6
CONTINUOUS
 62
     0
100
AcDbPoint
 10
346.21963676251
 20
360.28846153846
 30
0.0
  0
POINT
  5
5E9
330
5DF
100
AcDbEntity
  8
DEFPOINTS
  6
CONTINUOUS
 62
     0
100
AcDbPoint
 10
356.3808743418842
 20
360.28846153846
 30
0.0
  0
ENDBLK
  5
5EB
330
5DF
100
AcDbEntity
  8
0
100
AcDbBlockEnd
  0
BLOCK
  5
625
330
61A
100
AcDbEntity
  8
0
100
AcDbBlockBegin
  2
*D39
 70
     1
 10
0.0
 20
0.0
 30
0.0
  3
*D39
  1

  0
LINE
  5
61B
330
61A
100
AcDbEntity
  8
0
  6
CONTINUOUS
 62
     0
100
AcDbLine
 10
343.92441416412
 20
399.78846153846
 30
0.0
 11
391.5197460476408
 21
399.7884615384599
 31
0.0
  0
LINE
  5
61C
330
61A
100
AcDbEntity
  8
0
  6
CONTINUOUS
 62
     0
100
AcDbLine
 10
343.92441416412
 20
354.7884615384599
 30
0.0
 11
391.5197460476408
 21
354.7884615384599
 31
0.0
  0
LINE
  5
61D
330
61A
100
AcDbEntity
  8
0
  6
CONTINUOUS
 62
     0
100
AcDbLine
 10
391.3397460476408
 20
399.6084615384599
 30
0.0
 11
391.3397460476407
 21
377.4684615384599
 31
0.0
  0
LINE
  5
61E
330
61A
100
AcDbEntity
  8
0
  6
CONTINUOUS
 62
     0
100
AcDbLine
 10
391.3397460476407
 20
354.9684615384599
 30
0.0
 11
391.3397460476407
 21
377.1084615384599
 31
0.0
  0
SOLID
  5
61F
330
61A
100
AcDbEntity
  8
0
  6
CONTINUOUS
 62
     0
100
AcDbTrace
 10
391.3097460476409
 20
399.6084615384599
 30
0.0
 11
391.3697460476408
 21
399.6084615384599
 31
0.0
 12
391.3397460476408
 22
399.7884615384599
 32
0.0
 13
391.3397460476408
 23
399.7884615384599
 33
0.0
  0
SOLID
  5
620
330
61A
100
AcDbEntity
  8
0
  6
CONTINUOUS
 62
     0
100
AcDbTrace
 10
391.3097460476408
 20
354.9684615384599
 30
0.0
 11
391.3697460476407
 21
354.9684615384599
 31
0.0
 12
391.3397460476407
 22
354.7884615384599
 32
0.0
 13
391.3397460476407
 23
354.7884615384599
 33
0.0
  0
MTEXT
  5
621
330
61A
100
AcDbEntity
  8
0
  6
CONTINUOUS
 62
     0
100
AcDbMText
 10
391.3397460476407
 20
377.28846153846
 30
0.0
 40
0.18
 41
0.0
 71
     5
 72
     1
  1
\A1;45.0000
1001
ACAD
1000
MTEXTBEGIN
1070
    73
1070
     1
1070
    44
1040
1.0
1070
    74
1070
     0
1000
MTEXTEND
  0
POINT
  5
622
330
61A
100
AcDbEntity
  8
DEFPOINTS
  6
CONTINUOUS
 62
     0
100
AcDbPoint
 10
343.86191416412
 20
399.78846153846
 30
0.0
  0
POINT
  5
623
330
61A
100
AcDbEntity
  8
DEFPOINTS
  6
CONTINUOUS
 62
     0
100
AcDbPoint
 10
343.86191416412
 20
354.7884615384599
 30
0.0
  0
POINT
  5
624
330
61A
100
AcDbEntity
  8
DEFPOINTS
  6
CONTINUOUS
 62
     0
100
AcDbPoint
 10
391.3397460476407
 20
354.7884615384599
 30
0.0
  0
ENDBLK
  5
626
330
61A
100
AcDbEntity
  8
0
100
AcDbBlockEnd
  0
BLOCK
  5
633
330
628
100
AcDbEntity
  8
0
100
AcDbBlockBegin
  2
*D40
 70
     1
 10
0.0
 20
0.0
 30
0.0
  3
*D40
  1

  0
LINE
  5
629
330
628
100
AcDbEntity
  8
0
  6
CONTINUOUS
 62
     0
100
AcDbLine
 10
346.7210942384999
 20
394.2884615384599
 30
0.0
 11
366.9763317569718
 21
394.2884615384599
 31
0.0
  0
LINE
  5
62A
330
628
100
AcDbEntity
  8
0
  6
CONTINUOUS
 62
     0
100
AcDbLine
 10
346.28213676251
 20
360.28846153846
 30
0.0
 11
366.9763317569717
 21
360.28846153846
 31
0.0
  0
LINE
  5
62B
330
628
100
AcDbEntity
  8
0
  6
CONTINUOUS
 62
     0
100
AcDbLine
 10
366.7963317569718
 20
394.10846153846
 30
0.0
 11
366.7963317569717
 21
377.46846153846
 31
0.0
  0
LINE
  5
62C
330
628
100
AcDbEntity
  8
0
  6
CONTINUOUS
 62
     0
100
AcDbLine
 10
366.7963317569717
 20
360.46846153846
 30
0.0
 11
366.7963317569717
 21
377.10846153846
 31
0.0
  0
SOLID
  5
62D
330
628
100
AcDbEntity
  8
0
  6
CONTINUOUS
 62
     0
100
AcDbTrace
 10
366.7663317569718
 20
394.10846153846
 30
0.0
 11
366.8263317569718
 21
394.10846153846
 31
0.0
 12
366.7963317569718
 22
394.2884615384599
 32
0.0
 13
366.7963317569718
 23
394.2884615384599
 33
0.0
  0
SOLID
  5
62E
330
628
100
AcDbEntity
  8
0
  6
CONTINUOUS
 62
     0
100
AcDbTrace
 10
366.7663317569718
 20
360.46846153846
 30
0.0
 11
366.8263317569717
 21
360.46846153846
 31
0.0
 12
366.7963317569717
 22
360.28846153846
 32
0.0
 13
366.7963317569717
 23
360.28846153846
 33
0.0
  0
MTEXT
  5
62F
330
628
100
AcDbEntity
  8
0
  6
CONTINUOUS
 62
     0
100
AcDbMText
 10
366.7963317569717
 20
377.28846153846
 30
0.0
 40
0.18
 41
0.0
 71
     5
 72
     1
  1
\A1;34.0000
1001
ACAD
1000
MTEXTBEGIN
1070
    73
1070
     1
1070
    44
1040
1.0
1070
    74
1070
     0
1000
MTEXTEND
  0
POINT
  5
630
330
628
100
AcDbEntity
  8
DEFPOINTS
  6
CONTINUOUS
 62
     0
100
AcDbPoint
 10
346.6585942384999
 20
394.2884615384599
 30
0.0
  0
POINT
  5
631
330
628
100
AcDbEntity
  8
DEFPOINTS
  6
CONTINUOUS
 62
     0
100
AcDbPoint
 10
346.21963676251
 20
360.28846153846
 30
0.0
  0
POINT
  5
632
330
628
100
AcDbEntity
  8
DEFPOINTS
  6
CONTINUOUS
 62
     0
100
AcDbPoint
 10
366.7963317569717
 20
360.28846153846
 30
0.0
  0
ENDBLK
  5
634
330
628
100
AcDbEntity
  8
0
100
AcDbBlockEnd
  0
ENDSEC
  0
SECTION
  2
ENTITIES
  0
CIRCLE
  5
245
330
18
100
AcDbEntity
  8
1
  6
CONTINUOUS
 62
     7
100
AcDbCircle
 10
472.91652206995
 20
176.8963119371
 30
0.0
 40
6.999999999998798
  0
CIRCLE
  5
246
330
18
100
AcDbEntity
  8
1
  6
CONTINUOUS
 62
     7
100
AcDbCircle
 10
472.91652206995
 20
176.8963119371
 30
0.0
 40
5.0000000000012
  0
CIRCLE
  5
247
330
18
100
AcDbEntity
  8
1
  6
CONTINUOUS
 62
     7
100
AcDbCircle
 10
472.91652206994
 20
176.8963119371
 30
0.0
 40
4.0
  0
CIRCLE
  5
248
330
18
100
AcDbEntity
  8
1
  6
CONTINUOUS
 62
     7
100
AcDbCircle
 10
472.91652206994
 20
176.8963119371
 30
0.0
 40
14.999999999999
  0
CIRCLE
  5
249
330
18
100
AcDbEntity
  8
1
  6
CONTINUOUS
 62
     7
100
AcDbCircle
 10
472.91652206994
 20
176.8963119371
 30
0.0
 40
8.499999999999099
  0
CIRCLE
  5
24A
330
18
100
AcDbEntity
  8
1
  6
CONTINUOUS
 62
     7
100
AcDbCircle
 10
455.91652206994
 20
193.8963119370999
 30
0.0
 40
2.75
  0
CIRCLE
  5
24B
330
18
100
AcDbEntity
  8
1
  6
CONTINUOUS
 62
     7
100
AcDbCircle
 10
455.91652206994
 20
159.8963119370999
 30
0.0
 40
2.75
  0
CIRCLE
  5
24C
330
18
100
AcDbEntity
  8
1
  6
CONTINUOUS
 62
     7
100
AcDbCircle
 10
489.91652206994
 20
159.8963119370999
 30
0.0
 40
2.75
  0
CIRCLE
  5
24D
330
18
100
AcDbEntity
  8
1
  6
CONTINUOUS
 62
     7
100
AcDbCircle
 10
489.91652206994
 20
193.8963119370999
 30
0.0
 40
2.75
  0
ARC
  5
24E
330
18
100
AcDbEntity
  8
1
  6
CONTINUOUS
 62
     7
100
AcDbCircle
 10
453.4165220699398
 20
196.3963119371
 30
0.0
 40
3.0
100
AcDbArc
 50
90.00000000000403
 51
180.00000000003
  0
LINE
  5
24F
330
18
100
AcDbEntity
  8
1
  6
CONTINUOUS
 62
     7
100
AcDbLine
 10
453.4165220699398
 20
199.3963119370999
 30
0.0
 11
492.41652206994
 21
199.3963119370999
 31
0.0
  0
ARC
  5
250
330
18
100
AcDbEntity
  8
1
  6
CONTINUOUS
 62
     7
100
AcDbCircle
 10
492.41652206994
 20
196.3963119371
 30
0.0
 40
3.0
100
AcDbArc
 50
0.0000000000054281
 51
90.000000000013
  0
LINE
  5
251
330
18
100
AcDbEntity
  8
1
  6
CONTINUOUS
 62
     7
100
AcDbLine
 10
495.41652206994
 20
196.3963119371
 30
0.0
 11
495.41652206994
 21
157.3963119371
 31
0.0
  0
ARC
  5
252
330
18
100
AcDbEntity
  8
1
  6
CONTINUOUS
 62
     7
100
AcDbCircle
 10
492.41652206994
 20
157.3963119371
 30
0.0
 40
3.0
100
AcDbArc
 50
270.0
 51
0.0
  0
LINE
  5
253
330
18
100
AcDbEntity
  8
1
  6
CONTINUOUS
 62
     7
100
AcDbLine
 10
453.4165220699398
 20
154.3963119370999
 30
0.0
 11
492.41652206994
 21
154.3963119370999
 31
0.0
  0
ARC
  5
254
330
18
100
AcDbEntity
  8
1
  6
CONTINUOUS
 62
     7
100
AcDbCircle
 10
453.4165220699398
 20
157.3963119371
 30
0.0
 40
3.0
100
AcDbArc
 50
180.0
 51
269.9999999999799
  0
LINE
  5
255
330
18
100
AcDbEntity
  8
1
  6
CONTINUOUS
 62
     7
100
AcDbLine
 10
450.41652206994
 20
157.3963119371
 30
0.0
 11
450.41652206994
 21
196.3963119371
 31
0.0
  0
CIRCLE
  5
256
330
18
100
AcDbEntity
  8
1
  6
CONTINUOUS
 62
     7
100
AcDbCircle
 10
472.91652206995
 20
176.8963119371
 30
0.0
 40
7.499999999998901
  0
LINE
  5
257
330
18
100
AcDbEntity
  8
1
  6
CONTINUOUS
 62
     7
100
AcDbLine
 10
203.3619141641199
 20
155.8963119371
 30
0.0
 11
193.8619141641199
 21
155.8963119371
 31
0.0
  0
LINE
  5
258
330
18
100
AcDbEntity
  8
1
  6
HIDDEN
 62
     7
100
AcDbLine
 10
251.86191416412
 20
188.5963119370999
 30
0.0
 11
193.8619141641199
 21
188.5963119370999
 31
0.0
  0
LINE
  5
259
330
18
100
AcDbEntity
  8
1
  6
CONTINUOUS
 62
     7
100
AcDbLine
 10
183.8619141641199
 20
203.8963119371
 30
0.0
 11
183.8619141641199
 21
205.4963119371
 31
0.0
  0
LINE
  5
25A
330
18
100
AcDbEntity
  8
1
  6
CONTINUOUS
 62
     7
100
AcDbLine
 10
180.8619141641199
 20
222.8963119371
 30
0.0
 11
180.8619141641199
 21
224.3963119371
 31
0.0
  0
ARC
  5
25B
330
18
100
AcDbEntity
  8
1
  6
CONTINUOUS
 62
     7
100
AcDbCircle
 10
181.3619141641199
 20
224.39631193711
 30
0.0
 40
0.5
100
AcDbArc
 50
90.000000000169
 51
180.0000000005699
  0
LINE
  5
25C
330
18
100
AcDbEntity
  8
1
  6
CONTINUOUS
 62
     7
100
AcDbLine
 10
181.3619141641199
 20
224.8963119371
 30
0.0
 11
182.6619141641199
 21
224.8963119371
 31
0.0
  0
LINE
  5
25D
330
18
100
AcDbEntity
  8
1
  6
CONTINUOUS
 62
     7
100
AcDbLine
 10
192.3619141641199
 20
224.8963119371
 30
0.0
 11
191.0619141641199
 21
224.8963119371
 31
0.0
  0
ARC
  5
25E
330
18
100
AcDbEntity
  8
1
  6
CONTINUOUS
 62
     7
100
AcDbCircle
 10
192.3619141641199
 20
224.3963119370899
 30
0.0
 40
0.5
100
AcDbArc
 50
0.0000000002866061
 51
89.99999999973898
  0
LINE
  5
25F
330
18
100
AcDbEntity
  8
1
  6
CONTINUOUS
 62
     7
100
AcDbLine
 10
192.8619141641199
 20
222.8963119371
 30
0.0
 11
192.8619141641199
 21
224.3963119371
 31
0.0
  0
LINE
  5
260
330
18
100
AcDbEntity
  8
1
  6
HIDDEN
 62
     7
100
AcDbLine
 10
182.6619141641199
 20
224.8963119371
 30
0.0
 11
191.0619141641199
 21
224.8963119371
 31
0.0
  0
LINE
  5
261
330
18
100
AcDbEntity
  8
1
  6
DASHDOT
 62
     7
100
AcDbLine
 10
183.8619141641199
 20
214.0963119370999
 30
0.0
 11
183.8619141641199
 21
211.51392123298
 31
0.0
  0
LINE
  5
262
330
18
100
AcDbEntity
  8
1
  6
CONTINUOUS
 62
     7
100
AcDbLine
 10
183.8619141641199
 20
215.6243465850399
 30
0.0
 11
183.8619141641199
 21
214.0963119370999
 31
0.0
  0
LINE
  5
263
330
18
100
AcDbEntity
  8
1
  6
CONTINUOUS
 62
     7
100
AcDbLine
 10
183.8619141641199
 20
205.4963119371
 30
0.0
 11
183.8619141641199
 21
214.0963119370999
 31
0.0
  0
LINE
  5
264
330
18
100
AcDbEntity
  8
1
  6
CONTINUOUS
 62
     7
100
AcDbLine
 10
303.86191416412
 20
188.5963119370999
 30
0.0
 11
183.8619141641199
 21
188.5963119370999
 31
0.0
  0
LINE
  5
265
330
18
100
AcDbEntity
  8
1
  6
CONTINUOUS
 62
     7
100
AcDbLine
 10
193.8619141641199
 20
188.5963119370999
 30
0.0
 11
193.8619141641199
 21
154.8963119371
 31
0.0
  0
LINE
  5
266
330
18
100
AcDbEntity
  8
1
  6
CONTINUOUS
 62
     7
100
AcDbLine
 10
205.8619141641199
 20
188.5963119370999
 30
0.0
 11
205.8619141641199
 21
155.8963119371
 31
0.0
  0
LINE
  5
267
330
18
100
AcDbEntity
  8
1
  6
CONTINUOUS
 62
     7
100
AcDbLine
 10
243.86191416412
 20
187.8963119370999
 30
0.0
 11
243.86191416412
 21
188.5963119370999
 31
0.0
  0
LINE
  5
268
330
18
100
AcDbEntity
  8
1
  6
CONTINUOUS
 62
     7
100
AcDbLine
 10
203.3619141641199
 20
155.8963119371
 30
0.0
 11
243.86191416412
 21
155.8963119371
 31
0.0
  0
LINE
  5
269
330
18
100
AcDbEntity
  8
1
  6
CONTINUOUS
 62
     7
100
AcDbLine
 10
235.86191416412
 20
188.5963119370999
 30
0.0
 11
235.86191416412
 21
155.8963119371
 31
0.0
  0
LINE
  5
26A
330
18
100
AcDbEntity
  8
1
  6
HIDDEN
 62
     7
100
AcDbLine
 10
192.8619141641199
 20
222.8963119371
 30
0.0
 11
180.8619141641199
 21
222.8963119371
 31
0.0
  0
LINE
  5
26B
330
18
100
AcDbEntity
  8
1
  6
HIDDEN
 62
     7
100
AcDbLine
 10
183.8619141641199
 20
222.8963119371
 30
0.0
 11
183.8619141641199
 21
215.6243465850399
 31
0.0
  0
LINE
  5
26C
330
18
100
AcDbEntity
  8
1
  6
CONTINUOUS
 62
     7
100
AcDbLine
 10
182.6619141641199
 20
224.8963119371
 30
0.0
 11
191.0619141641199
 21
224.8963119371
 31
0.0
  0
LINE
  5
26D
330
18
100
AcDbEntity
  8
1
  6
CONTINUOUS
 62
     7
100
AcDbLine
 10
194.0518196371398
 20
222.8963119371
 30
0.0
 11
180.8619141641199
 21
222.8963119371
 31
0.0
  0
LINE
  5
26E
330
18
100
AcDbEntity
  8
1
  6
CONTINUOUS
 62
     7
100
AcDbLine
 10
183.8619141641199
 20
188.5963119370999
 30
0.0
 11
183.8619141641199
 21
222.8963119371
 31
0.0
  0
LINE
  5
26F
330
18
100
AcDbEntity
  8
1
  6
CONTINUOUS
 62
     7
100
AcDbLine
 10
189.7119141641199
 20
224.8963119371
 30
0.0
 11
189.7119141641199
 21
231.61612297472
 31
0.0
  0
LINE
  5
270
330
18
100
AcDbEntity
  8
1
  6
CONTINUOUS
 62
     7
100
AcDbLine
 10
184.0119141641199
 20
224.8963119371
 30
0.0
 11
184.0119141641199
 21
231.61612297472
 31
0.0
  0
ARC
  5
271
330
18
100
AcDbEntity
  8
1
  6
CONTINUOUS
 62
     7
100
AcDbCircle
 10
185.43691416412
 20
233.1123729747199
 30
0.0
 40
2.0662500000001
100
AcDbArc
 50
226.3971810272999
 51
313.60281897272
  0
ARC
  5
272
330
18
100
AcDbEntity
  8
1
  6
CONTINUOUS
 62
     7
100
AcDbCircle
 10
188.2869141641099
 20
230.11987297472
 30
0.0
 40
2.0662500000001
100
AcDbArc
 50
46.39718102727999
 51
133.6028189727197
  0
ARC
  5
273
330
18
100
AcDbEntity
  8
1
  6
CONTINUOUS
 62
     7
100
AcDbCircle
 10
185.43691416412
 20
230.11987297472
 30
0.0
 40
2.0662500000001
100
AcDbArc
 50
46.39718102729999
 51
133.6028189727397
  0
LINE
  5
274
330
18
100
AcDbEntity
  8
1
  6
CONTINUOUS
 62
     7
100
AcDbLine
 10
251.86191416412
 20
188.5963119370999
 30
0.0
 11
251.86191416412
 21
158.7763119371
 31
0.0
  0
LINE
  5
275
330
18
100
AcDbEntity
  8
1
  6
CONTINUOUS
 62
     7
100
AcDbLine
 10
316.86191416412
 20
198.3963119370999
 30
0.0
 11
316.86191416412
 21
199.2010644436099
 31
0.0
  0
LINE
  5
276
330
18
100
AcDbEntity
  8
1
  6
HIDDEN
 62
     7
100
AcDbLine
 10
303.86191416412
 20
216.69160454808
 30
0.0
 11
303.86191416412
 21
198.3963119370999
 31
0.0
  0
ARC
  5
277
330
18
100
AcDbEntity
  8
1
  6
CONTINUOUS
 62
     7
100
AcDbCircle
 10
254.3339591641099
 20
160.0540724370899
 30
0.0
 40
0.993546
100
AcDbArc
 50
141.02395883401
 51
166.02990990041
  0
ARC
  5
278
330
18
100
AcDbEntity
  8
1
  6
CONTINUOUS
 62
     7
100
AcDbCircle
 10
254.80484616412
 20
161.3959304370998
 30
0.0
 40
1.434998
100
AcDbArc
 50
149.98995502839
 51
209.9836651741799
  0
ARC
  5
279
330
18
100
AcDbEntity
  8
1
  6
CONTINUOUS
 62
     7
100
AcDbCircle
 10
254.33350216412
 20
162.7397714370999
 30
0.0
 40
0.993546
100
AcDbArc
 50
194.0532941967699
 51
219.04731029446
  0
LINE
  5
27A
330
18
100
AcDbEntity
  8
1
  6
CONTINUOUS
 62
     7
100
AcDbLine
 10
254.86191416412
 20
159.9612984371
 30
0.0
 11
253.56189616412
 21
159.9612984371
 31
0.0
  0
LINE
  5
27B
330
18
100
AcDbEntity
  8
1
  6
CONTINUOUS
 62
     7
100
AcDbLine
 10
253.56189616412
 20
159.9612984371
 30
0.0
 11
252.73334316412
 21
161.3962354370999
 31
0.0
  0
LINE
  5
27C
330
18
100
AcDbEntity
  8
1
  6
CONTINUOUS
 62
     7
100
AcDbLine
 10
252.73334316412
 20
161.3962354370999
 30
0.0
 11
253.56189616412
 21
162.8313244371
 31
0.0
  0
LINE
  5
27D
330
18
100
AcDbEntity
  8
1
  6
CONTINUOUS
 62
     7
100
AcDbLine
 10
253.56189616412
 20
162.8313244371
 30
0.0
 11
254.86191416412
 21
162.8313244371
 31
0.0
  0
LINE
  5
27E
330
18
100
AcDbEntity
  8
1
  6
CONTINUOUS
 62
     7
100
AcDbLine
 10
254.86191416412
 20
162.1138564370999
 30
0.0
 11
253.56189616412
 21
162.1138564370999
 31
0.0
  0
LINE
  5
27F
330
18
100
AcDbEntity
  8
1
  6
CONTINUOUS
 62
     7
100
AcDbLine
 10
254.86191416412
 20
160.6787674370998
 30
0.0
 11
253.56189616412
 21
160.6787674370998
 31
0.0
  0
LINE
  5
280
330
18
100
AcDbEntity
  8
1
  6
CONTINUOUS
 62
     7
100
AcDbLine
 10
254.86191416412
 20
164.1459304370999
 30
0.0
 11
254.86191416412
 21
158.6459304371
 31
0.0
  0
LINE
  5
281
330
18
100
AcDbEntity
  8
1
  6
CONTINUOUS
 62
     7
100
AcDbLine
 10
254.86191416412
 20
158.6459304371
 30
0.0
 11
251.86191416412
 21
158.6459304371
 31
0.0
  0
LINE
  5
282
330
18
100
AcDbEntity
  8
1
  6
CONTINUOUS
 62
     7
100
AcDbLine
 10
251.86191416412
 20
158.6459304371
 30
0.0
 11
251.86191416412
 21
164.1459304370999
 31
0.0
  0
LINE
  5
283
330
18
100
AcDbEntity
  8
1
  6
CONTINUOUS
 62
     7
100
AcDbLine
 10
251.86191416412
 20
164.1459304370999
 30
0.0
 11
254.86191416412
 21
164.1459304370999
 31
0.0
  0
LINE
  5
284
330
18
100
AcDbEntity
  8
1
  6
CONTINUOUS
 62
     7
100
AcDbLine
 10
316.86191416412
 20
189.5963119370999
 30
0.0
 11
303.86191416412
 21
189.5963119370999
 31
0.0
  0
LINE
  5
285
330
18
100
AcDbEntity
  8
1
  6
CONTINUOUS
 62
     7
100
AcDbLine
 10
303.86191416412
 20
219.92349219381
 30
0.0
 11
303.86191416412
 21
189.5963119370999
 31
0.0
  0
LINE
  5
286
330
18
100
AcDbEntity
  8
1
  6
CONTINUOUS
 62
     7
100
AcDbLine
 10
316.86191416412
 20
198.3963119370999
 30
0.0
 11
316.86191416412
 21
188.5963119370999
 31
0.0
  0
LINE
  5
287
330
18
100
AcDbEntity
  8
1
  6
CONTINUOUS
 62
     7
100
AcDbLine
 10
346.86191416412
 20
184.3963119370999
 30
0.0
 11
346.86191416412
 21
161.8963119370999
 31
0.0
  0
LINE
  5
288
330
18
100
AcDbEntity
  8
1
  6
CONTINUOUS
 62
     7
100
AcDbLine
 10
346.86191416412
 20
184.3963119370999
 30
0.0
 11
346.86191416412
 21
191.8963119370999
 31
0.0
  0
LINE
  5
289
330
18
100
AcDbEntity
  8
1
  6
CONTINUOUS
 62
     7
100
AcDbLine
 10
243.86191416412
 20
154.3963119370999
 30
0.0
 11
251.8754432754
 21
154.3963119370999
 31
0.0
  0
LINE
  5
28A
330
18
100
AcDbEntity
  8
1
  6
CONTINUOUS
 62
     7
100
AcDbLine
 10
243.86191416412
 20
154.3963119370999
 30
0.0
 11
243.86191416412
 21
187.8963119370999
 31
0.0
  0
LINE
  5
28B
330
18
100
AcDbEntity
  8
1
  6
CONTINUOUS
 62
     7
100
AcDbLine
 10
251.8754432754
 20
158.7763119371
 30
0.0
 11
251.8754432754
 21
154.3963119370999
 31
0.0
  0
LINE
  5
28C
330
18
100
AcDbEntity
  8
1
  6
CONTINUOUS
 62
     7
100
AcDbLine
 10
301.4550373536798
 20
222.8963119371
 30
0.0
 11
192.8619141641199
 21
222.8963119371
 31
0.0
  0
ARC
  5
28D
330
18
100
AcDbEntity
  8
1
  6
CONTINUOUS
 62
     7
100
AcDbCircle
 10
301.4550373536798
 20
219.8963119371
 30
0.0
 40
3.0
100
AcDbArc
 50
30.000000000001
 51
89.999999999993
  0
LINE
  5
28E
330
18
100
AcDbEntity
  8
1
  6
CONTINUOUS
 62
     7
100
AcDbLine
 10
316.8661378011297
 20
199.20350296158
 30
0.0
 11
304.0531135650398
 21
221.3963119370998
 31
0.0
  0
LINE
  5
28F
330
18
100
AcDbEntity
  8
1
  6
CONTINUOUS
 62
     7
100
AcDbLine
 10
226.5453059049499
 20
251.9950068534499
 30
0.0
 11
226.5453059049499
 21
261.99500685345
 31
0.0
  0
LINE
  5
290
330
18
100
AcDbEntity
  8
1
  6
CONTINUOUS
 62
     7
100
AcDbLine
 10
226.5453059049499
 20
261.99500685345
 30
0.0
 11
250.54530590495
 21
261.99500685345
 31
0.0
  0
LINE
  5
291
330
18
100
AcDbEntity
  8
1
  6
CONTINUOUS
 62
     7
100
AcDbLine
 10
250.54530590495
 20
261.99500685345
 30
0.0
 11
250.54530590495
 21
251.9950068534499
 31
0.0
  0
LINE
  5
292
330
18
100
AcDbEntity
  8
1
  6
CONTINUOUS
 62
     7
100
AcDbLine
 10
250.54530590495
 20
251.9950068534499
 30
0.0
 11
226.5453059049499
 21
251.9950068534499
 31
0.0
  0
LINE
  5
293
330
18
100
AcDbEntity
  8
1
  6
CONTINUOUS
 62
     7
100
AcDbLine
 10
248.54530590495
 20
282.2551123016097
 30
0.0
 11
248.54530590495
 21
285.7551123016098
 31
0.0
  0
LINE
  5
294
330
18
100
AcDbEntity
  8
1
  6
CONTINUOUS
 62
     7
100
AcDbLine
 10
248.54530590495
 20
285.7551123016098
 30
0.0
 11
235.0453059049498
 21
285.7551123016098
 31
0.0
  0
LINE
  5
295
330
18
100
AcDbEntity
  8
1
  6
CONTINUOUS
 62
     7
100
AcDbLine
 10
181.8656815341699
 20
223.8963119370999
 30
0.0
 11
181.8656815341699
 21
222.8963119371
 31
0.0
  0
ARC
  5
296
330
18
100
AcDbEntity
  8
1
  6
CONTINUOUS
 62
     7
100
AcDbCircle
 10
182.8656815341598
 20
223.89631193711
 30
0.0
 40
1.0
100
AcDbArc
 50
89.99999999989903
 51
180.00000000025
  0
ARC
  5
297
330
18
100
AcDbEntity
  8
1
  6
CONTINUOUS
 62
     7
100
AcDbCircle
 10
190.8656815341598
 20
223.8963119370999
 30
0.0
 40
1.0
100
AcDbArc
 50
0.0
 51
89.99999999988601
  0
LINE
  5
298
330
18
100
AcDbEntity
  8
1
  6
CONTINUOUS
 62
     7
100
AcDbLine
 10
191.8656815341598
 20
223.8963119370999
 30
0.0
 11
191.8656815341598
 21
222.8963119371
 31
0.0
  0
ARC
  5
299
330
18
100
AcDbEntity
  8
1
  6
CONTINUOUS
 62
     7
100
AcDbCircle
 10
188.2869141641199
 20
234.4129319639299
 30
0.0
 40
2.0662500000001
100
AcDbArc
 50
46.397181027297
 51
133.6028189726899
  0
ARC
  5
29A
330
18
100
AcDbEntity
  8
1
  6
CONTINUOUS
 62
     7
100
AcDbCircle
 10
185.43691416412
 20
237.4054319639299
 30
0.0
 40
2.0662500000001
100
AcDbArc
 50
226.3971810272999
 51
313.60281897266
  0
ARC
  5
29B
330
18
100
AcDbEntity
  8
1
  6
CONTINUOUS
 62
     7
100
AcDbCircle
 10
188.2869141641199
 20
237.4054319639299
 30
0.0
 40
2.0662500000001
100
AcDbArc
 50
226.3971810272999
 51
313.60281897268
  0
LINE
  5
29C
330
18
100
AcDbEntity
  8
1
  6
CONTINUOUS
 62
     7
100
AcDbLine
 10
189.7119141641199
 20
235.9091819639299
 30
0.0
 11
189.7119141641199
 21
241.94500685345
 31
0.0
  0
ARC
  5
29D
330
18
100
AcDbEntity
  8
1
  6
CONTINUOUS
 62
     7
100
AcDbCircle
 10
201.9119141641199
 20
241.94500685345
 30
0.0
 40
12.19999999999999
100
AcDbArc
 50
90.0
 51
180.0
  0
LINE
  5
29E
330
18
100
AcDbEntity
  8
1
  6
CONTINUOUS
 62
     7
100
AcDbLine
 10
226.5453059049499
 20
254.14500685345
 30
0.0
 11
201.9119141641199
 21
254.14500685345
 31
0.0
  0
LINE
  5
29F
330
18
100
AcDbEntity
  8
1
  6
CONTINUOUS
 62
     7
100
AcDbLine
 10
184.0119141641199
 20
235.9091819639299
 30
0.0
 11
184.0119141641199
 21
242.04500685345
 31
0.0
  0
ARC
  5
2A0
330
18
100
AcDbEntity
  8
1
  6
CONTINUOUS
 62
     7
100
AcDbCircle
 10
201.81191416412
 20
242.04500685345
 30
0.0
 40
17.8
100
AcDbArc
 50
90.0
 51
180.0
  0
LINE
  5
2A1
330
18
100
AcDbEntity
  8
1
  6
CONTINUOUS
 62
     7
100
AcDbLine
 10
226.5453059049499
 20
259.84500685345
 30
0.0
 11
201.81191416412
 21
259.84500685345
 31
0.0
  0
LINE
  5
2A2
330
18
100
AcDbEntity
  8
1
  6
CONTINUOUS
 62
     7
100
AcDbLine
 10
191.0619141641199
 20
247.52331304799
 30
0.0
 11
191.0619141641199
 21
224.8963119371
 31
0.0
  0
ARC
  5
2A3
330
18
100
AcDbEntity
  8
1
  6
CONTINUOUS
 62
     7
100
AcDbCircle
 10
184.76191416412
 20
260.25829444196
 30
0.0
 40
3.0450000000001
100
AcDbArc
 50
226.3971810272999
 51
313.60281897267
  0
ARC
  5
2A4
330
18
100
AcDbEntity
  8
1
  6
CONTINUOUS
 62
     7
100
AcDbCircle
 10
188.9619141641199
 20
255.84829444196
 30
0.0
 40
3.0450000000001
100
AcDbArc
 50
46.39718102730099
 51
133.6028189726798
  0
ARC
  5
2A5
330
18
100
AcDbEntity
  8
1
  6
CONTINUOUS
 62
     7
100
AcDbCircle
 10
184.7619141641099
 20
255.84829444196
 30
0.0
 40
3.0450000000001
100
AcDbArc
 50
46.397181027298
 51
133.6028189726899
  0
ARC
  5
2A6
330
18
100
AcDbEntity
  8
1
  6
CONTINUOUS
 62
     7
100
AcDbCircle
 10
188.9619141641199
 20
259.29293416077
 30
0.0
 40
3.0450000000001
100
AcDbArc
 50
46.397181027297
 51
133.60281897267
  0
ARC
  5
2A7
330
18
100
AcDbEntity
  8
1
  6
CONTINUOUS
 62
     7
100
AcDbCircle
 10
184.7619141641099
 20
263.70293416077
 30
0.0
 40
3.0450000000001
100
AcDbArc
 50
226.39718102731
 51
313.6028189727098
  0
ARC
  5
2A8
330
18
100
AcDbEntity
  8
1
  6
CONTINUOUS
 62
     7
100
AcDbCircle
 10
188.9619141641199
 20
263.70293416077
 30
0.0
 40
3.0450000000001
100
AcDbArc
 50
226.3971810272999
 51
313.6028189727098
  0
ARC
  5
2A9
330
18
100
AcDbEntity
  8
1
  6
CONTINUOUS
 62
     7
100
AcDbCircle
 10
201.8619141641199
 20
262.7551123016099
 30
0.0
 40
10.8
100
AcDbArc
 50
90.0
 51
180.0
  0
LINE
  5
2AA
330
18
100
AcDbEntity
  8
1
  6
CONTINUOUS
 62
     7
100
AcDbLine
 10
191.0619141641199
 20
261.49793416077
 30
0.0
 11
191.0619141641199
 21
262.7551123016099
 31
0.0
  0
LINE
  5
2AB
330
18
100
AcDbEntity
  8
1
  6
CONTINUOUS
 62
     7
100
AcDbLine
 10
182.6619141641199
 20
262.7551123016099
 30
0.0
 11
182.6619141641199
 21
261.49793416077
 31
0.0
  0
ARC
  5
2AC
330
18
100
AcDbEntity
  8
1
  6
CONTINUOUS
 62
     7
100
AcDbCircle
 10
201.8619141641199
 20
262.7551123016099
 30
0.0
 40
19.19999999999999
100
AcDbArc
 50
90.0
 51
180.0
  0
LINE
  5
2AD
330
18
100
AcDbEntity
  8
1
  6
CONTINUOUS
 62
     7
100
AcDbLine
 10
182.6619141641199
 20
258.05329444196
 30
0.0
 11
182.6619141641199
 21
224.8963119371
 31
0.0
  0
LINE
  5
2AE
330
18
100
AcDbEntity
  8
1
  6
CONTINUOUS
 62
     7
100
AcDbLine
 10
191.0619141641199
 20
256.2322370271
 30
0.0
 11
191.0619141641199
 21
258.05329444196
 31
0.0
  0
LINE
  5
2AF
330
18
100
AcDbEntity
  8
1
  6
CONTINUOUS
 62
     7
100
AcDbLine
 10
250.54530590495
 20
273.2551123016099
 30
0.0
 11
250.54530590495
 21
282.2551123016097
 31
0.0
  0
LINE
  5
2B0
330
18
100
AcDbEntity
  8
1
  6
DASHDOT
 62
     7
100
AcDbLine
 10
95.52021089630899
 20
163.7870511108198
 30
0.0
 11
95.52021089630899
 21
152.8354863845999
 31
0.0
  0
LINE
  5
2B1
330
18
100
AcDbEntity
  8
1
  6
CONTINUOUS
 62
     7
100
AcDbLine
 10
117.52021089631
 20
195.3963119371
 30
0.0
 11
117.52021089631
 21
191.3963119371
 31
0.0
  0
LINE
  5
2B2
330
18
100
AcDbEntity
  8
1
  6
CONTINUOUS
 62
     7
100
AcDbLine
 10
73.52021089630901
 20
191.3963119371
 30
0.0
 11
73.52021089630901
 21
195.5757311243799
 31
0.0
  0
LINE
  5
2B3
330
18
100
AcDbEntity
  8
1
  6
CONTINUOUS
 62
     7
100
AcDbLine
 10
117.52021089631
 20
191.3963119371
 30
0.0
 11
117.52021089631
 21
161.3963119371
 31
0.0
  0
ARC
  5
2B4
330
18
100
AcDbEntity
  8
1
  6
CONTINUOUS
 62
     7
100
AcDbCircle
 10
111.02021089631
 20
161.3963119371
 30
0.0
 40
6.5
100
AcDbArc
 50
270.0
 51
0.0
  0
LINE
  5
2B5
330
18
100
AcDbEntity
  8
1
  6
CONTINUOUS
 62
     7
100
AcDbLine
 10
73.52021089630901
 20
161.3963119371
 30
0.0
 11
73.52021089630901
 21
191.3963119371
 31
0.0
  0
ARC
  5
2B6
330
18
100
AcDbEntity
  8
1
  6
CONTINUOUS
 62
     7
100
AcDbCircle
 10
80.020210896309
 20
161.3963119371
 30
0.0
 40
6.5
100
AcDbArc
 50
180.0
 51
270.0
  0
LINE
  5
2B7
330
18
100
AcDbEntity
  8
1
  6
CONTINUOUS
 62
     7
100
AcDbLine
 10
111.02021089631
 20
154.8963119371
 30
0.0
 11
80.020210896309
 21
154.8963119371
 31
0.0
  0
LINE
  5
2B8
330
18
100
AcDbEntity
  8
1
  6
CONTINUOUS
 62
     7
100
AcDbLine
 10
82.520210896309
 20
222.8963119371
 30
0.0
 11
94.520210896309
 21
222.8963119371
 31
0.0
  0
LINE
  5
2B9
330
18
100
AcDbEntity
  8
1
  6
CONTINUOUS
 62
     7
100
AcDbLine
 10
94.520210896309
 20
222.8963119371
 30
0.0
 11
96.52021089630899
 21
222.8963119371
 31
0.0
  0
LINE
  5
2BA
330
18
100
AcDbEntity
  8
1
  6
CONTINUOUS
 62
     7
100
AcDbLine
 10
82.520210896309
 20
222.8963119371
 30
0.0
 11
82.520210896309
 21
223.8963119370999
 31
0.0
  0
ARC
  5
2BB
330
18
100
AcDbEntity
  8
1
  6
CONTINUOUS
 62
     7
100
AcDbCircle
 10
83.52021089631
 20
223.8963119370999
 30
0.0
 40
1.0
100
AcDbArc
 50
90.00000000005698
 51
180.00000000007
  0
LINE
  5
2BC
330
18
100
AcDbEntity
  8
1
  6
CONTINUOUS
 62
     7
100
AcDbLine
 10
83.520210896309
 20
224.8963119371
 30
0.0
 11
93.520210896309
 21
224.8963119371
 31
0.0
  0
ARC
  5
2BD
330
18
100
AcDbEntity
  8
1
  6
CONTINUOUS
 62
     7
100
AcDbCircle
 10
93.52021089630699
 20
223.8963119370999
 30
0.0
 40
1.0
100
AcDbArc
 50
0.0
 51
89.99999999988899
  0
LINE
  5
2BE
330
18
100
AcDbEntity
  8
1
  6
CONTINUOUS
 62
     7
100
AcDbLine
 10
94.520210896309
 20
223.8963119370999
 30
0.0
 11
94.520210896309
 21
222.8963119371
 31
0.0
  0
LINE
  5
2BF
330
18
100
AcDbEntity
  8
1
  6
CONTINUOUS
 62
     7
100
AcDbLine
 10
96.52021089630899
 20
222.8963119371
 30
0.0
 11
108.52021089631
 21
222.8963119371
 31
0.0
  0
LINE
  5
2C0
330
18
100
AcDbEntity
  8
1
  6
CONTINUOUS
 62
     7
100
AcDbLine
 10
75.52021089630901
 20
222.8963119371
 30
0.0
 11
82.520210896309
 21
222.8963119371
 31
0.0
  0
ARC
  5
2C1
330
18
100
AcDbEntity
  8
1
  6
CONTINUOUS
 62
     7
100
AcDbCircle
 10
75.52021089630901
 20
220.8963119370999
 30
0.0
 40
2.0
100
AcDbArc
 50
90.0
 51
180.0
  0
LINE
  5
2C2
330
18
100
AcDbEntity
  8
1
  6
CONTINUOUS
 62
     7
100
AcDbLine
 10
73.52021089630901
 20
220.8963119370999
 30
0.0
 11
73.52021089630901
 21
195.5757311243799
 31
0.0
  0
LINE
  5
2C3
330
18
100
AcDbEntity
  8
1
  6
CONTINUOUS
 62
     7
100
AcDbLine
 10
108.52021089631
 20
222.8963119371
 30
0.0
 11
115.52021089631
 21
222.8963119371
 31
0.0
  0
ARC
  5
2C4
330
18
100
AcDbEntity
  8
1
  6
CONTINUOUS
 62
     7
100
AcDbCircle
 10
115.52021089631
 20
220.8963119370999
 30
0.0
 40
2.0
100
AcDbArc
 50
0.0
 51
90.00000000002399
  0
LINE
  5
2C5
330
18
100
AcDbEntity
  8
1
  6
CONTINUOUS
 62
     7
100
AcDbLine
 10
117.52021089631
 20
220.8963119370999
 30
0.0
 11
117.52021089631
 21
195.3963119371
 31
0.0
  0
LINE
  5
2C6
330
18
100
AcDbEntity
  8
1
  6
CONTINUOUS
 62
     7
100
AcDbLine
 10
110.92021089631
 20
219.3963119370998
 30
0.0
 11
110.92021089631
 21
222.8963119371
 31
0.0
  0
ARC
  5
2C7
330
18
100
AcDbEntity
  8
1
  6
CONTINUOUS
 62
     7
100
AcDbCircle
 10
114.02021089631
 20
219.3963119370998
 30
0.0
 40
3.1
100
AcDbArc
 50
180.0
 51
269.99999999999
  0
LINE
  5
2C8
330
18
100
AcDbEntity
  8
1
  6
CONTINUOUS
 62
     7
100
AcDbLine
 10
114.02021089631
 20
216.2963119371
 30
0.0
 11
117.52021089631
 21
216.2963119371
 31
0.0
  0
LINE
  5
2C9
330
18
100
AcDbEntity
  8
1
  6
CONTINUOUS
 62
     7
100
AcDbLine
 10
80.120210896309
 20
222.8963119371
 30
0.0
 11
80.120210896309
 21
219.3963119370998
 31
0.0
  0
ARC
  5
2CA
330
18
100
AcDbEntity
  8
1
  6
CONTINUOUS
 62
     7
100
AcDbCircle
 10
77.02021089630901
 20
219.3963119370998
 30
0.0
 40
3.1
100
AcDbArc
 50
270.00000000001
 51
0.0000000000036771
  0
LINE
  5
2CB
330
18
100
AcDbEntity
  8
1
  6
CONTINUOUS
 62
     7
100
AcDbLine
 10
73.52021089630901
 20
216.2963119371
 30
0.0
 11
77.02021089630901
 21
216.2963119371
 31
0.0
  0
LINE
  5
2CC
330
18
100
AcDbEntity
  8
1
  6
CONTINUOUS
 62
     7
100
AcDbLine
 10
76.62021089630902
 20
221.3963119370998
 30
0.0
 11
77.420210896309
 21
221.3963119370998
 31
0.0
  0
LINE
  5
2CD
330
18
100
AcDbEntity
  8
1
  6
CONTINUOUS
 62
     7
100
AcDbLine
 10
76.62021089630902
 20
220.7963119371
 30
0.0
 11
76.62021089630902
 21
221.3963119370998
 31
0.0
  0
ARC
  5
2CE
330
18
100
AcDbEntity
  8
1
  6
CONTINUOUS
 62
     7
100
AcDbCircle
 10
75.62021089631099
 20
220.7963119371
 30
0.0
 40
1.0
100
AcDbArc
 50
269.99999999992
 51
0.0
  0
LINE
  5
2CF
330
18
100
AcDbEntity
  8
1
  6
CONTINUOUS
 62
     7
100
AcDbLine
 10
75.020210896309
 20
219.7963119370999
 30
0.0
 11
75.620210896309
 21
219.7963119370999
 31
0.0
  0
LINE
  5
2D0
330
18
100
AcDbEntity
  8
1
  6
CONTINUOUS
 62
     7
100
AcDbLine
 10
75.020210896309
 20
218.9963119370998
 30
0.0
 11
75.020210896309
 21
219.7963119370999
 31
0.0
  0
LINE
  5
2D1
330
18
100
AcDbEntity
  8
1
  6
CONTINUOUS
 62
     7
100
AcDbLine
 10
75.620210896309
 20
218.9963119370998
 30
0.0
 11
75.020210896309
 21
218.9963119370998
 31
0.0
  0
ARC
  5
2D2
330
18
100
AcDbEntity
  8
1
  6
CONTINUOUS
 62
     7
100
AcDbCircle
 10
75.620210896307
 20
217.9963119371
 30
0.0
 40
1.0
100
AcDbArc
 50
0.0
 51
89.999999999888
  0
LINE
  5
2D3
330
18
100
AcDbEntity
  8
1
  6
CONTINUOUS
 62
     7
100
AcDbLine
 10
76.62021089630902
 20
217.3963119370998
 30
0.0
 11
76.62021089630902
 21
217.9963119371
 31
0.0
  0
LINE
  5
2D4
330
18
100
AcDbEntity
  8
1
  6
CONTINUOUS
 62
     7
100
AcDbLine
 10
77.420210896309
 20
217.9963119371
 30
0.0
 11
77.420210896309
 21
217.3963119370998
 31
0.0
  0
ARC
  5
2D5
330
18
100
AcDbEntity
  8
1
  6
CONTINUOUS
 62
     7
100
AcDbCircle
 10
78.42021089630801
 20
217.9963119371
 30
0.0
 40
1.0
100
AcDbArc
 50
89.99999999994001
 51
180.00000000008
  0
LINE
  5
2D6
330
18
100
AcDbEntity
  8
1
  6
CONTINUOUS
 62
     7
100
AcDbLine
 10
79.02021089630901
 20
218.9963119370998
 30
0.0
 11
78.420210896309
 21
218.9963119370998
 31
0.0
  0
LINE
  5
2D7
330
18
100
AcDbEntity
  8
1
  6
CONTINUOUS
 62
     7
100
AcDbLine
 10
79.02021089630901
 20
219.7963119370999
 30
0.0
 11
79.02021089630901
 21
218.9963119370998
 31
0.0
  0
LINE
  5
2D8
330
18
100
AcDbEntity
  8
1
  6
CONTINUOUS
 62
     7
100
AcDbLine
 10
78.420210896309
 20
219.7963119370999
 30
0.0
 11
79.02021089630901
 21
219.7963119370999
 31
0.0
  0
ARC
  5
2D9
330
18
100
AcDbEntity
  8
1
  6
CONTINUOUS
 62
     7
100
AcDbCircle
 10
78.420210896306
 20
220.7963119371
 30
0.0
 40
1.0
100
AcDbArc
 50
179.99999999998
 51
270.00000000017
  0
LINE
  5
2DA
330
18
100
AcDbEntity
  8
1
  6
CONTINUOUS
 62
     7
100
AcDbLine
 10
77.420210896309
 20
221.3963119370998
 30
0.0
 11
77.420210896309
 21
220.7963119371
 31
0.0
  0
CIRCLE
  5
2DB
330
18
100
AcDbEntity
  8
1
  6
CONTINUOUS
 62
     7
100
AcDbCircle
 10
77.02021089630901
 20
219.3963119370998
 30
0.0
 40
2.75
  0
LINE
  5
2DC
330
18
100
AcDbEntity
  8
1
  6
CONTINUOUS
 62
     7
100
AcDbLine
 10
77.420210896309
 20
217.3963119370998
 30
0.0
 11
76.62021089630902
 21
217.3963119370998
 31
0.0
  0
CIRCLE
  5
2DD
330
18
100
AcDbEntity
  8
1
  6
CONTINUOUS
 62
     7
100
AcDbCircle
 10
95.52021089630899
 20
159.8963119370999
 30
0.0
 40
3.1
  0
LINE
  5
2DE
330
18
100
AcDbEntity
  8
1
  6
CONTINUOUS
 62
     7
100
AcDbLine
 10
97.520210896313
 20
223.8963119370999
 30
0.0
 11
97.520210896313
 21
222.8963119371
 31
0.0
  0
ARC
  5
2DF
330
18
100
AcDbEntity
  8
1
  6
CONTINUOUS
 62
     7
100
AcDbCircle
 10
98.52021089631399
 20
223.8963119370999
 30
0.0
 40
1.0
100
AcDbArc
 50
90.00000000006201
 51
180.00000000014
  0
ARC
  5
2E0
330
18
100
AcDbEntity
  8
1
  6
CONTINUOUS
 62
     7
100
AcDbCircle
 10
106.52021089631
 20
223.8963119370999
 30
0.0
 40
1.0
100
AcDbArc
 50
0.0
 51
89.999999999829
  0
LINE
  5
2E1
330
18
100
AcDbEntity
  8
1
  6
CONTINUOUS
 62
     7
100
AcDbLine
 10
107.52021089631
 20
223.8963119370999
 30
0.0
 11
107.52021089631
 21
222.8963119371
 31
0.0
  0
LINE
  5
2E2
330
18
100
AcDbEntity
  8
1
  6
CONTINUOUS
 62
     7
100
AcDbLine
 10
98.520210896313
 20
224.8963119371
 30
0.0
 11
106.52021089631
 21
224.8963119371
 31
0.0
  0
LINE
  5
2E3
330
18
100
AcDbEntity
  8
1
  6
DASHDOT
 62
     7
100
AcDbLine
 10
114.02021089631
 20
221.40664682662
 30
0.0
 11
114.02021089631
 21
217.2213249733999
 31
0.0
  0
LINE
  5
2E4
330
18
100
AcDbEntity
  8
1
  6
CONTINUOUS
 62
     7
100
AcDbLine
 10
113.62021089631
 20
221.3963119370998
 30
0.0
 11
114.42021089631
 21
221.3963119370998
 31
0.0
  0
LINE
  5
2E5
330
18
100
AcDbEntity
  8
1
  6
CONTINUOUS
 62
     7
100
AcDbLine
 10
113.62021089631
 20
220.7963119371
 30
0.0
 11
113.62021089631
 21
221.3963119370998
 31
0.0
  0
ARC
  5
2E6
330
18
100
AcDbEntity
  8
1
  6
CONTINUOUS
 62
     7
100
AcDbCircle
 10
112.62021089631
 20
220.7963119371
 30
0.0
 40
1.0
100
AcDbArc
 50
269.99999999992
 51
0.0
  0
LINE
  5
2E7
330
18
100
AcDbEntity
  8
1
  6
CONTINUOUS
 62
     7
100
AcDbLine
 10
112.02021089631
 20
219.7963119370999
 30
0.0
 11
112.62021089631
 21
219.7963119370999
 31
0.0
  0
LINE
  5
2E8
330
18
100
AcDbEntity
  8
1
  6
CONTINUOUS
 62
     7
100
AcDbLine
 10
112.02021089631
 20
218.9963119370998
 30
0.0
 11
112.02021089631
 21
219.7963119370999
 31
0.0
  0
LINE
  5
2E9
330
18
100
AcDbEntity
  8
1
  6
CONTINUOUS
 62
     7
100
AcDbLine
 10
112.62021089631
 20
218.9963119370998
 30
0.0
 11
112.02021089631
 21
218.9963119370998
 31
0.0
  0
ARC
  5
2EA
330
18
100
AcDbEntity
  8
1
  6
CONTINUOUS
 62
     7
100
AcDbCircle
 10
112.62021089631
 20
217.9963119371
 30
0.0
 40
1.0
100
AcDbArc
 50
0.0
 51
90.000000000037
  0
LINE
  5
2EB
330
18
100
AcDbEntity
  8
1
  6
CONTINUOUS
 62
     7
100
AcDbLine
 10
113.62021089631
 20
217.3963119370998
 30
0.0
 11
113.62021089631
 21
217.9963119371
 31
0.0
  0
LINE
  5
2EC
330
18
100
AcDbEntity
  8
1
  6
CONTINUOUS
 62
     7
100
AcDbLine
 10
114.42021089631
 20
217.9963119371
 30
0.0
 11
114.42021089631
 21
217.3963119370998
 31
0.0
  0
ARC
  5
2ED
330
18
100
AcDbEntity
  8
1
  6
CONTINUOUS
 62
     7
100
AcDbCircle
 10
115.42021089631
 20
217.9963119371
 30
0.0
 40
1.0
100
AcDbArc
 50
89.99999999994301
 51
179.9999999999899
  0
LINE
  5
2EE
330
18
100
AcDbEntity
  8
1
  6
CONTINUOUS
 62
     7
100
AcDbLine
 10
116.02021089631
 20
218.9963119370998
 30
0.0
 11
115.42021089631
 21
218.9963119370998
 31
0.0
  0
LINE
  5
2EF
330
18
100
AcDbEntity
  8
1
  6
CONTINUOUS
 62
     7
100
AcDbLine
 10
115.42021089631
 20
219.7963119370999
 30
0.0
 11
116.02021089631
 21
219.7963119370999
 31
0.0
  0
ARC
  5
2F0
330
18
100
AcDbEntity
  8
1
  6
CONTINUOUS
 62
     7
100
AcDbCircle
 10
115.42021089631
 20
220.7963119371
 30
0.0
 40
1.0
100
AcDbArc
 50
179.99999999998
 51
270.00000000002
  0
LINE
  5
2F1
330
18
100
AcDbEntity
  8
1
  6
CONTINUOUS
 62
     7
100
AcDbLine
 10
114.42021089631
 20
221.3963119370998
 30
0.0
 11
114.42021089631
 21
220.7963119371
 31
0.0
  0
CIRCLE
  5
2F2
330
18
100
AcDbEntity
  8
1
  6
CONTINUOUS
 62
     7
100
AcDbCircle
 10
114.02021089631
 20
219.3963119370998
 30
0.0
 40
2.75
  0
LINE
  5
2F3
330
18
100
AcDbEntity
  8
1
  6
CONTINUOUS
 62
     7
100
AcDbLine
 10
114.42021089631
 20
217.3963119370998
 30
0.0
 11
113.62021089631
 21
217.3963119370998
 31
0.0
  0
LINE
  5
2F4
330
18
100
AcDbEntity
  8
1
  6
CONTINUOUS
 62
     7
100
AcDbLine
 10
116.02021089631
 20
219.7963119370999
 30
0.0
 11
116.02021089631
 21
218.9963119370998
 31
0.0
  0
LINE
  5
2F5
330
18
100
AcDbEntity
  8
1
  6
DASHDOT
 62
     7
100
AcDbLine
 10
97.639727091471
 20
159.8963119370999
 30
0.0
 11
93.454405238252
 21
159.8963119370999
 31
0.0
  0
LINE
  5
2F6
330
18
100
AcDbEntity
  8
1
  6
DASHDOT
 62
     7
100
AcDbLine
 10
95.52021089630899
 20
161.9066468266199
 30
0.0
 11
95.52021089630899
 21
157.7213249733999
 31
0.0
  0
LINE
  5
2F7
330
18
100
AcDbEntity
  8
1
  6
CONTINUOUS
 62
     7
100
AcDbLine
 10
95.12021089630897
 20
161.8963119370999
 30
0.0
 11
95.920210896309
 21
161.8963119370999
 31
0.0
  0
LINE
  5
2F8
330
18
100
AcDbEntity
  8
1
  6
CONTINUOUS
 62
     7
100
AcDbLine
 10
95.12021089630897
 20
161.2963119371
 30
0.0
 11
95.12021089630897
 21
161.8963119370999
 31
0.0
  0
ARC
  5
2F9
330
18
100
AcDbEntity
  8
1
  6
CONTINUOUS
 62
     7
100
AcDbCircle
 10
94.12021089630899
 20
161.2963119371
 30
0.0
 40
1.0
100
AcDbArc
 50
270.0000000000299
 51
0.000000000029312
  0
LINE
  5
2FA
330
18
100
AcDbEntity
  8
1
  6
CONTINUOUS
 62
     7
100
AcDbLine
 10
93.520210896309
 20
160.2963119371
 30
0.0
 11
94.12021089630899
 21
160.2963119371
 31
0.0
  0
LINE
  5
2FB
330
18
100
AcDbEntity
  8
1
  6
CONTINUOUS
 62
     7
100
AcDbLine
 10
93.520210896309
 20
159.4963119370999
 30
0.0
 11
93.520210896309
 21
160.2963119371
 31
0.0
  0
LINE
  5
2FC
330
18
100
AcDbEntity
  8
1
  6
CONTINUOUS
 62
     7
100
AcDbLine
 10
94.12021089630899
 20
159.4963119370999
 30
0.0
 11
93.520210896309
 21
159.4963119370999
 31
0.0
  0
ARC
  5
2FD
330
18
100
AcDbEntity
  8
1
  6
CONTINUOUS
 62
     7
100
AcDbCircle
 10
94.12021089630698
 20
158.4963119370998
 30
0.0
 40
1.0
100
AcDbArc
 50
0.0
 51
89.999999999888
  0
LINE
  5
2FE
330
18
100
AcDbEntity
  8
1
  6
CONTINUOUS
 62
     7
100
AcDbLine
 10
95.12021089630897
 20
157.8963119371
 30
0.0
 11
95.12021089630897
 21
158.4963119370998
 31
0.0
  0
LINE
  5
2FF
330
18
100
AcDbEntity
  8
1
  6
CONTINUOUS
 62
     7
100
AcDbLine
 10
95.920210896309
 20
158.4963119370998
 30
0.0
 11
95.920210896309
 21
157.8963119371
 31
0.0
  0
ARC
  5
300
330
18
100
AcDbEntity
  8
1
  6
CONTINUOUS
 62
     7
100
AcDbCircle
 10
96.920210896309
 20
158.4963119370998
 30
0.0
 40
1.0
100
AcDbArc
 50
89.99999999998399
 51
180.00000000005
  0
LINE
  5
301
330
18
100
AcDbEntity
  8
1
  6
CONTINUOUS
 62
     7
100
AcDbLine
 10
97.520210896309
 20
159.4963119370999
 30
0.0
 11
96.920210896309
 21
159.4963119370999
 31
0.0
  0
LINE
  5
302
330
18
100
AcDbEntity
  8
1
  6
CONTINUOUS
 62
     7
100
AcDbLine
 10
96.920210896309
 20
160.2963119371
 30
0.0
 11
97.520210896309
 21
160.2963119371
 31
0.0
  0
ARC
  5
303
330
18
100
AcDbEntity
  8
1
  6
CONTINUOUS
 62
     7
100
AcDbCircle
 10
96.920210896309
 20
161.2963119371
 30
0.0
 40
1.0
100
AcDbArc
 50
179.9999999999899
 51
269.99999999999
  0
LINE
  5
304
330
18
100
AcDbEntity
  8
1
  6
CONTINUOUS
 62
     7
100
AcDbLine
 10
95.920210896309
 20
161.8963119370999
 30
0.0
 11
95.920210896309
 21
161.2963119371
 31
0.0
  0
CIRCLE
  5
305
330
18
100
AcDbEntity
  8
1
  6
CONTINUOUS
 62
     7
100
AcDbCircle
 10
95.52021089630899
 20
159.8963119370999
 30
0.0
 40
2.75
  0
LINE
  5
306
330
18
100
AcDbEntity
  8
1
  6
CONTINUOUS
 62
     7
100
AcDbLine
 10
95.920210896309
 20
157.8963119371
 30
0.0
 11
95.12021089630897
 21
157.8963119371
 31
0.0
  0
LINE
  5
307
330
18
100
AcDbEntity
  8
1
  6
CONTINUOUS
 62
     7
100
AcDbLine
 10
97.520210896309
 20
160.2963119371
 30
0.0
 11
97.520210896309
 21
159.4963119370999
 31
0.0
  0
LINE
  5
308
330
18
100
AcDbEntity
  8
1
  6
CONTINUOUS
 62
     7
100
AcDbLine
 10
242.54530590495
 20
282.2551123016097
 30
0.0
 11
242.54530590495
 21
273.2551123016099
 31
0.0
  0
LINE
  5
309
330
18
100
AcDbEntity
  8
1
  6
CONTINUOUS
 62
     7
100
AcDbLine
 10
226.5453059049499
 20
260.39500685345
 30
0.0
 11
242.54530590495
 21
260.39500685345
 31
0.0
  0
LINE
  5
30A
330
18
100
AcDbEntity
  8
1
  6
CONTINUOUS
 62
     7
100
AcDbLine
 10
236.5453059049499
 20
258.36363602744
 30
0.0
 11
236.5453059049499
 21
255.16504200284
 31
0.0
  0
LINE
  5
30B
330
18
100
AcDbEntity
  8
1
  6
CONTINUOUS
 62
     7
100
AcDbLine
 10
242.54530590495
 20
260.39500685345
 30
0.0
 11
242.54530590495
 21
253.59500685345
 31
0.0
  0
LINE
  5
30C
330
18
100
AcDbEntity
  8
1
  6
CONTINUOUS
 62
     7
100
AcDbLine
 10
242.54530590495
 20
253.59500685345
 30
0.0
 11
226.5453059049499
 21
253.59500685345
 31
0.0
  0
LINE
  5
30D
330
18
100
AcDbEntity
  8
1
  6
CONTINUOUS
 62
     7
100
AcDbLine
 10
107.52021089632
 20
261.99500685345
 30
0.0
 11
97.52021089631799
 21
261.99500685345
 31
0.0
  0
LINE
  5
30E
330
18
100
AcDbEntity
  8
1
  6
CONTINUOUS
 62
     7
100
AcDbLine
 10
107.52021089632
 20
260.39500685345
 30
0.0
 11
110.0202108963199
 21
260.39500685345
 31
0.0
  0
LINE
  5
30F
330
18
100
AcDbEntity
  8
1
  6
CONTINUOUS
 62
     7
100
AcDbLine
 10
110.0202108963199
 20
260.39500685345
 30
0.0
 11
110.0202108963199
 21
253.59500685345
 31
0.0
  0
LINE
  5
310
330
18
100
AcDbEntity
  8
1
  6
CONTINUOUS
 62
     7
100
AcDbLine
 10
110.0202108963199
 20
253.59500685345
 30
0.0
 11
107.52021089632
 21
253.59500685345
 31
0.0
  0
LINE
  5
311
330
18
100
AcDbEntity
  8
1
  6
CONTINUOUS
 62
     7
100
AcDbLine
 10
97.52021089631799
 20
260.39500685345
 30
0.0
 11
95.02021089631799
 21
260.39500685345
 31
0.0
  0
LINE
  5
312
330
18
100
AcDbEntity
  8
1
  6
CONTINUOUS
 62
     7
100
AcDbLine
 10
95.02021089631799
 20
260.39500685345
 30
0.0
 11
95.02021089631799
 21
253.59500685345
 31
0.0
  0
LINE
  5
313
330
18
100
AcDbEntity
  8
1
  6
CONTINUOUS
 62
     7
100
AcDbLine
 10
95.02021089631799
 20
253.59500685345
 30
0.0
 11
97.52021089631799
 21
253.59500685345
 31
0.0
  0
LINE
  5
314
330
18
100
AcDbEntity
  8
1
  6
CONTINUOUS
 62
     7
100
AcDbLine
 10
77.52021089631799
 20
282.2551123016097
 30
0.0
 11
77.52021089631799
 21
273.2551123016099
 31
0.0
  0
LINE
  5
315
330
18
100
AcDbEntity
  8
1
  6
CONTINUOUS
 62
     7
100
AcDbLine
 10
99.52021089631799
 20
273.2551123016099
 30
0.0
 11
99.52021089631799
 21
282.2551123016097
 31
0.0
  0
LINE
  5
316
330
18
100
AcDbEntity
  8
1
  6
CONTINUOUS
 62
     7
100
AcDbLine
 10
107.0202108963199
 20
261.49500685345
 30
0.0
 11
102.7702108963199
 21
261.49500685345
 31
0.0
  0
LINE
  5
317
330
18
100
AcDbEntity
  8
1
  6
CONTINUOUS
 62
     7
100
AcDbLine
 10
107.0202108963199
 20
257.24500685345
 30
0.0
 11
107.0202108963199
 21
261.49500685345
 31
0.0
  0
LINE
  5
318
330
18
100
AcDbEntity
  8
1
  6
CONTINUOUS
 62
     7
100
AcDbLine
 10
98.020210896318
 20
257.24500685345
 30
0.0
 11
98.020210896318
 21
261.49500685345
 31
0.0
  0
LINE
  5
319
330
18
100
AcDbEntity
  8
1
  6
CONTINUOUS
 62
     7
100
AcDbLine
 10
93.820210896318
 20
282.2551123016097
 30
0.0
 11
93.820210896318
 21
285.7551123016098
 31
0.0
  0
LINE
  5
31A
330
18
100
AcDbEntity
  8
1
  6
CONTINUOUS
 62
     7
100
AcDbLine
 10
93.820210896318
 20
285.7551123016098
 30
0.0
 11
83.220210896318
 21
285.7551123016098
 31
0.0
  0
LINE
  5
31B
330
18
100
AcDbEntity
  8
1
  6
CONTINUOUS
 62
     7
100
AcDbLine
 10
91.320210896318
 20
285.7551123016098
 30
0.0
 11
91.320210896318
 21
282.2551123016097
 31
0.0
  0
LINE
  5
31C
330
18
100
AcDbEntity
  8
1
  6
CONTINUOUS
 62
     7
100
AcDbLine
 10
85.720210896318
 20
285.7551123016098
 30
0.0
 11
85.720210896318
 21
282.2551123016097
 31
0.0
  0
LINE
  5
31D
330
18
100
AcDbEntity
  8
1
  6
CONTINUOUS
 62
     7
100
AcDbLine
 10
242.54530590495
 20
281.7551123016098
 30
0.0
 11
231.9453059049499
 21
281.7551123016098
 31
0.0
  0
LINE
  5
31E
330
18
100
AcDbEntity
  8
1
  6
CONTINUOUS
 62
     7
100
AcDbLine
 10
242.54530590495
 20
273.7551123016099
 30
0.0
 11
231.9453059049499
 21
273.7551123016099
 31
0.0
  0
LINE
  5
31F
330
18
100
AcDbEntity
  8
1
  6
CONTINUOUS
 62
     7
100
AcDbLine
 10
231.54530590495
 20
281.9551123016097
 30
0.0
 11
201.8619141641199
 21
281.9551123016097
 31
0.0
  0
LINE
  5
320
330
18
100
AcDbEntity
  8
1
  6
CONTINUOUS
 62
     7
100
AcDbLine
 10
231.54530590495
 20
281.9551123016097
 30
0.0
 11
231.9453059049499
 21
281.55511230161
 31
0.0
  0
LINE
  5
321
330
18
100
AcDbEntity
  8
1
  6
CONTINUOUS
 62
     7
100
AcDbLine
 10
231.54530590495
 20
273.55511230161
 30
0.0
 11
201.8619141641199
 21
273.55511230161
 31
0.0
  0
LINE
  5
322
330
18
100
AcDbEntity
  8
1
  6
CONTINUOUS
 62
     7
100
AcDbLine
 10
231.54530590495
 20
273.55511230161
 30
0.0
 11
231.9453059049499
 21
273.9551123016099
 31
0.0
  0
LINE
  5
323
330
18
100
AcDbEntity
  8
1
  6
CONTINUOUS
 62
     7
100
AcDbLine
 10
231.9453059049499
 20
281.55511230161
 30
0.0
 11
231.9453059049499
 21
273.9551123016099
 31
0.0
  0
LINE
  5
324
330
18
100
AcDbEntity
  8
1
  6
CONTINUOUS
 62
     7
100
AcDbLine
 10
242.54530590495
 20
273.2551123016099
 30
0.0
 11
250.54530590495
 21
273.2551123016099
 31
0.0
  0
LINE
  5
325
330
18
100
AcDbEntity
  8
1
  6
CONTINUOUS
 62
     7
100
AcDbLine
 10
250.54530590495
 20
282.2551123016097
 30
0.0
 11
242.54530590495
 21
282.2551123016097
 31
0.0
  0
LINE
  5
326
330
18
100
AcDbEntity
  8
1
  6
CONTINUOUS
 62
     7
100
AcDbLine
 10
235.0453059049498
 20
285.7551123016098
 30
0.0
 11
235.0453059049498
 21
281.7551123016098
 31
0.0
  0
LINE
  5
327
330
18
100
AcDbEntity
  8
1
  6
CONTINUOUS
 62
     7
100
AcDbLine
 10
98.020210896318
 20
273.7551123016099
 30
0.0
 11
98.020210896318
 21
281.7551123016098
 31
0.0
  0
LINE
  5
328
330
18
100
AcDbEntity
  8
1
  6
CONTINUOUS
 62
     7
100
AcDbLine
 10
79.02021089631799
 20
281.7551123016098
 30
0.0
 11
79.02021089631799
 21
273.7551123016099
 31
0.0
  0
LINE
  5
329
330
18
100
AcDbEntity
  8
1
  6
CONTINUOUS
 62
     7
100
AcDbLine
 10
98.020210896318
 20
281.7551123016098
 30
0.0
 11
79.02021089631799
 21
281.7551123016098
 31
0.0
  0
LINE
  5
32A
330
18
100
AcDbEntity
  8
1
  6
CONTINUOUS
 62
     7
100
AcDbLine
 10
80.12021089631799
 20
280.8051123016099
 30
0.0
 11
80.12021089631799
 21
278.5051123016099
 31
0.0
  0
LINE
  5
32B
330
18
100
AcDbEntity
  8
1
  6
CONTINUOUS
 62
     7
100
AcDbLine
 10
80.12021089631799
 20
277.00511230161
 30
0.0
 11
80.12021089631799
 21
274.7051123016098
 31
0.0
  0
LINE
  5
32C
330
18
100
AcDbEntity
  8
1
  6
CONTINUOUS
 62
     7
100
AcDbLine
 10
82.52021089631799
 20
280.8051123016099
 30
0.0
 11
82.52021089631799
 21
278.5051123016099
 31
0.0
  0
LINE
  5
32D
330
18
100
AcDbEntity
  8
1
  6
CONTINUOUS
 62
     7
100
AcDbLine
 10
94.52021089631799
 20
280.8051123016099
 30
0.0
 11
94.52021089631799
 21
278.5051123016099
 31
0.0
  0
LINE
  5
32E
330
18
100
AcDbEntity
  8
1
  6
CONTINUOUS
 62
     7
100
AcDbLine
 10
96.92021089631801
 20
280.8051123016099
 30
0.0
 11
96.92021089631801
 21
278.5051123016099
 31
0.0
  0
LINE
  5
32F
330
18
100
AcDbEntity
  8
1
  6
CONTINUOUS
 62
     7
100
AcDbLine
 10
96.92021089631801
 20
274.7051123016098
 30
0.0
 11
96.92021089631801
 21
277.00511230161
 31
0.0
  0
LINE
  5
330
330
18
100
AcDbEntity
  8
1
  6
CONTINUOUS
 62
     7
100
AcDbLine
 10
94.52021089631799
 20
277.00511230161
 30
0.0
 11
94.52021089631799
 21
274.7051123016098
 31
0.0
  0
LINE
  5
331
330
18
100
AcDbEntity
  8
1
  6
CONTINUOUS
 62
     7
100
AcDbLine
 10
82.52021089631799
 20
277.00511230161
 30
0.0
 11
82.52021089631799
 21
274.7051123016098
 31
0.0
  0
LINE
  5
332
330
18
100
AcDbEntity
  8
1
  6
CONTINUOUS
 62
     7
100
AcDbLine
 10
102.7702108963199
 20
261.49500685345
 30
0.0
 11
98.020210896318
 21
261.49500685345
 31
0.0
  0
LINE
  5
333
330
18
100
AcDbEntity
  8
1
  6
CONTINUOUS
 62
     7
100
AcDbLine
 10
98.020210896318
 20
257.24500685345
 30
0.0
 11
98.020210896318
 21
252.49500685345
 31
0.0
  0
LINE
  5
334
330
18
100
AcDbEntity
  8
1
  6
CONTINUOUS
 62
     7
100
AcDbLine
 10
107.0202108963199
 20
252.49500685345
 30
0.0
 11
107.0202108963199
 21
257.24500685345
 31
0.0
  0
ARC
  5
335
330
18
100
AcDbEntity
  8
1
  6
CONTINUOUS
 62
     7
100
AcDbCircle
 10
102.5202108963199
 20
256.99500685345
 30
0.0
 40
2.85
100
AcDbArc
 50
0.0
 51
180.0
  0
LINE
  5
336
330
18
100
AcDbEntity
  8
1
  6
CONTINUOUS
 62
     7
100
AcDbLine
 10
77.52021089631799
 20
273.2551123016099
 30
0.0
 11
84.32021089631801
 21
273.2551123016099
 31
0.0
  0
LINE
  5
337
330
18
100
AcDbEntity
  8
1
  6
CONTINUOUS
 62
     7
100
AcDbLine
 10
92.72021089631799
 20
273.2551123016099
 30
0.0
 11
99.52021089631799
 21
273.2551123016099
 31
0.0
  0
LINE
  5
338
330
18
100
AcDbEntity
  8
1
  6
CONTINUOUS
 62
     7
100
AcDbLine
 10
79.02021089631799
 20
273.7551123016099
 30
0.0
 11
84.315451687992
 21
273.7551123016099
 31
0.0
  0
LINE
  5
339
330
18
100
AcDbEntity
  8
1
  6
CONTINUOUS
 62
     7
100
AcDbLine
 10
92.72497010464398
 20
273.7551123016099
 30
0.0
 11
98.020210896318
 21
273.7551123016099
 31
0.0
  0
LINE
  5
33A
330
18
100
AcDbEntity
  8
1
  6
CONTINUOUS
 62
     7
100
AcDbLine
 10
96.92021089631801
 20
274.7051123016098
 30
0.0
 11
92.56724684871599
 21
274.7051123016098
 31
0.0
  0
LINE
  5
33B
330
18
100
AcDbEntity
  8
1
  6
CONTINUOUS
 62
     7
100
AcDbLine
 10
84.47317494392001
 20
274.7051123016098
 30
0.0
 11
80.12021089631799
 21
274.7051123016098
 31
0.0
  0
ARC
  5
33C
330
18
100
AcDbEntity
  8
1
  6
CONTINUOUS
 62
     7
100
AcDbCircle
 10
88.52021089631797
 20
277.54511230162
 30
0.0
 40
4.209999999999999
100
AcDbArc
 50
356.05013197817
 51
183.94986802183
  0
LINE
  5
33D
330
18
100
AcDbEntity
  8
1
  6
CONTINUOUS
 62
     7
100
AcDbLine
 10
80.12021089631799
 20
277.00511230161
 30
0.0
 11
84.32021089631801
 21
277.00511230161
 31
0.0
  0
LINE
  5
33E
330
18
100
AcDbEntity
  8
1
  6
CONTINUOUS
 62
     7
100
AcDbLine
 10
92.72021089631799
 20
277.00511230161
 30
0.0
 11
96.92021089631801
 21
277.00511230161
 31
0.0
  0
LINE
  5
33F
330
18
100
AcDbEntity
  8
1
  6
CONTINUOUS
 62
     7
100
AcDbLine
 10
84.920210896318
 20
280.8051123016099
 30
0.0
 11
84.920210896318
 21
279.72779413825
 31
0.0
  0
LINE
  5
340
330
18
100
AcDbEntity
  8
1
  6
CONTINUOUS
 62
     7
100
AcDbLine
 10
92.120210896318
 20
280.8051123016099
 30
0.0
 11
92.120210896318
 21
279.72779413825
 31
0.0
  0
LINE
  5
341
330
18
100
AcDbEntity
  8
1
  6
CONTINUOUS
 62
     7
100
AcDbLine
 10
80.12021089631799
 20
280.8051123016099
 30
0.0
 11
85.85628522167899
 21
280.8051123016099
 31
0.0
  0
LINE
  5
342
330
18
100
AcDbEntity
  8
1
  6
CONTINUOUS
 62
     7
100
AcDbLine
 10
91.18413657095699
 20
280.8051123016099
 30
0.0
 11
96.92021089631801
 21
280.8051123016099
 31
0.0
  0
LINE
  5
343
330
18
100
AcDbEntity
  8
1
  6
CONTINUOUS
 62
     7
100
AcDbLine
 10
80.12021089631799
 20
278.5051123016099
 30
0.0
 11
84.42112563250601
 21
278.5051123016099
 31
0.0
  0
LINE
  5
344
330
18
100
AcDbEntity
  8
1
  6
CONTINUOUS
 62
     7
100
AcDbLine
 10
92.61929616013
 20
278.5051123016099
 30
0.0
 11
96.92021089631801
 21
278.5051123016099
 31
0.0
  0
LINE
  5
345
330
18
100
AcDbEntity
  8
1
  6
CONTINUOUS
 62
     7
100
AcDbLine
 10
98.020210896318
 20
256.99500685345
 30
0.0
 11
99.67021089631799
 21
256.99500685345
 31
0.0
  0
LINE
  5
346
330
18
100
AcDbEntity
  8
1
  6
CONTINUOUS
 62
     7
100
AcDbLine
 10
105.37021089632
 20
256.99500685345
 30
0.0
 11
107.0202108963199
 21
256.99500685345
 31
0.0
  0
LINE
  5
347
330
18
100
AcDbEntity
  8
1
  6
CONTINUOUS
 62
     7
100
AcDbLine
 10
102.5202108963199
 20
261.49500685345
 30
0.0
 11
102.5202108963199
 21
259.84500685345
 31
0.0
  0
LINE
  5
348
330
18
100
AcDbEntity
  8
1
  6
CONTINUOUS
 62
     7
100
AcDbLine
 10
109.52021089632
 20
260.39500685345
 30
0.0
 11
109.52021089632
 21
253.59500685345
 31
0.0
  0
LINE
  5
349
330
18
100
AcDbEntity
  8
1
  6
CONTINUOUS
 62
     7
100
AcDbLine
 10
95.52021089631798
 20
260.39500685345
 30
0.0
 11
95.52021089631798
 21
253.59500685345
 31
0.0
  0
LINE
  5
34A
330
18
100
AcDbEntity
  8
1
  6
CONTINUOUS
 62
     7
100
AcDbLine
 10
97.52021089631799
 20
251.9950068534499
 30
0.0
 11
97.52021089631799
 21
253.59500685345
 31
0.0
  0
LINE
  5
34B
330
18
100
AcDbEntity
  8
1
  6
CONTINUOUS
 62
     7
100
AcDbLine
 10
97.52021089631799
 20
260.39500685345
 30
0.0
 11
97.52021089631799
 21
261.99500685345
 31
0.0
  0
LINE
  5
34C
330
18
100
AcDbEntity
  8
1
  6
CONTINUOUS
 62
     7
100
AcDbLine
 10
107.52021089632
 20
251.9950068534499
 30
0.0
 11
107.52021089632
 21
253.59500685345
 31
0.0
  0
LINE
  5
34D
330
18
100
AcDbEntity
  8
1
  6
CONTINUOUS
 62
     7
100
AcDbLine
 10
107.52021089632
 20
260.39500685345
 30
0.0
 11
107.52021089632
 21
261.99500685345
 31
0.0
  0
LINE
  5
34E
330
18
100
AcDbEntity
  8
1
  6
CONTINUOUS
 62
     7
100
AcDbLine
 10
105.37021089632
 20
252.49500685345
 30
0.0
 11
107.0202108963199
 21
252.49500685345
 31
0.0
  0
LINE
  5
34F
330
18
100
AcDbEntity
  8
1
  6
CONTINUOUS
 62
     7
100
AcDbLine
 10
98.020210896318
 20
252.49500685345
 30
0.0
 11
99.67021089631799
 21
252.49500685345
 31
0.0
  0
LINE
  5
350
330
18
100
AcDbEntity
  8
1
  6
CONTINUOUS
 62
     7
100
AcDbLine
 10
107.52021089632
 20
251.9950068534499
 30
0.0
 11
105.37021089632
 21
251.9950068534499
 31
0.0
  0
LINE
  5
351
330
18
100
AcDbEntity
  8
1
  6
CONTINUOUS
 62
     7
100
AcDbLine
 10
99.67021089631799
 20
251.9950068534499
 30
0.0
 11
97.52021089631799
 21
251.9950068534499
 31
0.0
  0
ARC
  5
352
330
18
100
AcDbEntity
  8
1
  6
CONTINUOUS
 62
     7
100
AcDbCircle
 10
90.620210896318
 20
258.55776261898
 30
0.0
 40
3.0450000000001
100
AcDbArc
 50
46.397181027298
 51
133.6028189726997
  0
ARC
  5
353
330
18
100
AcDbEntity
  8
1
  6
CONTINUOUS
 62
     7
100
AcDbCircle
 10
86.420210896318
 20
262.9677626189799
 30
0.0
 40
3.0450000000001
100
AcDbArc
 50
226.3971810272999
 51
313.6028189727098
  0
ARC
  5
354
330
18
100
AcDbEntity
  8
1
  6
CONTINUOUS
 62
     7
100
AcDbCircle
 10
90.620210896318
 20
262.9677626189799
 30
0.0
 40
3.0450000000001
100
AcDbArc
 50
226.3971810272999
 51
313.6028189727098
  0
ARC
  5
355
330
18
100
AcDbEntity
  8
1
  6
CONTINUOUS
 62
     7
100
AcDbCircle
 10
86.420210896318
 20
259.20000685345
 30
0.0
 40
3.0450000000001
100
AcDbArc
 50
226.3971810272999
 51
313.6028189726999
  0
ARC
  5
356
330
18
100
AcDbEntity
  8
1
  6
CONTINUOUS
 62
     7
100
AcDbCircle
 10
90.620210896317
 20
254.79000685345
 30
0.0
 40
3.0450000000001
100
AcDbArc
 50
46.39718102728799
 51
133.6028189726798
  0
ARC
  5
357
330
18
100
AcDbEntity
  8
1
  6
CONTINUOUS
 62
     7
100
AcDbCircle
 10
86.420210896318
 20
254.79000685345
 30
0.0
 40
3.0450000000001
100
AcDbArc
 50
46.397181027298
 51
133.60281897271
  0
ARC
  5
358
330
18
100
AcDbEntity
  8
1
  6
CONTINUOUS
 62
     7
100
AcDbCircle
 10
103.94521089632
 20
233.59340189842
 30
0.0
 40
2.0662500000001
100
AcDbArc
 50
46.397181027298
 51
133.6028189726997
  0
ARC
  5
359
330
18
100
AcDbEntity
  8
1
  6
CONTINUOUS
 62
     7
100
AcDbCircle
 10
101.09521089632
 20
236.58590189842
 30
0.0
 40
2.0662500000001
100
AcDbArc
 50
226.3971810272999
 51
313.60281897272
  0
ARC
  5
35A
330
18
100
AcDbEntity
  8
1
  6
CONTINUOUS
 62
     7
100
AcDbCircle
 10
103.94521089632
 20
236.58590189842
 30
0.0
 40
2.0662500000001
100
AcDbArc
 50
226.3971810272999
 51
313.6028189726999
  0
ARC
  5
35B
330
18
100
AcDbEntity
  8
1
  6
CONTINUOUS
 62
     7
100
AcDbCircle
 10
101.09521089632
 20
233.18344144147
 30
0.0
 40
2.0662500000001
100
AcDbArc
 50
226.3971810272999
 51
313.6028189726999
  0
ARC
  5
35C
330
18
100
AcDbEntity
  8
1
  6
CONTINUOUS
 62
     7
100
AcDbCircle
 10
103.94521089632
 20
230.19094144147
 30
0.0
 40
2.0662500000001
100
AcDbArc
 50
46.397181027309
 51
133.6028189727197
  0
ARC
  5
35D
330
18
100
AcDbEntity
  8
1
  6
CONTINUOUS
 62
     7
100
AcDbCircle
 10
101.09521089632
 20
230.19094144147
 30
0.0
 40
2.0662500000001
100
AcDbArc
 50
46.39718102729999
 51
133.6028189727499
  0
LINE
  5
35E
330
18
100
AcDbEntity
  8
1
  6
CONTINUOUS
 62
     7
100
AcDbLine
 10
84.32021089631801
 20
224.8963119371
 30
0.0
 11
84.32021089631801
 21
256.99500685345
 31
0.0
  0
LINE
  5
35F
330
18
100
AcDbEntity
  8
1
  6
CONTINUOUS
 62
     7
100
AcDbLine
 10
84.32021089631801
 20
260.7627626189799
 30
0.0
 11
84.32021089631801
 21
277.2551123016099
 31
0.0
  0
LINE
  5
360
330
18
100
AcDbEntity
  8
1
  6
CONTINUOUS
 62
     7
100
AcDbLine
 10
92.72021089631799
 20
224.8963119371
 30
0.0
 11
92.72021089631799
 21
256.99500685345
 31
0.0
  0
LINE
  5
361
330
18
100
AcDbEntity
  8
1
  6
CONTINUOUS
 62
     7
100
AcDbLine
 10
92.72021089631799
 20
260.7627626189799
 30
0.0
 11
92.72021089631799
 21
277.2551123016099
 31
0.0
  0
LINE
  5
362
330
18
100
AcDbEntity
  8
1
  6
CONTINUOUS
 62
     7
100
AcDbLine
 10
99.67021089631799
 20
256.99500685345
 30
0.0
 11
99.67021089631799
 21
235.08965189842
 31
0.0
  0
LINE
  5
363
330
18
100
AcDbEntity
  8
1
  6
CONTINUOUS
 62
     7
100
AcDbLine
 10
99.67021089631799
 20
231.68719144147
 30
0.0
 11
99.67021089631799
 21
224.8963119371
 31
0.0
  0
LINE
  5
364
330
18
100
AcDbEntity
  8
1
  6
CONTINUOUS
 62
     7
100
AcDbLine
 10
105.37021089632
 20
256.99500685345
 30
0.0
 11
105.37021089632
 21
235.08965189842
 31
0.0
  0
LINE
  5
365
330
18
100
AcDbEntity
  8
1
  6
CONTINUOUS
 62
     7
100
AcDbLine
 10
105.37021089632
 20
231.68719144147
 30
0.0
 11
105.37021089632
 21
224.8963119371
 31
0.0
  0
LINE
  5
366
330
18
100
AcDbEntity
  8
1
  6
CONTINUOUS
 62
     7
100
AcDbLine
 10
83.220210896318
 20
285.7551123016098
 30
0.0
 11
83.220210896318
 21
281.7551123016098
 31
0.0
  0
LINE
  5
367
330
18
100
AcDbEntity
  8
1
  6
CONTINUOUS
 62
     7
100
AcDbLine
 10
84.720210896318
 20
285.7551123016098
 30
0.0
 11
84.720210896318
 21
281.7551123016098
 31
0.0
  0
LINE
  5
368
330
18
100
AcDbEntity
  8
1
  6
CONTINUOUS
 62
     7
100
AcDbLine
 10
87.19306125105697
 20
282.2551123016097
 30
0.0
 11
87.19306125105697
 21
281.5701571881998
 31
0.0
  0
LINE
  5
369
330
18
100
AcDbEntity
  8
1
  6
CONTINUOUS
 62
     7
100
AcDbLine
 10
89.736314521902
 20
282.2551123016097
 30
0.0
 11
89.736314521902
 21
281.57019969395
 31
0.0
  0
LINE
  5
36A
330
18
100
AcDbEntity
  8
1
  6
CONTINUOUS
 62
     7
100
AcDbLine
 10
83.220210896318
 20
282.2551123016097
 30
0.0
 11
77.52021089631799
 21
282.2551123016097
 31
0.0
  0
LINE
  5
36B
330
18
100
AcDbEntity
  8
1
  6
CONTINUOUS
 62
     7
100
AcDbLine
 10
99.52021089631799
 20
282.2551123016097
 30
0.0
 11
93.820210896318
 21
282.2551123016097
 31
0.0
  0
LINE
  5
36C
330
18
100
AcDbEntity
  8
1
  6
CONTINUOUS
 62
     7
100
AcDbLine
 10
91.320210896318
 20
282.2551123016097
 30
0.0
 11
85.720210896318
 21
282.2551123016097
 31
0.0
  0
LINE
  5
36D
330
18
100
AcDbEntity
  8
1
  6
CONTINUOUS
 62
     7
100
AcDbLine
 10
92.320210896318
 20
285.7551123016098
 30
0.0
 11
92.320210896318
 21
281.7551123016098
 31
0.0
  0
TEXT
  5
36E
330
18
100
AcDbEntity
  8
1
 62
     3
100
AcDbText
 10
205.6060217662898
 20
239.6050034542299
 30
0.0
 40
6.0
  1
ケ－ブル長さ　２００
 41
0.83333333333333
100
AcDbText
  0
LINE
  5
36F
330
18
100
AcDbEntity
  8
1
  6
DASHDOT
 62
     1
100
AcDbLine
 10
455.91652206994
 20
163.97932767445
 30
0.0
 11
455.91652206994
 21
154.8963119371
 31
0.0
  0
LINE
  5
370
330
18
100
AcDbEntity
  8
1
  6
DASHDOT
 62
     1
100
AcDbLine
 10
452.24318352929
 20
159.8963119370999
 30
0.0
 11
460.31525722617
 21
159.8963119370999
 31
0.0
  0
LINE
  5
371
330
18
100
AcDbEntity
  8
1
  6
DASHDOT
 62
     1
100
AcDbLine
 10
448.5671111476
 20
176.8963119371
 30
0.0
 11
496.63411195039
 21
176.8963119371
 31
0.0
  0
LINE
  5
372
330
18
100
AcDbEntity
  8
1
  6
DASHDOT
 62
     1
100
AcDbLine
 10
472.91652206994
 20
207.7957588791998
 30
0.0
 11
472.91652206994
 21
152.6740813033
 31
0.0
  0
LINE
  5
373
330
18
100
AcDbEntity
  8
1
  6
DASHDOT
 62
     1
100
AcDbLine
 10
452.24318352929
 20
193.8963119370999
 30
0.0
 11
460.31525722617
 21
193.8963119370999
 31
0.0
  0
LINE
  5
374
330
18
100
AcDbEntity
  8
1
  6
DASHDOT
 62
     1
100
AcDbLine
 10
455.91652206994
 20
197.9793276744499
 30
0.0
 11
455.91652206994
 21
188.8963119370997
 31
0.0
  0
LINE
  5
375
330
18
100
AcDbEntity
  8
1
  6
DASHDOT
 62
     1
100
AcDbLine
 10
486.24318352929
 20
193.8963119370999
 30
0.0
 11
494.31525722617
 21
193.8963119370999
 31
0.0
  0
LINE
  5
376
330
18
100
AcDbEntity
  8
1
  6
DASHDOT
 62
     1
100
AcDbLine
 10
489.91652206994
 20
197.9793276744499
 30
0.0
 11
489.91652206994
 21
188.8963119370997
 31
0.0
  0
LINE
  5
377
330
18
100
AcDbEntity
  8
1
  6
DASHDOT
 62
     1
100
AcDbLine
 10
489.91652206994
 20
163.97932767445
 30
0.0
 11
489.91652206994
 21
154.8963119371
 31
0.0
  0
LINE
  5
378
330
18
100
AcDbEntity
  8
1
  6
DASHDOT
 62
     1
100
AcDbLine
 10
486.24318352929
 20
159.8963119370999
 30
0.0
 11
494.31525722617
 21
159.8963119370999
 31
0.0
  0
LINE
  5
379
330
18
100
AcDbEntity
  8
1
  6
DASHDOT
 62
     1
100
AcDbLine
 10
95.52021089630899
 20
242.3433228063
 30
0.0
 11
95.52021089630899
 21
146.75457060946
 31
0.0
  0
LINE
  5
37A
330
18
100
AcDbEntity
  8
1
  6
DASHDOT
 62
     1
100
AcDbLine
 10
70.02463637168
 20
176.8963119371
 30
0.0
 11
120.9834334816199
 21
176.8963119371
 31
0.0
  0
LINE
  5
37B
330
18
100
AcDbEntity
  8
1
  6
DASHDOT
 62
     1
100
AcDbLine
 10
99.765741622287
 20
159.8963119370999
 30
0.0
 11
91.55675089040501
 21
159.8963119370999
 31
0.0
  0
LINE
  5
37C
330
18
100
AcDbEntity
  8
1
  6
DASHDOT
 62
     1
100
AcDbLine
 10
88.52021089631797
 20
222.8963119371
 30
0.0
 11
88.52021089631797
 21
287.36715819832
 31
0.0
  0
LINE
  5
37D
330
18
100
AcDbEntity
  8
1
  6
DASHDOT
 62
     1
100
AcDbLine
 10
102.5202108963199
 20
266.23709824185
 30
0.0
 11
102.5202108963199
 21
222.8963119371
 31
0.0
  0
LINE
  5
37E
330
18
100
AcDbEntity
  8
1
  6
DASHDOT
 62
     1
100
AcDbLine
 10
88.520210896309
 20
219.4085744436998
 30
0.0
 11
88.520210896309
 21
226.76496943792
 31
0.0
  0
LINE
  5
37F
330
18
100
AcDbEntity
  8
1
  6
DASHDOT
 62
     1
100
AcDbLine
 10
102.52021089631
 20
219.11696473205
 30
0.0
 11
102.52021089631
 21
226.8135710565299
 31
0.0
  0
LINE
  5
380
330
18
100
AcDbEntity
  8
1
  6
DASHDOT
 62
     1
100
AcDbLine
 10
248.54530590495
 20
161.3963119371
 30
0.0
 11
258.48172347446
 21
161.3963119371
 31
0.0
  0
LINE
  5
381
330
18
100
AcDbEntity
  8
1
  6
DASHDOT
 62
     1
100
AcDbLine
 10
186.8619141641199
 20
221.4567818973899
 30
0.0
 11
186.90199883796
 21
258.0532505365999
 31
0.0
  0
LINE
  5
382
330
18
100
AcDbEntity
  8
1
  6
DASHDOT
 62
     1
100
AcDbLine
 10
201.88441899503
 20
256.99500685345
 30
0.0
 11
252.41798702192
 21
256.99500685345
 31
0.0
  0
LINE
  5
383
330
18
100
AcDbEntity
  8
1
  6
DASHDOT
 62
     1
100
AcDbLine
 10
201.90715785719
 20
277.7551123016099
 30
0.0
 11
252.91007841032
 21
277.7551123016099
 31
0.0
  0
ARC
  5
384
330
18
100
AcDbEntity
  8
1
  6
DASHDOT
 62
     1
100
AcDbCircle
 10
201.90715785719
 20
262.7551123016099
 30
0.0
 40
15.0
100
AcDbArc
 50
90.0
 51
179.93724307833
  0
ARC
  5
385
330
18
100
AcDbEntity
  8
1
  6
DASHDOT
 62
     1
100
AcDbCircle
 10
201.88441899503
 20
241.99500685345
 30
0.0
 40
15.0
100
AcDbArc
 50
90.0
 51
179.93724307833
  0
LINE
  5
386
330
18
100
AcDbEntity
  8
1
  6
DASHDOT
 62
     1
100
AcDbLine
 10
79.139727091471
 20
219.3963119370998
 30
0.0
 11
74.95440523825202
 21
219.3963119370998
 31
0.0
  0
LINE
  5
387
330
18
100
AcDbEntity
  8
1
  6
DASHDOT
 62
     1
100
AcDbLine
 10
77.02021089630901
 20
221.40664682662
 30
0.0
 11
77.02021089630901
 21
217.2213249733999
 31
0.0
  0
LINE
  5
388
330
18
100
AcDbEntity
  8
1
  6
DASHDOT
 62
     1
100
AcDbLine
 10
111.90069470115
 20
219.3963119370998
 30
0.0
 11
116.08601655437
 21
219.3963119370998
 31
0.0
  0
LINE
  5
389
330
18
100
AcDbEntity
  8
1
  6
DASHDOT
 62
     1
100
AcDbLine
 10
114.02021089631
 20
221.40664682662
 30
0.0
 11
114.02021089631
 21
217.2213249733999
 31
0.0
  0
LINE
  5
38A
330
18
100
AcDbEntity
  8
1
  6
DASHDOT
 62
     1
100
AcDbLine
 10
116.13972709147
 20
219.3963119370998
 30
0.0
 11
111.9544052382499
 21
219.3963119370998
 31
0.0
  0
LINE
  5
38B
330
18
100
AcDbEntity
  8
254
  6
CONTINUOUS
 62
     3
100
AcDbLine
 10
437.80852049832
 20
78.00381179999998
 30
0.0
 11
437.80852049832
 21
83.25381179999999
 31
0.0
  0
LINE
  5
38C
330
18
100
AcDbEntity
  8
254
  6
CONTINUOUS
 62
     3
100
AcDbLine
 10
450.55852049832
 20
76.12881179999998
 30
0.0
 11
437.80852049832
 21
78.00381179999998
 31
0.0
  0
LINE
  5
38D
330
18
100
AcDbEntity
  8
254
  6
DASHDOT
 62
     3
100
AcDbLine
 10
436.14001180382
 20
80.62881179999996
 30
0.0
 11
452.67393136547
 21
80.62881179999996
 31
0.0
  0
LINE
  5
38E
330
18
100
AcDbEntity
  8
254
  6
CONTINUOUS
 62
     3
100
AcDbLine
 10
437.80852049832
 20
83.25381179999999
 30
0.0
 11
450.55852049832
 21
85.12881179999999
 31
0.0
  0
LINE
  5
38F
330
18
100
AcDbEntity
  8
254
  6
DASHDOT
 62
     3
100
AcDbLine
 10
428.65852049888
 20
86.69931194688897
 30
0.0
 11
428.65852049888
 21
74.55831165293701
 31
0.0
  0
LINE
  5
390
330
18
100
AcDbEntity
  8
254
  6
DASHDOT
 62
     3
100
AcDbLine
 10
422.58802035042
 20
80.62881179999996
 30
0.0
 11
434.72902065014
 21
80.62881179999996
 31
0.0
  0
CIRCLE
  5
391
330
18
100
AcDbEntity
  8
254
  6
CONTINUOUS
 62
     3
100
AcDbCircle
 10
428.65852049888
 20
80.62881179999996
 30
0.0
 40
4.5
  0
CIRCLE
  5
392
330
18
100
AcDbEntity
  8
254
  6
CONTINUOUS
 62
     3
100
AcDbCircle
 10
428.65852049888
 20
80.62881179999996
 30
0.0
 40
2.625
  0
TEXT
  5
393
330
18
100
AcDbEntity
  8
254
 62
     3
100
AcDbText
 10
312.07327420321
 20
74.49811041595899
 30
0.0
 40
3.75
  1
REMARKS
 41
0.45
100
AcDbText
  0
TEXT
  5
394
330
18
100
AcDbEntity
  8
254
 62
     3
100
AcDbText
 10
312.07327420321
 20
65.57244384448001
 30
0.0
 40
4.5
  1
PARTS CODE
 41
0.45
100
AcDbText
  0
TEXT
  5
395
330
18
100
AcDbEntity
  8
254
 62
     3
100
AcDbText
 10
438.1085204999997
 20
15.3788118
 30
0.0
 40
5.25
  1
図面番号
 41
1.08
100
AcDbText
  0
TEXT
  5
396
330
18
100
AcDbEntity
  8
254
 62
     3
100
AcDbText
 10
368.90653440041
 20
41.418950450977
 30
0.0
 40
7.5
  1
~
 41
0.45
100
AcDbText
  0
TEXT
  5
397
330
18
100
AcDbEntity
  8
254
 62
     3
100
AcDbText
 10
208.6938587388098
 20
15.0038118
 30
0.0
 40
3.75
  1
JIS B 0419-K
 41
0.45
 72
     1
 11
217.1594837388098
 21
16.8788118
 31
0.0
100
AcDbText
 73
     2
  0
TEXT
  5
398
330
18
100
AcDbEntity
  8
254
 62
     3
100
AcDbText
 10
208.5532337388098
 20
21.0038118
 30
0.0
 40
3.75
  1
JIS B 0408-B
 41
0.45
 72
     1
 11
217.1594837388098
 21
22.8788118
 31
0.0
100
AcDbText
 73
     2
  0
TEXT
  5
399
330
18
100
AcDbEntity
  8
254
 62
     3
100
AcDbText
 10
208.5532337388098
 20
27.0038118
 30
0.0
 40
3.75
  1
JIS B 0405-m
 41
0.45
 72
     1
 11
217.1594837388098
 21
28.8788118
 31
0.0
100
AcDbText
 73
     2
  0
TEXT
  5
39A
330
18
100
AcDbEntity
  8
254
 62
     3
100
AcDbText
 10
188.27654585858
 20
35.004920380444
 30
0.0
 40
4.5
  1
 下記規格を適用する
 41
0.9
 11
188.27654585858
 21
37.254920380444
 31
0.0
100
AcDbText
 73
     2
  0
TEXT
  5
39B
330
18
100
AcDbEntity
  8
254
 62
     3
100
AcDbText
 10
192.07716656906
 20
41.62881179999998
 30
0.0
 40
4.5
  1
指定なき普通公差は
 41
0.9
100
AcDbText
  0
TEXT
  5
39C
330
18
100
AcDbEntity
  8
254
 62
     3
100
AcDbText
 10
253.92358468437
 20
51.019788653902
 30
0.0
 40
3.75
  1
0.5
 41
0.45
 72
     1
 11
255.47045968437
 21
51.019788653902
 31
0.0
100
AcDbText
  0
TEXT
  5
39D
330
18
100
AcDbEntity
  8
254
 62
     3
100
AcDbText
 10
257.2124269954999
 20
44.666727457391
 30
0.0
 40
3.75
  1
3
 41
0.45
 72
     1
 11
257.7749269954999
 21
44.666727457391
 31
0.0
100
AcDbText
  0
TEXT
  5
39E
330
18
100
AcDbEntity
  8
254
 62
     3
100
AcDbText
 10
279.88227466551
 20
50.911189317025
 30
0.0
 40
3.75
  1
3
 41
0.45
 72
     1
 11
280.44477466551
 21
50.911189317025
 31
0.0
100
AcDbText
  0
TEXT
  5
39F
330
18
100
AcDbEntity
  8
254
 62
     3
100
AcDbText
 10
277.3672932449799
 20
44.93822579844599
 30
0.0
 40
3.75
  1
 6
 41
0.45
 72
     1
 11
278.9422932449799
 21
44.93822579844599
 31
0.0
100
AcDbText
  0
TEXT
  5
3A0
330
18
100
AcDbEntity
  8
254
 62
     3
100
AcDbText
 10
254.70231128932
 20
38.96526228004099
 30
0.0
 40
3.75
  1
 6
 41
0.45
 72
     1
 11
256.27731128932
 21
38.96526228004099
 31
0.0
100
AcDbText
  0
TEXT
  5
3A1
330
18
100
AcDbEntity
  8
254
 62
     3
100
AcDbText
 10
277.48748545499
 20
38.85666294298999
 30
0.0
 40
3.75
  1
30
 41
0.45
 72
     1
 11
278.75311045499
 21
38.85666294298999
 31
0.0
100
AcDbText
  0
TEXT
  5
3A2
330
18
100
AcDbEntity
  8
254
 62
     3
100
AcDbText
 10
254.8158021453899
 20
32.775100087535
 30
0.0
 40
3.75
  1
30
 41
0.45
 72
     1
 11
256.0814271453899
 21
32.775100087535
 31
0.0
100
AcDbText
  0
TEXT
  5
3A3
330
18
100
AcDbEntity
  8
254
 62
     3
100
AcDbText
 10
275.8627814386099
 20
32.883699424411
 30
0.0
 40
3.75
  1
120
 41
0.45
 72
     1
 11
277.6909064386099
 21
32.883699424411
 31
0.0
100
AcDbText
  0
TEXT
  5
3A4
330
18
100
AcDbEntity
  8
254
 62
     3
100
AcDbText
 10
260.3793653242399
 20
50.965488985551
 30
0.0
 40
3.75
  1
以上
 41
0.9
 72
     1
 11
263.97936532424
 21
50.965488985551
 31
0.0
100
AcDbText
  0
TEXT
  5
3A5
330
18
100
AcDbEntity
  8
254
 62
     3
100
AcDbText
 10
259.58627782577
 20
44.97080560053897
 30
0.0
 40
3.75
  1
を
 41
0.9
 72
     1
 11
261.04877782577
 21
44.97080560053897
 31
0.0
100
AcDbText
  0
TEXT
  5
3A6
330
18
100
AcDbEntity
  8
254
 62
     3
100
AcDbText
 10
262.29736057372
 20
44.88392612992099
 30
0.0
 40
3.75
  1
こ
 41
0.9
 72
     1
 11
263.87236057372
 21
44.88392612992099
 31
0.0
100
AcDbText
  0
TEXT
  5
3A7
330
18
100
AcDbEntity
  8
254
 62
     3
100
AcDbText
 10
265.0716147598
 20
44.870924802052
 30
0.0
 40
3.75
  1
え
 41
0.9
 72
     1
 11
266.6466147598
 21
44.870924802052
 31
0.0
100
AcDbText
  0
TEXT
  5
3A8
330
18
100
AcDbEntity
  8
254
 62
     3
100
AcDbText
 10
253.1379874345
 20
26.848941353927
 30
0.0
 40
3.75
  1
120
 41
0.45
 72
     1
 11
254.9661124345
 21
26.848941353927
 31
0.0
100
AcDbText
  0
TEXT
  5
3A9
330
18
100
AcDbEntity
  8
254
 62
     3
100
AcDbText
 10
282.67162607909
 20
51.080053638047
 30
0.0
 40
3.75
  1
以下
 41
0.9
 72
     1
 11
286.27162607909
 21
51.080053638047
 31
0.0
100
AcDbText
  0
TEXT
  5
3AA
330
18
100
AcDbEntity
  8
254
 62
     3
100
AcDbText
 10
282.67162607909
 20
45.07405144799
 30
0.0
 40
3.75
  1
以下
 41
0.9
 72
     1
 11
286.27162607909
 21
45.07405144799
 31
0.0
100
AcDbText
  0
TEXT
  5
3AB
330
18
100
AcDbEntity
  8
254
 62
     3
100
AcDbText
 10
282.67162607909
 20
39.068049257933
 30
0.0
 40
3.75
  1
以下
 41
0.9
 72
     1
 11
286.27162607909
 21
39.068049257933
 31
0.0
100
AcDbText
  0
TEXT
  5
3AC
330
18
100
AcDbEntity
  8
254
 62
     3
100
AcDbText
 10
282.67162607909
 20
33.06204706805
 30
0.0
 40
3.75
  1
以下
 41
0.9
 72
     1
 11
286.27162607909
 21
33.06204706805
 31
0.0
100
AcDbText
  0
TEXT
  5
3AD
330
18
100
AcDbEntity
  8
254
 62
     3
100
AcDbText
 10
282.67162607909
 20
27.056044876422
 30
0.0
 40
3.75
  1
以下
 41
0.9
 72
     1
 11
286.27162607909
 21
27.056044876422
 31
0.0
100
AcDbText
  0
TEXT
  5
3AE
330
18
100
AcDbEntity
  8
254
 62
     3
100
AcDbText
 10
275.6694314541398
 20
27.056044876422
 30
0.0
 40
3.75
  1
400
 41
0.45
 72
     1
 11
277.6381814541398
 21
27.056044876422
 31
0.0
100
AcDbText
  0
TEXT
  5
3AF
330
18
100
AcDbEntity
  8
254
 62
     3
100
AcDbText
 10
253.54548423023
 20
60.98638268998801
 30
0.0
 40
4.5
  1
呼び寸法の区分
 41
0.9
 72
     1
 11
270.01548423023
 21
60.98638268998801
 31
0.0
100
AcDbText
  0
TEXT
  5
3B0
330
18
100
AcDbEntity
  8
254
 62
     3
100
AcDbText
 10
296.67233200436
 20
57.493629667521
 30
0.0
 40
4.5
  1
中級
 41
0.9
 72
     1
 11
301.12733200436
 21
57.493629667521
 31
0.0
100
AcDbText
  0
TEXT
  5
3B1
330
18
100
AcDbEntity
  8
254
 62
     3
100
AcDbText
 10
294.22733200492
 20
65.47706514744501
 30
0.0
 40
4.5
  1
寸法差
 41
0.9
 72
     1
 11
300.97733200492
 21
65.47706514744501
 31
0.0
100
AcDbText
  0
TEXT
  5
3B2
330
18
100
AcDbEntity
  8
254
 62
     3
100
AcDbText
 10
252.17133149953
 20
74.717386465482
 30
0.0
 40
4.5
  1
普通寸法公差(削り加工)
 41
0.9
 72
     1
 11
278.49633149953
 21
74.717386465482
 31
0.0
100
AcDbText
  0
TEXT
  5
3B3
330
18
100
AcDbEntity
  8
254
 62
     3
100
AcDbText
 10
265.0716147598
 20
38.870924802052
 30
0.0
 40
3.75
  1
え
 41
0.9
 72
     1
 11
266.6466147598
 21
38.870924802052
 31
0.0
100
AcDbText
  0
TEXT
  5
3B4
330
18
100
AcDbEntity
  8
254
 62
     3
100
AcDbText
 10
262.29736057372
 20
38.883926129921
 30
0.0
 40
3.75
  1
こ
 41
0.9
 72
     1
 11
263.87236057372
 21
38.883926129921
 31
0.0
100
AcDbText
  0
TEXT
  5
3B5
330
18
100
AcDbEntity
  8
254
 62
     3
100
AcDbText
 10
259.58627782577
 20
38.97080560053899
 30
0.0
 40
3.75
  1
を
 41
0.9
 72
     1
 11
261.04877782577
 21
38.97080560053899
 31
0.0
100
AcDbText
  0
TEXT
  5
3B6
330
18
100
AcDbEntity
  8
254
 62
     3
100
AcDbText
 10
259.58627782577
 20
32.97080560053899
 30
0.0
 40
3.75
  1
を
 41
0.9
 72
     1
 11
261.04877782577
 21
32.97080560053899
 31
0.0
100
AcDbText
  0
TEXT
  5
3B7
330
18
100
AcDbEntity
  8
254
 62
     3
100
AcDbText
 10
262.29736057372
 20
32.883926129921
 30
0.0
 40
3.75
  1
こ
 41
0.9
 72
     1
 11
263.87236057372
 21
32.883926129921
 31
0.0
100
AcDbText
  0
TEXT
  5
3B8
330
18
100
AcDbEntity
  8
254
 62
     3
100
AcDbText
 10
265.0716147598
 20
32.870924802052
 30
0.0
 40
3.75
  1
え
 41
0.9
 72
     1
 11
266.6466147598
 21
32.870924802052
 31
0.0
100
AcDbText
  0
TEXT
  5
3B9
330
18
100
AcDbEntity
  8
254
 62
     3
100
AcDbText
 10
259.58627782577
 20
26.97080560053898
 30
0.0
 40
3.75
  1
を
 41
0.9
 72
     1
 11
261.04877782577
 21
26.97080560053898
 31
0.0
100
AcDbText
  0
TEXT
  5
3BA
330
18
100
AcDbEntity
  8
254
 62
     3
100
AcDbText
 10
262.29736057372
 20
26.883926129921
 30
0.0
 40
3.75
  1
こ
 41
0.9
 72
     1
 11
263.87236057372
 21
26.883926129921
 31
0.0
100
AcDbText
  0
TEXT
  5
3BB
330
18
100
AcDbEntity
  8
254
 62
     3
100
AcDbText
 10
265.0716147598
 20
26.870924802052
 30
0.0
 40
3.75
  1
え
 41
0.9
 72
     1
 11
266.6466147598
 21
26.870924802052
 31
0.0
100
AcDbText
  0
TEXT
  5
3BC
330
18
100
AcDbEntity
  8
254
 62
     3
100
AcDbText
 10
253.0048351330799
 20
20.84894135392699
 30
0.0
 40
3.75
  1
400
 41
0.45
 72
     1
 11
254.9735851330799
 21
20.84894135392699
 31
0.0
100
AcDbText
  0
TEXT
  5
3BD
330
18
100
AcDbEntity
  8
254
 62
     3
100
AcDbText
 10
262.29736057372
 20
20.88392612992098
 30
0.0
 40
3.75
  1
こ
 41
0.9
 72
     1
 11
263.87236057372
 21
20.88392612992098
 31
0.0
100
AcDbText
  0
TEXT
  5
3BE
330
18
100
AcDbEntity
  8
254
 62
     3
100
AcDbText
 10
273.53362096531
 20
21.05604487642199
 30
0.0
 40
3.75
  1
1000
 41
0.45
 72
     1
 11
275.92424596531
 21
21.05604487642199
 31
0.0
100
AcDbText
  0
TEXT
  5
3BF
330
18
100
AcDbEntity
  8
254
 62
     3
100
AcDbText
 10
259.58627782577
 20
20.97080560053897
 30
0.0
 40
3.75
  1
を
 41
0.9
 72
     1
 11
261.04877782577
 21
20.97080560053897
 31
0.0
100
AcDbText
  0
TEXT
  5
3C0
330
18
100
AcDbEntity
  8
254
 62
     3
100
AcDbText
 10
265.0716147598
 20
20.87092480205197
 30
0.0
 40
3.75
  1
え
 41
0.9
 72
     1
 11
266.6466147598
 21
20.87092480205197
 31
0.0
100
AcDbText
  0
TEXT
  5
3C1
330
18
100
AcDbEntity
  8
254
 62
     3
100
AcDbText
 10
282.67162607909
 20
21.05604487642199
 30
0.0
 40
3.75
  1
以下
 41
0.9
 72
     1
 11
286.27162607909
 21
21.05604487642199
 31
0.0
100
AcDbText
  0
TEXT
  5
3C2
330
18
100
AcDbEntity
  8
254
 62
     3
100
AcDbText
 10
282.67162607909
 20
15.056044876422
 30
0.0
 40
3.75
  1
以下
 41
0.9
 72
     1
 11
286.27162607909
 21
15.056044876422
 31
0.0
100
AcDbText
  0
TEXT
  5
3C3
330
18
100
AcDbEntity
  8
254
 62
     3
100
AcDbText
 10
265.0716147598
 20
14.870924802052
 30
0.0
 40
3.75
  1
え
 41
0.9
 72
     1
 11
266.6466147598
 21
14.870924802052
 31
0.0
100
AcDbText
  0
TEXT
  5
3C4
330
18
100
AcDbEntity
  8
254
 62
     3
100
AcDbText
 10
259.58627782577
 20
14.970805600539
 30
0.0
 40
3.75
  1
を
 41
0.9
 72
     1
 11
261.04877782577
 21
14.970805600539
 31
0.0
100
AcDbText
  0
TEXT
  5
3C5
330
18
100
AcDbEntity
  8
254
 62
     3
100
AcDbText
 10
272.6875701300897
 20
15.056044876422
 30
0.0
 40
3.75
  1
2000
 41
0.45
 72
     1
 11
275.3594451300898
 21
15.056044876422
 31
0.0
100
AcDbText
  0
TEXT
  5
3C6
330
18
100
AcDbEntity
  8
254
 62
     3
100
AcDbText
 10
262.29736057372
 20
14.883926129921
 30
0.0
 40
3.75
  1
こ
 41
0.9
 72
     1
 11
263.87236057372
 21
14.883926129921
 31
0.0
100
AcDbText
  0
TEXT
  5
3C7
330
18
100
AcDbEntity
  8
254
 62
     3
100
AcDbText
 10
250.8885576441998
 20
14.848941353927
 30
0.0
 40
3.75
  1
1000
 41
0.45
 72
     1
 11
253.2791826441998
 21
14.848941353927
 31
0.0
100
AcDbText
  0
LINE
  5
3C8
330
18
100
AcDbEntity
  8
254
  6
CONTINUOUS
 62
     7
100
AcDbLine
 10
187.1594837388098
 20
31.8788118
 30
0.0
 11
247.1594837388098
 21
31.8788118
 31
0.0
  0
LINE
  5
3C9
330
18
100
AcDbEntity
  8
254
  6
CONTINUOUS
 62
     7
100
AcDbLine
 10
187.1594837388098
 20
49.87881179999998
 30
0.0
 11
187.1594837388098
 21
13.87881179999999
 31
0.0
  0
LINE
  5
3CA
330
18
100
AcDbEntity
  8
254
  6
CONTINUOUS
 62
     7
100
AcDbLine
 10
247.1594837388098
 20
49.87881179999998
 30
0.0
 11
187.1594837388098
 21
49.87881179999998
 31
0.0
  0
LINE
  5
3CB
330
18
100
AcDbEntity
  8
254
  6
CONTINUOUS
 62
     7
100
AcDbLine
 10
247.1594837388098
 20
55.8788118
 30
0.0
 11
187.1594837388098
 21
55.8788118
 31
0.0
  0
LINE
  5
3CC
330
18
100
AcDbEntity
  8
254
  6
CONTINUOUS
 62
     7
100
AcDbLine
 10
187.1594837388098
 20
49.87881179999998
 30
0.0
 11
187.1594837388098
 21
55.8788118
 31
0.0
  0
LINE
  5
3CD
330
18
100
AcDbEntity
  8
254
  6
CONTINUOUS
 62
     7
100
AcDbLine
 10
247.1594837388098
 20
13.87881179999999
 30
0.0
 11
247.1594837388098
 21
81.594918608977
 31
0.0
  0
LINE
  5
3CE
330
18
100
AcDbEntity
  8
254
  6
CONTINUOUS
 62
     7
100
AcDbLine
 10
310.6085204999998
 20
72.37881179999998
 30
0.0
 11
247.1594837388098
 21
72.37881179999998
 31
0.0
  0
LINE
  5
3CF
330
18
100
AcDbEntity
  8
254
  6
CONTINUOUS
 62
     7
100
AcDbLine
 10
247.1594837388098
 20
81.594918608977
 30
0.0
 11
310.6085204999998
 21
81.594918608977
 31
0.0
  0
LINE
  5
3D0
330
18
100
AcDbEntity
  8
254
  6
CONTINUOUS
 62
     7
100
AcDbLine
 10
310.6085204999998
 20
72.37881179999998
 30
0.0
 11
310.6085204999998
 21
81.594918608977
 31
0.0
  0
LINE
  5
3D1
330
18
100
AcDbEntity
  8
254
  6
CONTINUOUS
 62
     7
100
AcDbLine
 10
310.6085204999998
 20
72.37881179999998
 30
0.0
 11
454.6085204999998
 21
72.37881179999998
 31
0.0
  0
LINE
  5
3D2
330
18
100
AcDbEntity
  8
254
  6
CONTINUOUS
 62
     7
100
AcDbLine
 10
310.6085204999998
 20
72.37881179999998
 30
0.0
 11
310.6085204999998
 21
13.87881179999999
 31
0.0
  0
LINE
  5
3D3
330
18
100
AcDbEntity
  8
254
  6
CONTINUOUS
 62
     7
100
AcDbLine
 10
399.1085205
 20
27.3788118
 30
0.0
 11
399.1085205
 21
13.87881179999999
 31
0.0
  0
LINE
  5
3D4
330
18
100
AcDbEntity
  8
254
  6
CONTINUOUS
 62
     7
100
AcDbLine
 10
436.6085205
 20
27.3788118
 30
0.0
 11
436.6085205
 21
13.87881179999999
 31
0.0
  0
LINE
  5
3D5
330
18
100
AcDbEntity
  8
254
  6
CONTINUOUS
 62
     7
100
AcDbLine
 10
310.6085204999998
 20
31.8788118
 30
0.0
 11
247.1594837388098
 21
31.8788118
 31
0.0
  0
LINE
  5
3D6
330
18
100
AcDbEntity
  8
254
  6
CONTINUOUS
 62
     7
100
AcDbLine
 10
247.1594837388098
 20
37.87881179999998
 30
0.0
 11
310.6085204999998
 21
37.87881179999998
 31
0.0
  0
LINE
  5
3D7
330
18
100
AcDbEntity
  8
254
  6
CONTINUOUS
 62
     7
100
AcDbLine
 10
310.6085204999998
 20
43.87881179999999
 30
0.0
 11
247.1594837388098
 21
43.87881179999999
 31
0.0
  0
LINE
  5
3D8
330
18
100
AcDbEntity
  8
254
  6
CONTINUOUS
 62
     7
100
AcDbLine
 10
247.1594837388098
 20
49.87881179999998
 30
0.0
 11
291.87355528456
 21
49.87881179999998
 31
0.0
  0
LINE
  5
3D9
330
18
100
AcDbEntity
  8
254
  6
CONTINUOUS
 62
     7
100
AcDbLine
 10
247.1594837388098
 20
55.8788118
 30
0.0
 11
310.6085204999998
 21
55.8788118
 31
0.0
  0
LINE
  5
3DA
330
18
100
AcDbEntity
  8
254
  6
CONTINUOUS
 62
     7
100
AcDbLine
 10
310.6085204999998
 20
25.8788118
 30
0.0
 11
187.1594837388098
 21
25.8788118
 31
0.0
  0
LINE
  5
3DB
330
18
100
AcDbEntity
  8
254
  6
CONTINUOUS
 62
     7
100
AcDbLine
 10
310.6085204999998
 20
19.8788118
 30
0.0
 11
187.1594837388098
 21
19.8788118
 31
0.0
  0
LINE
  5
3DC
330
18
100
AcDbEntity
  8
254
  6
CONTINUOUS
 62
     7
100
AcDbLine
 10
291.87355528456
 20
13.87881179999999
 30
0.0
 11
291.87355528456
 21
72.37881179999998
 31
0.0
  0
LINE
  5
3DD
330
18
100
AcDbEntity
  8
254
  6
CONTINUOUS
 62
     7
100
AcDbLine
 10
573.1085205
 20
54.3788118
 30
0.0
 11
310.6085204999998
 21
54.3788118
 31
0.0
  0
LINE
  5
3DE
330
18
100
AcDbEntity
  8
254
  6
CONTINUOUS
 62
     7
100
AcDbLine
 10
393.1085205
 20
36.37881179999999
 30
0.0
 11
454.6085204999998
 21
36.37881179999999
 31
0.0
  0
LINE
  5
3DF
330
18
100
AcDbEntity
  8
254
  6
CONTINUOUS
 62
     7
100
AcDbLine
 10
393.1085205
 20
45.37881179999998
 30
0.0
 11
454.6085204999998
 21
45.37881179999998
 31
0.0
  0
LINE
  5
3E0
330
18
100
AcDbEntity
  8
254
  6
CONTINUOUS
 62
     7
100
AcDbLine
 10
310.6085204999998
 20
63.3788118
 30
0.0
 11
454.6085204999998
 21
63.3788118
 31
0.0
  0
LINE
  5
3E1
330
18
100
AcDbEntity
  8
254
  6
CONTINUOUS
 62
     7
100
AcDbLine
 10
393.1085205
 20
63.3788118
 30
0.0
 11
393.1085205
 21
27.3788118
 31
0.0
  0
LINE
  5
3E2
330
18
100
AcDbEntity
  8
254
  6
CONTINUOUS
 62
     7
100
AcDbLine
 10
310.6085204999998
 20
37.87881179999998
 30
0.0
 11
393.1085205
 21
37.87881179999998
 31
0.0
  0
LINE
  5
3E3
330
18
100
AcDbEntity
  8
254
  6
CONTINUOUS
 62
     7
100
AcDbLine
 10
291.87355528456
 20
63.60981682788999
 30
0.0
 11
310.6085204999998
 21
63.60981682788999
 31
0.0
  0
LINE
  5
3E4
330
18
100
AcDbEntity
  8
254
  6
CONTINUOUS
 62
     7
100
AcDbLine
 10
573.1085205
 20
27.3788118
 30
0.0
 11
310.6085204999998
 21
27.3788118
 31
0.0
  0
LINE
  5
3E5
330
18
100
AcDbEntity
  8
254
  6
CONTINUOUS
 62
     3
100
AcDbLine
 10
450.55852049832
 20
85.12881179999999
 30
0.0
 11
450.55852049832
 21
76.12881179999998
 31
0.0
  0
LINE
  5
3E6
330
18
100
AcDbEntity
  8
254
  6
CONTINUOUS
 62
     3
100
AcDbLine
 10
520.6085205
 20
54.3788118
 30
0.0
 11
520.6085205
 21
63.3788118
 31
0.0
  0
TEXT
  5
3E7
330
18
100
AcDbEntity
  8
254
 62
     3
100
AcDbText
 10
456.1085205
 20
66.54201511947601
 30
0.0
 40
3.0
  1
REVISION
 41
0.45
100
AcDbText
  0
TEXT
  5
3E8
330
18
100
AcDbEntity
  8
254
 62
     3
100
AcDbText
 10
473.6810875633799
 20
56.125939135402
 30
0.0
 40
5.25
  1
’
 41
1.08
100
AcDbText
  0
TEXT
  5
3E9
330
18
100
AcDbEntity
  8
254
 62
     3
100
AcDbText
 10
456.1085205
 20
42.37881179999998
 30
0.0
 40
5.25
  1
機種
 41
1.53
100
AcDbText
  0
TEXT
  5
3EA
330
18
100
AcDbEntity
  8
254
 62
     3
100
AcDbText
 10
456.1085205
 20
28.8788118
 30
0.0
 40
5.25
  1
名称
 41
1.62
100
AcDbText
  0
LINE
  5
3EB
330
18
100
AcDbEntity
  8
254
  6
CONTINUOUS
 62
     7
100
AcDbLine
 10
454.6085204999998
 20
27.3788118
 30
0.0
 11
454.6085204999998
 21
90.37881179999999
 31
0.0
  0
LINE
  5
3EC
330
18
100
AcDbEntity
  8
254
  6
CONTINUOUS
 62
     7
100
AcDbLine
 10
454.6085204999998
 20
63.3788118
 30
0.0
 11
573.1085205
 21
63.3788118
 31
0.0
  0
LINE
  5
3ED
330
18
100
AcDbEntity
  8
254
  6
CONTINUOUS
 62
     7
100
AcDbLine
 10
573.1085205
 20
90.37881179999999
 30
0.0
 11
421.15852049888
 21
90.37881179999999
 31
0.0
  0
LINE
  5
3EE
330
18
100
AcDbEntity
  8
254
  6
CONTINUOUS
 62
     7
100
AcDbLine
 10
454.6085204999998
 20
40.87881179999999
 30
0.0
 11
573.1085205
 21
40.87881179999999
 31
0.0
  0
LINE
  5
3EF
330
18
100
AcDbEntity
  8
254
  6
CONTINUOUS
 62
     7
100
AcDbLine
 10
454.6085204999998
 20
72.37881179999998
 30
0.0
 11
573.1085205
 21
72.37881179999998
 31
0.0
  0
LINE
  5
3F0
330
18
100
AcDbEntity
  8
254
  6
CONTINUOUS
 62
     7
100
AcDbLine
 10
454.6085204999998
 20
81.37881179999999
 30
0.0
 11
573.1085205
 21
81.37881179999999
 31
0.0
  0
LINE
  5
3F1
330
18
100
AcDbEntity
  8
254
  6
CONTINUOUS
 62
     7
100
AcDbLine
 10
477.1085205
 20
90.37881179999999
 30
0.0
 11
477.1085205
 21
63.3788118
 31
0.0
  0
LINE
  5
3F2
330
18
100
AcDbEntity
  8
254
  6
CONTINUOUS
 62
     7
100
AcDbLine
 10
3.1085205
 20
13.87881179999999
 30
0.0
 11
3.1085205
 21
412.8788118000001
 31
0.0
  0
LINE
  5
3F3
330
18
100
AcDbEntity
  8
254
  6
CONTINUOUS
 62
     7
100
AcDbLine
 10
421.15852049888
 20
90.37881179999999
 30
0.0
 11
421.15852049888
 21
72.37881179999998
 31
0.0
  0
TEXT
  5
3F4
330
18
100
AcDbEntity
  8
254
 62
     3
100
AcDbText
 10
191.0594837388098
 20
51.0038118
 30
0.0
 40
3.75
  1
指示なき角部はＣ０.２面取り
 41
0.9
 72
     1
 11
217.1594837388098
 21
52.8788118
 31
0.0
100
AcDbText
 73
     2
  0
TEXT
  5
3F5
330
18
100
AcDbEntity
  8
254
 62
     3
100
AcDbText
 10
296.0660378922797
 20
48.00381179999998
 30
0.0
 40
3.75
  1
%%p０.１
 41
0.9
 72
     1
 11
301.2410378922798
 21
48.00381179999998
 31
0.0
100
AcDbText
  0
TEXT
  5
3F6
330
18
100
AcDbEntity
  8
254
 62
     3
100
AcDbText
 10
295.6160378922798
 20
39.00381179999998
 30
0.0
 40
3.75
  1
%%p０.２
 41
0.9
 72
     1
 11
301.2410378922798
 21
39.00381179999998
 31
0.0
100
AcDbText
  0
TEXT
  5
3F7
330
18
100
AcDbEntity
  8
254
 62
     3
100
AcDbText
 10
295.6160378922798
 20
33.0038118
 30
0.0
 40
3.75
  1
%%p０.３
 41
0.9
 72
     1
 11
301.2410378922798
 21
33.0038118
 31
0.0
100
AcDbText
  0
TEXT
  5
3F8
330
18
100
AcDbEntity
  8
254
 62
     3
100
AcDbText
 10
295.6160378922798
 20
15.00381179999999
 30
0.0
 40
3.75
  1
%%p１.２
 41
0.9
 72
     1
 11
301.2410378922798
 21
15.00381179999999
 31
0.0
100
AcDbText
  0
TEXT
  5
3F9
330
18
100
AcDbEntity
  8
254
 62
     3
100
AcDbText
 10
295.6160378922798
 20
21.0038118
 30
0.0
 40
3.75
  1
%%p０.８
 41
0.9
 72
     1
 11
301.2410378922798
 21
21.0038118
 31
0.0
100
AcDbText
  0
TEXT
  5
3FA
330
18
100
AcDbEntity
  8
254
 62
     3
100
AcDbText
 10
295.6160378922798
 20
27.0038118
 30
0.0
 40
3.75
  1
%%p０.５
 41
0.9
 72
     1
 11
301.2410378922798
 21
27.0038118
 31
0.0
100
AcDbText
  0
TEXT
  5
3FB
330
18
100
AcDbEntity
  8
254
 62
     3
100
AcDbText
 10
400.6085204999997
 20
21.505821008954
 30
0.0
 40
3.0
  1
ＳＣＡＬＥ
 41
0.9
100
AcDbText
  0
TEXT
  5
3FC
330
18
100
AcDbEntity
  8
254
 62
     3
100
AcDbText
 10
456.1085205
 20
36.37881179999999
 30
0.0
 40
3.0
  1
ＳＵＢＪＥＣＴ
 41
0.9
100
AcDbText
  0
TEXT
  5
3FD
330
18
100
AcDbEntity
  8
254
 62
     3
100
AcDbText
 10
456.1085205
 20
50.305739945927
 30
0.0
 40
3.0
  1
ＭＡＣＨＩＮＥ
 41
0.9
100
AcDbText
  0
TEXT
  5
3FE
330
18
100
AcDbEntity
  8
254
 62
     3
100
AcDbText
 10
456.1085205
 20
57.542015119476
 30
0.0
 40
3.0
  1
ＤＡＴＥ
 41
0.9
100
AcDbText
  0
TEXT
  5
3FF
330
18
100
AcDbEntity
  8
254
 62
     3
100
AcDbText
 10
522.2988836547499
 20
57.298184899459
 30
0.0
 40
3.0
  1
ＱＴＹ.
 41
1.35
100
AcDbText
  0
TEXT
  5
400
330
18
100
AcDbEntity
  8
254
 62
     3
100
AcDbText
 10
438.1085204999997
 20
22.38514316095697
 30
0.0
 40
3.0
  1
ＤＲＡＷＩＮＧ ＮＯ.
 41
0.9
100
AcDbText
  0
TEXT
  5
401
330
18
100
AcDbEntity
  8
254
 62
     3
100
AcDbText
 10
394.83182084897
 20
57.092923606476
 30
0.0
 40
3.0
  1
ＡＰＰＲＯＶＥＤ
 41
0.72
100
AcDbText
  0
TEXT
  5
402
330
18
100
AcDbEntity
  8
254
 62
     3
100
AcDbText
 10
394.67929999494
 20
48.094193153977
 30
0.0
 40
3.0
  1
ＣＨＥＣＫＥＤ
 41
0.72
100
AcDbText
  0
TEXT
  5
403
330
18
100
AcDbEntity
  8
254
 62
     3
100
AcDbText
 10
394.67929999494
 20
39.24798355498099
 30
0.0
 40
3.0
  1
ＤＲＡＷＮ
 41
0.72
100
AcDbText
  0
TEXT
  5
404
330
18
100
AcDbEntity
  8
254
 62
     3
100
AcDbText
 10
394.67929999494
 20
30.249253100911
 30
0.0
 40
3.0
  1
ＤＥＳＩＧＮ
 41
0.72
100
AcDbText
  0
TEXT
  5
405
330
18
100
AcDbEntity
  8
254
 62
     3
100
AcDbText
 10
312.3810558157098
 20
57.108449681974
 30
0.0
 40
3.75
  1
ＭＡＴＥＲＩＡＬ
 41
0.9
100
AcDbText
  0
TEXT
  5
406
330
18
100
AcDbEntity
  8
254
 62
     3
100
AcDbText
 10
312.3810558157098
 20
46.12881179999998
 30
0.0
 40
3.0
  1
ＨＥＡＴ
 41
0.72
100
AcDbText
  0
TEXT
  5
407
330
18
100
AcDbEntity
  8
254
 62
     3
100
AcDbText
 10
314.6894178591797
 20
42.18104179647999
 30
0.0
 40
3.0
  1
ＴＲＥＡＴＭＥＮＴ
 41
0.72
100
AcDbText
  0
TEXT
  5
408
330
18
100
AcDbEntity
  8
254
 62
     3
100
AcDbText
 10
342.54365318977
 20
41.565478584051
 30
0.0
 40
4.5
  1
Ｈ
 41
0.72
100
AcDbText
  0
TEXT
  5
409
330
18
100
AcDbEntity
  8
254
 62
     3
100
AcDbText
 10
346.6987048802999
 20
41.565478584051
 30
0.0
 40
3.0
  1
Ｒ
 41
0.72
100
AcDbText
  0
TEXT
  5
40A
330
18
100
AcDbEntity
  8
254
 62
     3
100
AcDbText
 10
350.2381933346498
 20
41.719369387508
 30
0.0
 40
4.5
  1
Ｃ
 41
0.72
100
AcDbText
  0
TEXT
  5
40B
330
18
100
AcDbEntity
  8
254
 62
     3
100
AcDbText
 10
312.3810558157098
 20
33.563156830517
 30
0.0
 40
3.0
  1
ＳＵＲＦＡＣＥ
 41
0.72
100
AcDbText
  0
TEXT
  5
40C
330
18
100
AcDbEntity
  8
254
 62
     3
100
AcDbText
 10
314.84330866543
 20
29.40810515099199
 30
0.0
 40
3.0
  1
ＴＲＥＡＴＭＥＮＴ
 41
0.72
100
AcDbText
  0
LINE
  5
40D
330
18
100
AcDbEntity
  8
254
  6
CONTINUOUS
 62
     7
100
AcDbLine
 10
573.1085205
 20
13.87881179999999
 30
0.0
 11
3.1085205
 21
13.87881179999999
 31
0.0
  0
TEXT
  5
40E
330
18
100
AcDbEntity
  8
254
 62
     3
100
AcDbText
 10
549.5649973653399
 20
55.774517617442
 30
0.0
 40
5.25
  1
/
 41
0.675
100
AcDbText
  0
LINE
  5
40F
330
18
100
AcDbEntity
  8
254
  6
CONTINUOUS
 62
     7
100
AcDbLine
 10
573.1085205
 20
412.8788118000001
 30
0.0
 11
573.1085205
 21
13.87881179999999
 31
0.0
  0
LINE
  5
410
330
18
100
AcDbEntity
  8
254
  6
CONTINUOUS
 62
     7
100
AcDbLine
 10
552.2348824651999
 20
90.37881179999999
 30
0.0
 11
552.2348824651999
 21
63.3788118
 31
0.0
  0
TEXT
  5
411
330
18
100
AcDbEntity
  8
254
 62
     3
100
AcDbText
 10
556.3625095185
 20
56.82878217446599
 30
0.0
 40
3.0
  1
ＵＮＩＴ
 41
1.35
100
AcDbText
  0
LINE
  5
412
330
18
100
AcDbEntity
  8
254
  6
CONTINUOUS
 62
     7
100
AcDbLine
 10
3.1085205
 20
412.8788118000001
 30
0.0
 11
573.1085205
 21
412.8788118000001
 31
0.0
  0
TEXT
  5
413
330
18
100
AcDbEntity
  8
254
 62
     3
100
AcDbText
 10
411.2757643345798
 20
38.260948708534
 30
0.0
 40
4.875
  1
＊＊
 41
0.9
100
AcDbText
  0
TEXT
  5
414
330
18
100
AcDbEntity
  8
254
 62
     3
100
AcDbText
 10
344.4413114549699
 20
56.260948708534
 30
0.0
 40
5.25
  1
＊＊
 41
0.9
100
AcDbText
  0
TEXT
  5
415
330
18
100
AcDbEntity
  8
254
 62
     3
100
AcDbText
 10
342.96222697442
 20
29.260948708534
 30
0.0
 40
5.25
  1
＊＊
 41
0.9
100
AcDbText
  0
TEXT
  5
416
330
18
100
AcDbEntity
  8
254
 62
     3
100
AcDbText
 10
540.6093091653798
 20
56.128103015907
 30
0.0
 40
5.25
  1
 ＊
 41
0.9
100
AcDbText
  0
TEXT
  5
417
330
18
100
AcDbEntity
  8
254
 62
     3
100
AcDbText
 10
414.0951803791
 20
15.446869811475
 30
0.0
 40
6.0
  1
１/１.５
 41
0.9
100
AcDbText
  0
LINE
  5
418
330
18
100
AcDbEntity
  8
1
  6
CONTINUOUS
 62
     7
100
AcDbLine
 10
467.91652206995
 20
181.7337233832899
 30
0.0
 11
467.91652206995
 21
172.0132605177099
 31
0.0
  0
LINE
  5
419
330
18
100
AcDbEntity
  8
1
  6
CONTINUOUS
 62
     7
100
AcDbLine
 10
477.91652206995
 20
181.78558821246
 30
0.0
 11
477.91652206995
 21
172.0252649279499
 31
0.0
  0
CIRCLE
  5
41A
330
18
100
AcDbEntity
  8
0
  6
CONTINUOUS
 62
     7
100
AcDbCircle
 10
110.52021089631
 20
161.8963119370999
 30
0.0
 40
1.149999999999999
  0
LINE
  5
41B
330
18
100
AcDbEntity
  8
0
  6
DASHDOT
 62
     1
100
AcDbLine
 10
107.2295673076899
 20
161.8963119370999
 30
0.0
 11
113.2584134615399
 21
161.8963119370999
 31
0.0
  0
LINE
  5
41C
330
18
100
AcDbEntity
  8
0
  6
DASHDOT
 62
     1
100
AcDbLine
 10
110.52021089631
 20
165.25641025641
 30
0.0
 11
110.52021089631
 21
158.59294871795
 31
0.0
  0
CIRCLE
  5
41D
330
18
100
AcDbEntity
  8
0
  6
CONTINUOUS
 62
     7
100
AcDbCircle
 10
80.52021089630901
 20
161.8963119370999
 30
0.0
 40
1.149999999999999
  0
LINE
  5
41E
330
18
100
AcDbEntity
  8
0
  6
DASHDOT
 62
     1
100
AcDbLine
 10
77.22956730769201
 20
161.8963119370999
 30
0.0
 11
83.25841346153799
 21
161.8963119370999
 31
0.0
  0
LINE
  5
41F
330
18
100
AcDbEntity
  8
0
  6
DASHDOT
 62
     1
100
AcDbLine
 10
80.52021089630901
 20
165.25641025641
 30
0.0
 11
80.52021089630901
 21
158.59294871795
 31
0.0
  0
DIMENSION
  5
420
330
18
100
AcDbEntity
  8
0
  6
CONTINUOUS
 62
     3
100
AcDbDimension
  2
*D0
 10
110.52021089631
 20
139.8963119370999
 30
0.0
 11
95.52021089630899
 21
139.8963119370999
 31
0.0
  3
GMM001
100
AcDbAlignedDimension
 13
80.52021089630901
 23
158.59294871795
 33
0.0
 14
110.52021089631
 24
158.59294871795
 34
0.0
100
AcDbRotatedDimension
  0
DIMENSION
  5
421
330
18
100
AcDbEntity
  8
0
  6
CONTINUOUS
 62
     3
100
AcDbDimension
  2
*D1
 10
152.52021089631
 20
222.8963119371
 30
0.0
 11
152.52021089631
 21
188.8963119370997
 31
0.0
  3
GMM001
100
AcDbAlignedDimension
 13
111.02021089631
 23
154.8963119371
 33
0.0
 14
115.52021089631
 24
222.8963119371
 34
0.0
 50
90.0
100
AcDbRotatedDimension
  0
DIMENSION
  5
422
330
18
100
AcDbEntity
  8
0
  6
CONTINUOUS
 62
     3
100
AcDbDimension
  2
*D2
 10
137.52021089631
 20
176.8963119371
 30
0.0
 11
137.52021089631
 21
169.3963119371
 31
0.0
  3
GMM001
100
AcDbAlignedDimension
 13
113.2584134615399
 23
161.8963119370999
 33
0.0
 14
120.9834334816199
 24
176.8963119371
 34
0.0
 50
90.0
100
AcDbRotatedDimension
  0
DIMENSION
  5
423
330
18
100
AcDbEntity
  8
0
  6
CONTINUOUS
 62
     3
100
AcDbDimension
  2
*D3
 10
417.36191416412
 20
161.8963119370999
 30
0.0
 11
417.36191416412
 21
174.05776045514
 31
0.0
 70
   128
  3
GMM002
100
AcDbAlignedDimension
 13
346.86191416412
 23
191.8963119370999
 33
0.0
 14
346.86191416412
 24
161.8963119370999
 34
0.0
 50
270.0
100
AcDbRotatedDimension
  0
DIMENSION
  5
424
330
18
100
AcDbEntity
  8
0
  6
CONTINUOUS
 62
     3
100
AcDbDimension
  2
*D4
 10
489.91652206994
 20
219.3963119370998
 30
0.0
 11
472.91652206994
 21
219.3963119370998
 31
0.0
  3
GMM003
100
AcDbAlignedDimension
 13
455.91652206994
 23
197.9793276744499
 33
0.0
 14
489.91652206994
 24
197.9793276744499
 34
0.0
100
AcDbRotatedDimension
  0
DIMENSION
  5
425
330
18
100
AcDbEntity
  8
0
  6
CONTINUOUS
 62
     3
100
AcDbDimension
  2
*D5
 10
495.41652206994
 20
234.3963119371
 30
0.0
 11
472.91652206994
 21
234.3963119371
 31
0.0
  3
GMM003
100
AcDbAlignedDimension
 13
450.41652206994
 23
196.3963119371
 33
0.0
 14
495.41652206994
 24
196.3963119371
 34
0.0
100
AcDbRotatedDimension
  0
TEXT
  5
426
330
18
100
AcDbEntity
  8
1
 62
     3
100
AcDbText
 10
385.7668269230799
 20
210.8701923076899
 30
0.0
 40
6.0
  1
ＳＵＳネジ
 41
0.83333333333333
100
AcDbText
  0
LINE
  5
427
330
18
100
AcDbEntity
  8
254
  6
CONTINUOUS
 62
     7
100
AcDbLine
 10
477.1085205
 20
90.37881179999999
 30
0.0
 11
477.1085205
 21
63.3788118
 31
0.0
  0
LINE
  5
428
330
18
100
AcDbEntity
  8
254
  6
CONTINUOUS
 62
     7
100
AcDbLine
 10
552.2348824651999
 20
90.37881179999999
 30
0.0
 11
552.2348824651999
 21
63.3788118
 31
0.0
  0
LINE
  5
429
330
18
100
AcDbEntity
  8
1
  6
CONTINUOUS
 62
     7
100
AcDbLine
 10
343.86191416412
 20
191.8963119370999
 30
0.0
 11
346.86191416412
 21
191.8963119370999
 31
0.0
  0
LINE
  5
42A
330
18
100
AcDbEntity
  8
1
  6
CONTINUOUS
 62
     7
100
AcDbLine
 10
343.86191416412
 20
161.8963119370999
 30
0.0
 11
346.86191416412
 21
161.8963119370999
 31
0.0
  0
LINE
  5
42B
330
18
100
AcDbEntity
  8
1
  6
CONTINUOUS
 62
     7
100
AcDbLine
 10
343.86191416412
 20
191.8963119370999
 30
0.0
 11
343.86191416412
 21
154.3963119370999
 31
0.0
  0
LINE
  5
42C
330
18
100
AcDbEntity
  8
1
  6
CONTINUOUS
 62
     7
100
AcDbLine
 10
343.86191416412
 20
199.3963119370999
 30
0.0
 11
343.86191416412
 21
191.8963119370999
 31
0.0
  0
LINE
  5
42D
330
18
100
AcDbEntity
  8
1
  6
CONTINUOUS
 62
     7
100
AcDbLine
 10
251.8754432754
 20
155.3963119370999
 30
0.0
 11
336.86191416412
 21
155.3963119370999
 31
0.0
  0
LINE
  5
42E
330
18
100
AcDbEntity
  8
1
  6
CONTINUOUS
 62
     7
100
AcDbLine
 10
251.86191416412
 20
165.1963119370999
 30
0.0
 11
336.86191416412
 21
165.1963119370999
 31
0.0
  0
LINE
  5
42F
330
18
100
AcDbEntity
  8
1
  6
CONTINUOUS
 62
     7
100
AcDbLine
 10
316.86191416412
 20
198.3963119370999
 30
0.0
 11
336.86191416412
 21
198.3963119370999
 31
0.0
  0
LINE
  5
430
330
18
100
AcDbEntity
  8
1
  6
CONTINUOUS
 62
     7
100
AcDbLine
 10
303.86191416412
 20
188.5963119370999
 30
0.0
 11
336.86191416412
 21
188.5963119370999
 31
0.0
  0
LINE
  5
431
330
18
100
AcDbEntity
  8
1
  6
CONTINUOUS
 62
     7
100
AcDbLine
 10
336.86191416412
 20
199.3963119370999
 30
0.0
 11
343.86191416412
 21
199.3963119370999
 31
0.0
  0
LINE
  5
432
330
18
100
AcDbEntity
  8
1
  6
CONTINUOUS
 62
     7
100
AcDbLine
 10
336.86191416412
 20
154.3963119370999
 30
0.0
 11
343.86191416412
 21
154.3963119370999
 31
0.0
  0
LINE
  5
433
330
18
100
AcDbEntity
  8
1
  6
CONTINUOUS
 62
     7
100
AcDbLine
 10
336.86191416412
 20
154.3963119370999
 30
0.0
 11
336.86191416412
 21
199.3963119370999
 31
0.0
  0
LINE
  5
434
330
18
100
AcDbEntity
  8
1
  6
HIDDEN
 62
     7
100
AcDbLine
 10
336.86191416412
 20
196.6463119371
 30
0.0
 11
343.86191416412
 21
196.6463119371
 31
0.0
  0
LINE
  5
435
330
18
100
AcDbEntity
  8
1
  6
HIDDEN
 62
     7
100
AcDbLine
 10
336.86191416412
 20
191.1463119370999
 30
0.0
 11
343.86191416412
 21
191.1463119370999
 31
0.0
  0
LINE
  5
436
330
18
100
AcDbEntity
  8
1
  6
HIDDEN
 62
     7
100
AcDbLine
 10
336.86191416412
 20
157.1463119370999
 30
0.0
 11
343.86191416412
 21
157.1463119370999
 31
0.0
  0
LINE
  5
437
330
18
100
AcDbEntity
  8
1
  6
HIDDEN
 62
     7
100
AcDbLine
 10
336.86191416412
 20
162.6463119370999
 30
0.0
 11
343.86191416412
 21
162.6463119370999
 31
0.0
  0
LINE
  5
438
330
18
100
AcDbEntity
  8
1
  6
DIVIDE
 62
     1
100
AcDbLine
 10
334.7598147899298
 20
193.8963119370999
 30
0.0
 11
346.06959460437
 21
193.8963119370999
 31
0.0
  0
LINE
  5
439
330
18
100
AcDbEntity
  8
1
  6
DIVIDE
 62
     1
100
AcDbLine
 10
334.26772340153
 20
159.8963119370999
 30
0.0
 11
346.06959460437
 21
159.8963119370999
 31
0.0
  0
DIMENSION
  5
43A
330
18
100
AcDbEntity
  8
0
  6
CONTINUOUS
 62
     3
100
AcDbDimension
  2
*D6
 10
343.86191416412
 20
136.8963119370999
 30
0.0
 11
340.36191416412
 21
136.8963119370999
 31
0.0
  3
GMM001
100
AcDbAlignedDimension
 13
336.86191416412
 23
154.3963119370999
 33
0.0
 14
343.86191416412
 24
154.3963119370999
 34
0.0
100
AcDbRotatedDimension
  0
TEXT
  5
43B
330
18
100
AcDbEntity
  8
254
 62
     3
100
AcDbText
 10
411.2757643345798
 20
29.260948708534
 30
0.0
 40
4.875
  1
藤田
 41
0.9
100
AcDbText
  0
TEXT
  5
43C
330
18
100
AcDbEntity
  8
254
 62
     3
100
AcDbText
 10
481.5704939985797
 20
30.783778712989
 30
0.0
 40
7.5
  1
ＳＣＮ５
 41
0.9
100
AcDbText
  0
TEXT
  5
43D
330
18
100
AcDbEntity
  8
254
 62
     3
100
AcDbText
 10
481.9164597692298
 20
44.62881179999999
 30
0.0
 40
5.0
  1
ＳＣＮ５－０１０－＊＊＊－Ｓ０３
 41
0.9
100
AcDbText
  0
LEADER
  5
43E
330
18
100
AcDbEntity
  8
0
  6
CONTINUOUS
 62
     1
100
AcDbLeader
  3
GMM004
 73
     0
 75
     1
 40
6.75
 41
39.375
 76
     3
 10
488.5393110402199
 20
157.5160199845
 30
0.0
 10
477.83007642858
 20
136.8963119370999
 30
0.0
 10
474.83007642858
 20
136.8963119370999
 30
0.0
340
43F
213
0.0
223
-0.7500000000000301
233
0.0
1001
ACAD
1000
DSTYLE
1002
{
1070
     6
1000
OPEN30
1070
   343
1005
160
1002
}
1000
LEANOF
1010
0.0
1020
-0.7500000000000301
1030
0.0
  0
MTEXT
  5
43F
330
18
100
AcDbEntity
  8
0
 62
     3
100
AcDbMText
 10
435.45507642858
 20
137.6463119370999
 30
0.0
 40
6.75
 41
0.0
 71
     7
 72
     1
  1
\A1;４－%%c５.５ヌキ
  7
GMM001
1001
ACAD
1000
MTEXTBEGIN
1070
    73
1070
     1
1070
    44
1040
1.0
1070
    74
1070
     0
1000
MTEXTEND
1000
MTEXTBEGIN
1070
    73
1070
     1
1070
    44
1040
1.0
1070
    74
1070
     0
1000
MTEXTEND
1000
MTEXTBEGIN
1070
    73
1070
     1
1070
    44
1040
1.0
1070
    74
1070
     0
1000
MTEXTEND
  0
LEADER
  5
440
330
18
100
AcDbEntity
  8
0
  6
CONTINUOUS
 62
     1
100
AcDbLeader
  3
GMM004
 73
     0
 74
     0
 75
     1
 40
6.75
 41
44.625
 76
     3
 10
111.2378332368699
 20
160.9976917857999
 30
0.0
 10
120.5584350521399
 20
139.8930852469199
 30
0.0
 10
123.5584350521399
 20
139.8930852469199
 30
0.0
340
441
213
0.0
223
-0.75
233
0.0
1001
ACAD
1000
DSTYLE
1002
{
1070
     6
1000
OPEN30
1070
   343
1005
160
1002
}
1000
LEANOF
1010
0.0
1020
-0.75
1030
0.0
  0
MTEXT
  5
441
330
18
100
AcDbEntity
  8
0
 62
     3
100
AcDbMText
 10
123.5584350521399
 20
140.6430852469199
 30
0.0
 40
6.75
 41
0.0
 71
     7
 72
     1
  1
\A1;２－%%c２.３深１１
  7
GMM001
1001
ACAD
1000
MTEXTBEGIN
1070
    73
1070
     1
1070
    44
1040
1.0
1070
    74
1070
     0
1000
MTEXTEND
1000
MTEXTBEGIN
1070
    73
1070
     1
1070
    44
1040
1.0
1070
    74
1070
     0
1000
MTEXTEND
1000
MTEXTBEGIN
1070
    73
1070
     1
1070
    44
1040
1.0
1070
    74
1070
     0
1000
MTEXTEND
  0
TEXT
  5
442
330
18
100
AcDbEntity
  8
0
 62
     3
100
AcDbText
 10
434.03064903846
 20
330.4122596153798
 30
0.0
 40
5.0
  1
型番
 41
0.77777777777778
100
AcDbText
  0
TEXT
  5
443
330
18
100
AcDbEntity
  8
0
 62
     3
100
AcDbText
 10
486.4056490384597
 20
330.4122596153798
 30
0.0
 40
5.0
  1
Ｌ寸法
 41
0.77777777777778
100
AcDbText
  0
POLYLINE
  5
444
330
18
100
AcDbEntity
  8
0
  6
CONTINUOUS
 62
     7
100
AcDb2dPolyline
 66
     1
 10
0.0
 20
0.0
 30
0.0
 70
     1
  0
VERTEX
  5
641
330
444
100
AcDbEntity
  8
0
  6
CONTINUOUS
 62
     7
100
AcDbVertex
100
AcDb2dVertex
 10
394.2806490384597
 20
305.7872596153798
 30
0.0
  0
VERTEX
  5
642
330
444
100
AcDbEntity
  8
0
  6
CONTINUOUS
 62
     7
100
AcDbVertex
100
AcDb2dVertex
 10
504.2806490384598
 20
305.7872596153798
 30
0.0
  0
VERTEX
  5
643
330
444
100
AcDbEntity
  8
0
  6
CONTINUOUS
 62
     7
100
AcDbVertex
100
AcDb2dVertex
 10
504.2806490384598
 20
337.78725961538
 30
0.0
  0
VERTEX
  5
644
330
444
100
AcDbEntity
  8
0
  6
CONTINUOUS
 62
     7
100
AcDbVertex
100
AcDb2dVertex
 10
394.2806490384597
 20
337.78725961538
 30
0.0
  0
SEQEND
  5
645
330
444
100
AcDbEntity
  8
0
  6
CONTINUOUS
 62
     7
  0
LINE
  5
445
330
18
100
AcDbEntity
  8
0
  6
CONTINUOUS
 62
     7
100
AcDbLine
 10
394.2806490384597
 20
329.78725961538
 30
0.0
 11
504.2806490384598
 21
329.78725961538
 31
0.0
  0
LINE
  5
446
330
18
100
AcDbEntity
  8
0
  6
CONTINUOUS
 62
     7
100
AcDbLine
 10
484.2806490384598
 20
337.78725961538
 30
0.0
 11
484.2806490384598
 21
305.7872596153798
 31
0.0
  0
LINE
  5
447
330
18
100
AcDbEntity
  8
0
  6
CONTINUOUS
 62
     7
100
AcDbLine
 10
504.2806490384598
 20
313.7872596153798
 30
0.0
 11
394.2806490384597
 21
313.7872596153798
 31
0.0
  0
LINE
  5
448
330
18
100
AcDbEntity
  8
0
  6
CONTINUOUS
 62
     7
100
AcDbLine
 10
394.2806490384597
 20
321.7872596153798
 30
0.0
 11
504.2806490384598
 21
321.7872596153798
 31
0.0
  0
TEXT
  5
449
330
18
100
AcDbEntity
  8
0
 62
     3
100
AcDbText
 10
486.4056490384597
 20
322.41225961538
 30
0.0
 40
5.0
  1
１６６
 41
0.77777777777778
100
AcDbText
  0
TEXT
  5
44A
330
18
100
AcDbEntity
  8
0
 62
     3
100
AcDbText
 10
486.4056490384597
 20
314.4122596153798
 30
0.0
 40
5.0
  1
２１６
 41
0.77777777777778
100
AcDbText
  0
TEXT
  5
44B
330
18
100
AcDbEntity
  8
0
 62
     3
100
AcDbText
 10
486.4056490384597
 20
306.4122596153798
 30
0.0
 40
5.0
  1
２６６
 41
0.77777777777778
100
AcDbText
  0
LINE
  5
44C
330
18
100
AcDbEntity
  8
0
  6
CONTINUOUS
 62
     7
100
AcDbLine
 10
484.2806490384598
 20
313.7872596153798
 30
0.0
 11
484.2806490384598
 21
281.7872596153798
 31
0.0
  0
LINE
  5
44D
330
18
100
AcDbEntity
  8
0
  6
CONTINUOUS
 62
     7
100
AcDbLine
 10
504.2806490384598
 20
289.7872596153798
 30
0.0
 11
394.2806490384597
 21
289.7872596153798
 31
0.0
  0
LINE
  5
44E
330
18
100
AcDbEntity
  8
0
  6
CONTINUOUS
 62
     7
100
AcDbLine
 10
394.2806490384597
 20
297.7872596153797
 30
0.0
 11
504.2806490384598
 21
297.7872596153797
 31
0.0
  0
POLYLINE
  5
44F
330
18
100
AcDbEntity
  8
0
  6
CONTINUOUS
 62
     7
100
AcDb2dPolyline
 66
     1
 10
0.0
 20
0.0
 30
0.0
 70
     1
  0
VERTEX
  5
646
330
44F
100
AcDbEntity
  8
0
  6
CONTINUOUS
 62
     7
100
AcDbVertex
100
AcDb2dVertex
 10
394.2806490384597
 20
281.7872596153798
 30
0.0
  0
VERTEX
  5
647
330
44F
100
AcDbEntity
  8
0
  6
CONTINUOUS
 62
     7
100
AcDbVertex
100
AcDb2dVertex
 10
504.2806490384598
 20
281.7872596153798
 30
0.0
  0
VERTEX
  5
648
330
44F
100
AcDbEntity
  8
0
  6
CONTINUOUS
 62
     7
100
AcDbVertex
100
AcDb2dVertex
 10
504.2806490384598
 20
313.7872596153798
 30
0.0
  0
VERTEX
  5
649
330
44F
100
AcDbEntity
  8
0
  6
CONTINUOUS
 62
     7
100
AcDbVertex
100
AcDb2dVertex
 10
394.2806490384597
 20
313.7872596153798
 30
0.0
  0
SEQEND
  5
64A
330
44F
100
AcDbEntity
  8
0
  6
CONTINUOUS
 62
     7
  0
TEXT
  5
450
330
18
100
AcDbEntity
  8
0
 62
     3
100
AcDbText
 10
486.4056490384597
 20
298.4122596153799
 30
0.0
 40
5.0
  1
３１６
 41
0.77777777777778
100
AcDbText
  0
TEXT
  5
451
330
18
100
AcDbEntity
  8
0
 62
     3
100
AcDbText
 10
486.4056490384597
 20
290.4122596153797
 30
0.0
 40
5.0
  1
３６６
 41
0.77777777777778
100
AcDbText
  0
TEXT
  5
452
330
18
100
AcDbEntity
  8
0
 62
     3
100
AcDbText
 10
486.4056490384597
 20
282.4122596153798
 30
0.0
 40
5.0
  1
４１６
 41
0.77777777777778
100
AcDbText
  0
TEXT
  5
453
330
18
100
AcDbEntity
  8
0
 62
     3
100
AcDbText
 10
397.28064903846
 20
322.41225961538
 30
0.0
 40
5.0
  1
ＳＣＮ５－０１０－０５０－Ｓ０３
 41
0.77777777777778
100
AcDbText
  0
TEXT
  5
454
330
18
100
AcDbEntity
  8
0
 62
     3
100
AcDbText
 10
397.28064903846
 20
314.4122596153798
 30
0.0
 40
5.0
  1
ＳＣＮ５－０１０－１００－Ｓ０３
 41
0.77777777777778
100
AcDbText
  0
TEXT
  5
455
330
18
100
AcDbEntity
  8
0
 62
     3
100
AcDbText
 10
397.28064903846
 20
306.4122596153798
 30
0.0
 40
5.0
  1
ＳＣＮ５－０１０－１５０－Ｓ０３
 41
0.77777777777778
100
AcDbText
  0
TEXT
  5
456
330
18
100
AcDbEntity
  8
0
 62
     3
100
AcDbText
 10
397.28064903846
 20
298.4122596153799
 30
0.0
 40
5.0
  1
ＳＣＮ５－０１０－２００－Ｓ０３
 41
0.77777777777778
100
AcDbText
  0
TEXT
  5
457
330
18
100
AcDbEntity
  8
0
 62
     3
100
AcDbText
 10
397.28064903846
 20
290.4122596153797
 30
0.0
 40
5.0
  1
ＳＣＮ５－０１０－２５０－Ｓ０３
 41
0.77777777777778
100
AcDbText
  0
TEXT
  5
458
330
18
100
AcDbEntity
  8
0
 62
     3
100
AcDbText
 10
397.28064903846
 20
282.4122596153798
 30
0.0
 40
5.0
  1
ＳＣＮ５－０１０－３００－Ｓ０３
 41
0.77777777777778
100
AcDbText
  0
LINE
  5
459
330
18
100
AcDbEntity
  8
1
  6
CONTINUOUS
 62
     7
100
AcDbLine
 10
186.8619141641199
 20
388.48846153846
 30
0.0
 11
186.8619141641199
 21
399.28846153846
 31
0.0
  0
LINE
  5
45A
330
18
100
AcDbEntity
  8
1
  6
CONTINUOUS
 62
     7
100
AcDbLine
 10
186.8619141641199
 20
355.28846153846
 30
0.0
 11
186.8619141641199
 21
367.43846153846
 31
0.0
  0
LINE
  5
45B
330
18
100
AcDbEntity
  8
1
  6
CONTINUOUS
 62
     7
100
AcDbLine
 10
186.8619141641199
 20
373.1384615384597
 30
0.0
 11
186.8619141641199
 21
380.08846153846
 31
0.0
  0
ARC
  5
45C
330
18
100
AcDbEntity
  8
1
  6
CONTINUOUS
 62
     7
100
AcDbCircle
 10
301.8619141641098
 20
397.28846153846
 30
0.0
 40
2.0
100
AcDbArc
 50
0.0
 51
89.999999999932
  0
LINE
  5
45D
330
18
100
AcDbEntity
  8
1
  6
CONTINUOUS
 62
     7
100
AcDbLine
 10
303.86191416412
 20
397.28846153846
 30
0.0
 11
303.86191416412
 21
391.98846153846
 31
0.0
  0
ARC
  5
45E
330
18
100
AcDbEntity
  8
1
  6
CONTINUOUS
 62
     7
100
AcDbCircle
 10
305.8619141641098
 20
391.98846153846
 30
0.0
 40
2.0
100
AcDbArc
 50
180.0
 51
269.9999999999499
  0
LINE
  5
45F
330
18
100
AcDbEntity
  8
1
  6
CONTINUOUS
 62
     7
100
AcDbLine
 10
303.86191416412
 20
388.98846153846
 30
0.0
 11
303.86191416412
 21
365.58846153846
 31
0.0
  0
ARC
  5
460
330
18
100
AcDbEntity
  8
1
  6
CONTINUOUS
 62
     7
100
AcDbCircle
 10
305.86191416412
 20
362.58846153845
 30
0.0
 40
2.0
100
AcDbArc
 50
90.0
 51
179.99999999983
  0
LINE
  5
461
330
18
100
AcDbEntity
  8
1
  6
CONTINUOUS
 62
     7
100
AcDbLine
 10
303.86191416412
 20
357.28846153846
 30
0.0
 11
303.86191416412
 21
362.58846153846
 31
0.0
  0
ARC
  5
462
330
18
100
AcDbEntity
  8
1
  6
CONTINUOUS
 62
     7
100
AcDbCircle
 10
301.86191416412
 20
357.28846153846
 30
0.0
 40
2.0
100
AcDbArc
 50
270.0
 51
0.0
  0
CIRCLE
  5
463
330
18
100
AcDbEntity
  8
1
  6
CONTINUOUS
 62
     7
100
AcDbCircle
 10
311.06191416412
 20
377.28846153846
 30
0.0
 40
2.75
  0
LINE
  5
464
330
18
100
AcDbEntity
  8
1
  6
CONTINUOUS
 62
     7
100
AcDbLine
 10
309.06191416412
 20
376.88846153846
 30
0.0
 11
309.06191416412
 21
377.68846153846
 31
0.0
  0
LINE
  5
465
330
18
100
AcDbEntity
  8
1
  6
CONTINUOUS
 62
     7
100
AcDbLine
 10
309.66191416412
 20
376.88846153846
 30
0.0
 11
309.06191416412
 21
376.88846153846
 31
0.0
  0
ARC
  5
466
330
18
100
AcDbEntity
  8
1
  6
CONTINUOUS
 62
     7
100
AcDbCircle
 10
309.66191416412
 20
375.8884615384597
 30
0.0
 40
1.0
100
AcDbArc
 50
0.0000000000455964
 51
90.000000000098
  0
LINE
  5
467
330
18
100
AcDbEntity
  8
1
  6
CONTINUOUS
 62
     7
100
AcDbLine
 10
311.4619141641199
 20
375.28846153846
 30
0.0
 11
310.66191416412
 21
375.28846153846
 31
0.0
  0
LINE
  5
468
330
18
100
AcDbEntity
  8
1
  6
CONTINUOUS
 62
     7
100
AcDbLine
 10
310.66191416412
 20
375.28846153846
 30
0.0
 11
310.66191416412
 21
375.8884615384597
 31
0.0
  0
ARC
  5
469
330
18
100
AcDbEntity
  8
1
  6
CONTINUOUS
 62
     7
100
AcDbCircle
 10
310.36191416412
 20
377.28846153846
 30
0.0
 40
3.1
100
AcDbArc
 50
90.0
 51
270.0
  0
LINE
  5
46A
330
18
100
AcDbEntity
  8
1
  6
CONTINUOUS
 62
     7
100
AcDbLine
 10
310.36191416412
 20
374.1884615384599
 30
0.0
 11
311.76191416412
 21
374.1884615384599
 31
0.0
  0
ARC
  5
46B
330
18
100
AcDbEntity
  8
1
  6
CONTINUOUS
 62
     7
100
AcDbCircle
 10
312.46191416411
 20
375.8884615384597
 30
0.0
 40
1.0
100
AcDbArc
 50
89.99999999995402
 51
180.0000000001499
  0
LINE
  5
46C
330
18
100
AcDbEntity
  8
1
  6
CONTINUOUS
 62
     7
100
AcDbLine
 10
313.06191416412
 20
376.88846153846
 30
0.0
 11
312.46191416412
 21
376.88846153846
 31
0.0
  0
LINE
  5
46D
330
18
100
AcDbEntity
  8
1
  6
CONTINUOUS
 62
     7
100
AcDbLine
 10
313.06191416412
 20
377.68846153846
 30
0.0
 11
313.06191416412
 21
376.88846153846
 31
0.0
  0
LINE
  5
46E
330
18
100
AcDbEntity
  8
1
  6
CONTINUOUS
 62
     7
100
AcDbLine
 10
311.4619141641199
 20
375.8884615384597
 30
0.0
 11
311.4619141641199
 21
375.28846153846
 31
0.0
  0
ARC
  5
46F
330
18
100
AcDbEntity
  8
1
  6
CONTINUOUS
 62
     7
100
AcDbCircle
 10
311.76191416412
 20
377.28846153846
 30
0.0
 40
3.1
100
AcDbArc
 50
270.0
 51
90.0
  0
ARC
  5
470
330
18
100
AcDbEntity
  8
1
  6
CONTINUOUS
 62
     7
100
AcDbCircle
 10
309.66191416412
 20
378.6884615384497
 30
0.0
 40
1.0
100
AcDbArc
 50
269.99999999981
 51
0.0000000004820194
  0
LINE
  5
471
330
18
100
AcDbEntity
  8
1
  6
CONTINUOUS
 62
     7
100
AcDbLine
 10
309.06191416412
 20
377.68846153846
 30
0.0
 11
309.66191416412
 21
377.68846153846
 31
0.0
  0
LINE
  5
472
330
18
100
AcDbEntity
  8
1
  6
CONTINUOUS
 62
     7
100
AcDbLine
 10
310.66191416412
 20
378.6884615384597
 30
0.0
 11
310.66191416412
 21
379.28846153846
 31
0.0
  0
LINE
  5
473
330
18
100
AcDbEntity
  8
1
  6
CONTINUOUS
 62
     7
100
AcDbLine
 10
310.66191416412
 20
379.28846153846
 30
0.0
 11
311.4619141641199
 21
379.28846153846
 31
0.0
  0
LINE
  5
474
330
18
100
AcDbEntity
  8
1
  6
CONTINUOUS
 62
     7
100
AcDbLine
 10
310.36191416412
 20
380.3884615384597
 30
0.0
 11
311.76191416412
 21
380.3884615384597
 31
0.0
  0
ARC
  5
475
330
18
100
AcDbEntity
  8
1
  6
CONTINUOUS
 62
     7
100
AcDbCircle
 10
312.46191416413
 20
378.6884615384597
 30
0.0
 40
1.0
100
AcDbArc
 50
179.99999999996
 51
269.9999999996399
  0
LINE
  5
476
330
18
100
AcDbEntity
  8
1
  6
CONTINUOUS
 62
     7
100
AcDbLine
 10
312.46191416412
 20
377.68846153846
 30
0.0
 11
313.06191416412
 21
377.68846153846
 31
0.0
  0
LINE
  5
477
330
18
100
AcDbEntity
  8
1
  6
CONTINUOUS
 62
     7
100
AcDbLine
 10
311.4619141641199
 20
379.28846153846
 30
0.0
 11
311.4619141641199
 21
378.6884615384597
 31
0.0
  0
ARC
  5
478
330
18
100
AcDbEntity
  8
1
  6
CONTINUOUS
 62
     7
100
AcDbCircle
 10
309.56191416412
 20
377.8884615384698
 30
0.0
 40
3.0
100
AcDbArc
 50
90.0
 51
180.00000000006
  0
LINE
  5
479
330
18
100
AcDbEntity
  8
1
  6
CONTINUOUS
 62
     7
100
AcDbLine
 10
306.56191416412
 20
377.8884615384597
 30
0.0
 11
306.56191416412
 21
376.6884615384597
 31
0.0
  0
ARC
  5
47A
330
18
100
AcDbEntity
  8
1
  6
CONTINUOUS
 62
     7
100
AcDbCircle
 10
309.56191416411
 20
376.6884615384597
 30
0.0
 40
3.0
100
AcDbArc
 50
180.0
 51
270.00000000007
  0
LINE
  5
47B
330
18
100
AcDbEntity
  8
1
  6
CONTINUOUS
 62
     7
100
AcDbLine
 10
305.86191416412
 20
389.98846153846
 30
0.0
 11
314.86191416412
 21
389.98846153846
 31
0.0
  0
ARC
  5
47C
330
18
100
AcDbEntity
  8
1
  6
CONTINUOUS
 62
     7
100
AcDbCircle
 10
314.8619141641098
 20
387.98846153846
 30
0.0
 40
2.0
100
AcDbArc
 50
0.0
 51
89.99999999982401
  0
LINE
  5
47D
330
18
100
AcDbEntity
  8
1
  6
CONTINUOUS
 62
     7
100
AcDbLine
 10
316.86191416412
 20
387.98846153846
 30
0.0
 11
316.86191416412
 21
366.58846153846
 31
0.0
  0
ARC
  5
47E
330
18
100
AcDbEntity
  8
1
  6
CONTINUOUS
 62
     7
100
AcDbCircle
 10
314.86191416412
 20
366.58846153846
 30
0.0
 40
2.0
100
AcDbArc
 50
269.9999999999799
 51
0.0
  0
LINE
  5
47F
330
18
100
AcDbEntity
  8
1
  6
CONTINUOUS
 62
     7
100
AcDbLine
 10
305.86191416412
 20
364.58846153846
 30
0.0
 11
314.86191416412
 21
364.58846153846
 31
0.0
  0
LINE
  5
480
330
18
100
AcDbEntity
  8
1
  6
CONTINUOUS
 62
     7
100
AcDbLine
 10
314.86191416412
 20
387.98846153846
 30
0.0
 11
314.86191416412
 21
379.82739580875
 31
0.0
  0
LINE
  5
481
330
18
100
AcDbEntity
  8
1
  6
CONTINUOUS
 62
     7
100
AcDbLine
 10
314.73409354505
 20
374.77614529624
 30
0.0
 11
314.73409354505
 21
366.1168587033798
 31
0.0
  0
LINE
  5
482
330
18
100
AcDbEntity
  8
1
  6
CONTINUOUS
 62
     7
100
AcDbLine
 10
309.56191416412
 20
380.8884615384597
 30
0.0
 11
313.84964115772
 21
380.8884615384597
 31
0.0
  0
LINE
  5
483
330
18
100
AcDbEntity
  8
1
  6
CONTINUOUS
 62
     7
100
AcDbLine
 10
309.56191416412
 20
373.68846153846
 30
0.0
 11
313.56099827129
 21
373.68846153846
 31
0.0
  0
LINE
  5
484
330
18
100
AcDbEntity
  8
1
  6
CONTINUOUS
 62
     7
100
AcDbLine
 10
316.59396497168
 20
388.98846153846
 30
0.0
 11
323.66191416412
 21
388.98846153846
 31
0.0
  0
LINE
  5
485
330
18
100
AcDbEntity
  8
1
  6
CONTINUOUS
 62
     7
100
AcDbLine
 10
316.59396497168
 20
365.58846153846
 30
0.0
 11
323.66191416412
 21
365.58846153846
 31
0.0
  0
LINE
  5
486
330
18
100
AcDbEntity
  8
1
  6
CONTINUOUS
 62
     7
100
AcDbLine
 10
242.54530590495
 20
373.28846153846
 30
0.0
 11
242.54530590495
 21
378.9884615384597
 31
0.0
  0
LINE
  5
487
330
18
100
AcDbEntity
  8
1
  6
CONTINUOUS
 62
     7
100
AcDbLine
 10
250.54530590495
 20
395.28846153846
 30
0.0
 11
250.54530590495
 21
373.28846153846
 31
0.0
  0
LINE
  5
488
330
18
100
AcDbEntity
  8
1
  6
CONTINUOUS
 62
     7
100
AcDbLine
 10
250.54530590495
 20
373.28846153846
 30
0.0
 11
242.54530590495
 21
373.28846153846
 31
0.0
  0
LINE
  5
489
330
18
100
AcDbEntity
  8
1
  6
CONTINUOUS
 62
     7
100
AcDbLine
 10
248.54530590495
 20
389.58846153846
 30
0.0
 11
248.54530590495
 21
378.9884615384597
 31
0.0
  0
LINE
  5
48A
330
18
100
AcDbEntity
  8
1
  6
CONTINUOUS
 62
     7
100
AcDbLine
 10
235.0453059049498
 20
378.9884615384597
 30
0.0
 11
248.54530590495
 21
378.9884615384597
 31
0.0
  0
LINE
  5
48B
330
18
100
AcDbEntity
  8
1
  6
CONTINUOUS
 62
     7
100
AcDbLine
 10
231.9453059049499
 20
393.78846153846
 30
0.0
 11
231.9453059049499
 21
374.78846153846
 31
0.0
  0
LINE
  5
48C
330
18
100
AcDbEntity
  8
1
  6
CONTINUOUS
 62
     7
100
AcDbLine
 10
231.9453059049499
 20
374.78846153846
 30
0.0
 11
242.54530590495
 21
374.78846153846
 31
0.0
  0
LINE
  5
48D
330
18
100
AcDbEntity
  8
1
  6
CONTINUOUS
 62
     7
100
AcDbLine
 10
235.0453059049498
 20
389.58846153846
 30
0.0
 11
235.0453059049498
 21
378.9884615384597
 31
0.0
  0
LINE
  5
48E
330
18
100
AcDbEntity
  8
1
  6
CONTINUOUS
 62
     7
100
AcDbLine
 10
242.54530590495
 20
389.58846153846
 30
0.0
 11
242.54530590495
 21
395.28846153846
 31
0.0
  0
LINE
  5
48F
330
18
100
AcDbEntity
  8
1
  6
CONTINUOUS
 62
     7
100
AcDbLine
 10
242.54530590495
 20
395.28846153846
 30
0.0
 11
250.54530590495
 21
395.28846153846
 31
0.0
  0
LINE
  5
490
330
18
100
AcDbEntity
  8
1
  6
CONTINUOUS
 62
     7
100
AcDbLine
 10
242.54530590495
 20
393.78846153846
 30
0.0
 11
231.9453059049499
 21
393.78846153846
 31
0.0
  0
LINE
  5
491
330
18
100
AcDbEntity
  8
1
  6
CONTINUOUS
 62
     7
100
AcDbLine
 10
235.0453059049498
 20
389.58846153846
 30
0.0
 11
248.54530590495
 21
389.58846153846
 31
0.0
  0
LINE
  5
492
330
18
100
AcDbEntity
  8
1
  6
CONTINUOUS
 62
     7
100
AcDbLine
 10
228.04530590495
 20
365.28846153846
 30
0.0
 11
250.54530590495
 21
365.28846153846
 31
0.0
  0
LINE
  5
493
330
18
100
AcDbEntity
  8
1
  6
CONTINUOUS
 62
     7
100
AcDbLine
 10
250.54530590495
 20
365.28846153846
 30
0.0
 11
250.54530590495
 21
373.28846153846
 31
0.0
  0
LINE
  5
494
330
18
100
AcDbEntity
  8
1
  6
CONTINUOUS
 62
     7
100
AcDbLine
 10
228.04530590495
 20
365.28846153846
 30
0.0
 11
228.04530590495
 21
364.28846153846
 31
0.0
  0
LINE
  5
495
330
18
100
AcDbEntity
  8
1
  6
CONTINUOUS
 62
     7
100
AcDbLine
 10
228.04530590495
 20
364.28846153846
 30
0.0
 11
242.54530590495
 21
364.28846153846
 31
0.0
  0
LINE
  5
496
330
18
100
AcDbEntity
  8
1
  6
CONTINUOUS
 62
     7
100
AcDbLine
 10
242.54530590495
 20
364.28846153846
 30
0.0
 11
236.5453059049499
 21
362.78846153846
 31
0.0
  0
LINE
  5
497
330
18
100
AcDbEntity
  8
1
  6
CONTINUOUS
 62
     7
100
AcDbLine
 10
236.5453059049499
 20
362.78846153846
 30
0.0
 11
236.5453059049499
 21
363.28846153846
 31
0.0
  0
LINE
  5
498
330
18
100
AcDbEntity
  8
1
  6
CONTINUOUS
 62
     7
100
AcDbLine
 10
236.5453059049499
 20
363.28846153846
 30
0.0
 11
226.5453059049499
 21
363.28846153846
 31
0.0
  0
LINE
  5
499
330
18
100
AcDbEntity
  8
1
  6
CONTINUOUS
 62
     7
100
AcDbLine
 10
231.9453059049499
 20
375.28846153846
 30
0.0
 11
228.04530590495
 21
375.28846153846
 31
0.0
  0
LINE
  5
49A
330
18
100
AcDbEntity
  8
1
  6
CONTINUOUS
 62
     7
100
AcDbLine
 10
228.04530590495
 20
375.28846153846
 30
0.0
 11
228.04530590495
 21
376.28846153846
 31
0.0
  0
LINE
  5
49B
330
18
100
AcDbEntity
  8
1
  6
CONTINUOUS
 62
     7
100
AcDbLine
 10
228.04530590495
 20
376.28846153846
 30
0.0
 11
231.9453059049499
 21
376.28846153846
 31
0.0
  0
LINE
  5
49C
330
18
100
AcDbEntity
  8
1
  6
CONTINUOUS
 62
     7
100
AcDbLine
 10
226.5453059049499
 20
377.28846153846
 30
0.0
 11
231.9453059049499
 21
377.28846153846
 31
0.0
  0
LINE
  5
49D
330
18
100
AcDbEntity
  8
1
  6
CONTINUOUS
 62
     7
100
AcDbLine
 10
226.5453059049499
 20
363.28846153846
 30
0.0
 11
226.5453059049499
 21
377.28846153846
 31
0.0
  0
LINE
  5
49E
330
18
100
AcDbEntity
  8
1
  6
CONTINUOUS
 62
     7
100
AcDbLine
 10
186.8619141641199
 20
373.1384615384597
 30
0.0
 11
226.5453059049499
 21
373.1384615384597
 31
0.0
  0
LINE
  5
49F
330
18
100
AcDbEntity
  8
1
  6
CONTINUOUS
 62
     7
100
AcDbLine
 10
186.8619141641199
 20
367.43846153846
 30
0.0
 11
226.5453059049499
 21
367.43846153846
 31
0.0
  0
LINE
  5
4A0
330
18
100
AcDbEntity
  8
1
  6
CONTINUOUS
 62
     7
100
AcDbLine
 10
186.8619141641199
 20
388.48846153846
 30
0.0
 11
231.9453059049499
 21
388.48846153846
 31
0.0
  0
LINE
  5
4A1
330
18
100
AcDbEntity
  8
1
  6
CONTINUOUS
 62
     7
100
AcDbLine
 10
186.8619141641199
 20
380.08846153846
 30
0.0
 11
231.9453059049499
 21
380.08846153846
 31
0.0
  0
ARC
  5
4A2
330
18
100
AcDbEntity
  8
1
  6
CONTINUOUS
 62
     7
100
AcDbCircle
 10
186.8619141641199
 20
384.28846153846
 30
0.0
 40
4.2
100
AcDbArc
 50
90.0
 51
270.0
  0
ARC
  5
4A3
330
18
100
AcDbEntity
  8
1
  6
CONTINUOUS
 62
     7
100
AcDbCircle
 10
186.8619141641199
 20
370.28846153846
 30
0.0
 40
2.85
100
AcDbArc
 50
90.0
 51
270.0
  0
ARC
  5
4A4
330
18
100
AcDbEntity
  8
1
  6
CONTINUOUS
 62
     7
100
AcDbCircle
 10
186.8619141641199
 20
384.28846153846
 30
0.0
 40
6.0
100
AcDbArc
 50
44.427004000806
 51
315.5729959991897
  0
ARC
  5
4A5
330
18
100
AcDbEntity
  8
1
  6
CONTINUOUS
 62
     7
100
AcDbCircle
 10
186.8619141641099
 20
370.28846153846
 30
0.0
 40
5.0
100
AcDbArc
 50
34.750225753678
 51
325.2497742463
  0
LINE
  5
4A6
330
18
100
AcDbEntity
  8
1
  6
CONTINUOUS
 62
     7
100
AcDbLine
 10
236.5453059049499
 20
387.08846153846
 30
0.0
 11
236.5453059049499
 21
381.4884615384597
 31
0.0
  0
LINE
  5
4A7
330
18
100
AcDbEntity
  8
1
  6
CONTINUOUS
 62
     7
100
AcDbLine
 10
237.9982425307598
 20
385.53846153846
 30
0.0
 11
237.9982425307598
 21
383.03846153846
 31
0.0
  0
LINE
  5
4A8
330
18
100
AcDbEntity
  8
1
  6
CONTINUOUS
 62
     7
100
AcDbLine
 10
248.54530590495
 20
388.08846153846
 30
0.0
 11
235.0453059049498
 21
388.08846153846
 31
0.0
  0
LINE
  5
4A9
330
18
100
AcDbEntity
  8
1
  6
CONTINUOUS
 62
     7
100
AcDbLine
 10
248.54530590495
 20
380.48846153846
 30
0.0
 11
235.0453059049498
 21
380.48846153846
 31
0.0
  0
LINE
  5
4AA
330
18
100
AcDbEntity
  8
1
  6
CONTINUOUS
 62
     7
100
AcDbLine
 10
237.4982425307599
 20
386.03846153846
 30
0.0
 11
237.4982425307599
 21
382.53846153846
 31
0.0
  0
LINE
  5
4AB
330
18
100
AcDbEntity
  8
1
  6
CONTINUOUS
 62
     7
100
AcDbLine
 10
242.54530590495
 20
387.08846153846
 30
0.0
 11
236.5453059049499
 21
387.08846153846
 31
0.0
  0
LINE
  5
4AC
330
18
100
AcDbEntity
  8
1
  6
CONTINUOUS
 62
     7
100
AcDbLine
 10
242.54530590495
 20
386.03846153846
 30
0.0
 11
237.4982425307599
 21
386.03846153846
 31
0.0
  0
LINE
  5
4AD
330
18
100
AcDbEntity
  8
1
  6
CONTINUOUS
 62
     7
100
AcDbLine
 10
242.54530590495
 20
382.53846153846
 30
0.0
 11
237.4982425307599
 21
382.53846153846
 31
0.0
  0
LINE
  5
4AE
330
18
100
AcDbEntity
  8
1
  6
CONTINUOUS
 62
     7
100
AcDbLine
 10
236.5453059049499
 20
381.4884615384597
 30
0.0
 11
242.54530590495
 21
381.4884615384597
 31
0.0
  0
LINE
  5
4AF
330
18
100
AcDbEntity
  8
1
  6
CONTINUOUS
 62
     7
100
AcDbLine
 10
242.54530590495
 20
387.08846153846
 30
0.0
 11
242.54530590495
 21
386.03846153846
 31
0.0
  0
LINE
  5
4B0
330
18
100
AcDbEntity
  8
1
  6
CONTINUOUS
 62
     7
100
AcDbLine
 10
242.54530590495
 20
382.53846153846
 30
0.0
 11
242.54530590495
 21
381.4884615384597
 31
0.0
  0
LINE
  5
4B1
330
18
100
AcDbEntity
  8
1
  6
CONTINUOUS
 62
     7
100
AcDbLine
 10
242.54530590495
 20
387.08846153846
 30
0.0
 11
248.54530590495
 21
387.08846153846
 31
0.0
  0
LINE
  5
4B2
330
18
100
AcDbEntity
  8
1
  6
CONTINUOUS
 62
     7
100
AcDbLine
 10
242.54530590495
 20
381.4884615384597
 30
0.0
 11
248.54530590495
 21
381.4884615384597
 31
0.0
  0
LINE
  5
4B3
330
18
100
AcDbEntity
  8
1
  6
CONTINUOUS
 62
     7
100
AcDbLine
 10
245.5453059049499
 20
385.53846153846
 30
0.0
 11
245.5453059049499
 21
383.03846153846
 31
0.0
  0
LINE
  5
4B4
330
18
100
AcDbEntity
  8
1
  6
CONTINUOUS
 62
     7
100
AcDbLine
 10
237.9982425307598
 20
385.53846153846
 30
0.0
 11
245.5453059049499
 21
385.53846153846
 31
0.0
  0
LINE
  5
4B5
330
18
100
AcDbEntity
  8
1
  6
CONTINUOUS
 62
     7
100
AcDbLine
 10
237.9982425307598
 20
383.03846153846
 30
0.0
 11
245.5453059049499
 21
383.03846153846
 31
0.0
  0
LINE
  5
4B6
330
18
100
AcDbEntity
  8
1
  6
DASHDOT
 62
     1
100
AcDbLine
 10
179.14505229238
 20
384.28846153846
 30
0.0
 11
252.53602811951
 21
384.28846153846
 31
0.0
  0
LINE
  5
4B7
330
18
100
AcDbEntity
  8
1
  6
DASHDOT
 62
     1
100
AcDbLine
 10
186.8619141641199
 20
386.52235566067
 30
0.0
 11
186.8619141641199
 21
381.62417334551
 31
0.0
  0
LINE
  5
4B8
330
18
100
AcDbEntity
  8
1
  6
DASHDOT
 62
     1
100
AcDbLine
 10
179.14505229238
 20
370.28846153846
 30
0.0
 11
252.53602811951
 21
370.28846153846
 31
0.0
  0
LINE
  5
4B9
330
18
100
AcDbEntity
  8
1
  6
DASHDOT
 62
     1
100
AcDbLine
 10
186.8619141641199
 20
371.9808769125498
 30
0.0
 11
186.8619141641199
 21
367.43846153846
 31
0.0
  0
LINE
  5
4BA
330
18
100
AcDbEntity
  8
1
  6
CONTINUOUS
 62
     7
100
AcDbLine
 10
323.66191416412
 20
388.98846153846
 30
0.0
 11
332.86191416412
 21
388.98846153846
 31
0.0
  0
LINE
  5
4BB
330
18
100
AcDbEntity
  8
1
  6
CONTINUOUS
 62
     7
100
AcDbLine
 10
323.66191416412
 20
365.58846153846
 30
0.0
 11
332.86191416412
 21
365.58846153846
 31
0.0
  0
LINE
  5
4BC
330
18
100
AcDbEntity
  8
1
  6
CONTINUOUS
 62
     7
100
AcDbLine
 10
336.86191416412
 20
399.78846153846
 30
0.0
 11
336.86191416412
 21
354.7884615384599
 31
0.0
  0
LINE
  5
4BD
330
18
100
AcDbEntity
  8
1
  6
CONTINUOUS
 62
     7
100
AcDbLine
 10
332.86191416412
 20
388.98846153846
 30
0.0
 11
336.86191416412
 21
388.98846153846
 31
0.0
  0
LINE
  5
4BE
330
18
100
AcDbEntity
  8
1
  6
CONTINUOUS
 62
     7
100
AcDbLine
 10
332.86191416412
 20
365.58846153846
 30
0.0
 11
336.86191416412
 21
365.58846153846
 31
0.0
  0
LINE
  5
4BF
330
18
100
AcDbEntity
  8
1
  6
CONTINUOUS
 62
     7
100
AcDbLine
 10
303.18478981965
 20
355.78846153846
 30
0.0
 11
336.86191416412
 21
355.78846153846
 31
0.0
  0
LINE
  5
4C0
330
18
100
AcDbEntity
  8
1
  6
CONTINUOUS
 62
     7
100
AcDbLine
 10
303.18478981965
 20
398.78846153846
 30
0.0
 11
336.86191416412
 21
398.78846153846
 31
0.0
  0
LINE
  5
4C1
330
18
100
AcDbEntity
  8
1
  6
CONTINUOUS
 62
     7
100
AcDbLine
 10
343.86191416412
 20
354.7884615384599
 30
0.0
 11
343.86191416412
 21
399.78846153846
 31
0.0
  0
LINE
  5
4C2
330
18
100
AcDbEntity
  8
1
  6
CONTINUOUS
 62
     7
100
AcDbLine
 10
336.86191416412
 20
354.7884615384599
 30
0.0
 11
343.86191416412
 21
354.7884615384599
 31
0.0
  0
LINE
  5
4C3
330
18
100
AcDbEntity
  8
1
  6
HIDDEN
 62
     7
100
AcDbLine
 10
336.86191416412
 20
396.53846153846
 30
0.0
 11
343.86191416412
 21
396.53846153846
 31
0.0
  0
LINE
  5
4C4
330
18
100
AcDbEntity
  8
1
  6
HIDDEN
 62
     7
100
AcDbLine
 10
336.86191416412
 20
392.03846153846
 30
0.0
 11
343.86191416412
 21
392.03846153846
 31
0.0
  0
LINE
  5
4C5
330
18
100
AcDbEntity
  8
1
  6
HIDDEN
 62
     7
100
AcDbLine
 10
336.86191416412
 20
358.03846153846
 30
0.0
 11
343.86191416412
 21
358.03846153846
 31
0.0
  0
LINE
  5
4C6
330
18
100
AcDbEntity
  8
1
  6
HIDDEN
 62
     7
100
AcDbLine
 10
336.86191416412
 20
362.53846153846
 30
0.0
 11
343.86191416412
 21
362.53846153846
 31
0.0
  0
LINE
  5
4C7
330
18
100
AcDbEntity
  8
1
  6
CONTINUOUS
 62
     7
100
AcDbLine
 10
343.86191416412
 20
399.78846153846
 30
0.0
 11
336.86191416412
 21
399.78846153846
 31
0.0
  0
LINE
  5
4C8
330
18
100
AcDbEntity
  8
1
  6
CONTINUOUS
 62
     7
100
AcDbLine
 10
346.86191416412
 20
384.78846153846
 30
0.0
 11
346.86191416412
 21
392.28846153846
 31
0.0
  0
LINE
  5
4C9
330
18
100
AcDbEntity
  8
1
  6
CONTINUOUS
 62
     7
100
AcDbLine
 10
343.86191416412
 20
392.28846153846
 30
0.0
 11
346.86191416412
 21
392.28846153846
 31
0.0
  0
LINE
  5
4CA
330
18
100
AcDbEntity
  8
1
  6
CONTINUOUS
 62
     7
100
AcDbLine
 10
343.86191416412
 20
362.28846153846
 30
0.0
 11
346.86191416412
 21
362.28846153846
 31
0.0
  0
LINE
  5
4CB
330
18
100
AcDbEntity
  8
1
  6
CONTINUOUS
 62
     7
100
AcDbLine
 10
346.86191416412
 20
384.78846153846
 30
0.0
 11
346.86191416412
 21
362.28846153846
 31
0.0
  0
LINE
  5
4CC
330
18
100
AcDbEntity
  8
1
  6
DASHDOT
 62
     1
100
AcDbLine
 10
334.3193166893498
 20
394.2884615384599
 30
0.0
 11
346.6585942384999
 21
394.2884615384599
 31
0.0
  0
LINE
  5
4CD
330
18
100
AcDbEntity
  8
1
  6
DASHDOT
 62
     1
100
AcDbLine
 10
334.17299753068
 20
360.28846153846
 30
0.0
 11
346.21963676251
 21
360.28846153846
 31
0.0
  0
TEXT
  5
4CE
330
18
100
AcDbEntity
  8
254
 62
     3
100
AcDbText
 10
476.00453542323
 20
56.130621534036
 30
0.0
 40
5.25
  1
０５/１１/１７
 41
0.9
100
AcDbText
  0
TEXT
  5
4CF
330
18
100
AcDbEntity
  8
254
 62
     3
100
AcDbText
 10
469.9606865179298
 20
16.8788118
 30
0.0
 40
6.0
  1
ＳＣＮ５－０１－００－０１Ａ
 41
0.9
100
AcDbText
  0
TEXT
  5
4D0
330
18
100
AcDbEntity
  8
0
 62
     3
100
AcDbText
 10
557.4217014826
 20
73.50381179999998
 30
0.0
 40
6.75
  1
藤田
 41
0.77777777777778
100
AcDbText
  0
INSERT
  5
4D1
330
18
100
AcDbEntity
  8
0
100
AcDbBlockReference
  2
GMM001
 10
465.36161457332
 20
75.240109635278
 30
0.0
 41
1.5
 42
1.5
  0
LINE
  5
4D2
330
18
100
AcDbEntity
  8
1
  6
CONTINUOUS
 62
     7
100
AcDbLine
 10
354.86191416412
 20
184.3963119370999
 30
0.0
 11
354.86191416412
 21
169.3963119371
 31
0.0
  0
LINE
  5
4D3
330
18
100
AcDbEntity
  8
1
  6
CONTINUOUS
 62
     7
100
AcDbLine
 10
362.86191416412
 20
180.8963119371
 30
0.0
 11
382.86191416412
 21
180.8963119371
 31
0.0
  0
LINE
  5
4D4
330
18
100
AcDbEntity
  8
1
  6
CONTINUOUS
 62
     7
100
AcDbLine
 10
362.86191416412
 20
172.8963119371
 30
0.0
 11
382.86191416412
 21
172.8963119371
 31
0.0
  0
LINE
  5
4D5
330
18
100
AcDbEntity
  8
1
  6
CONTINUOUS
 62
     7
100
AcDbLine
 10
362.86191416412
 20
171.8963119370999
 30
0.0
 11
362.86191416412
 21
181.8963119371
 31
0.0
  0
LINE
  5
4D6
330
18
100
AcDbEntity
  8
1
  6
CONTINUOUS
 62
     7
100
AcDbLine
 10
355.86191416412
 20
181.73372338328
 30
0.0
 11
355.86191416412
 21
172.0132605177
 31
0.0
  0
LINE
  5
4D7
330
18
100
AcDbEntity
  8
1
  6
CONTINUOUS
 62
     7
100
AcDbLine
 10
361.36191416412
 20
169.8963119371
 30
0.0
 11
361.36191416412
 21
183.8963119370999
 31
0.0
  0
LINE
  5
4D8
330
18
100
AcDbEntity
  8
1
  6
CONTINUOUS
 62
     7
100
AcDbLine
 10
361.36191416412
 20
181.8963119371
 30
0.0
 11
382.86191416412
 21
181.8963119371
 31
0.0
  0
LINE
  5
4D9
330
18
100
AcDbEntity
  8
1
  6
CONTINUOUS
 62
     7
100
AcDbLine
 10
382.86191416412
 20
171.8963119370999
 30
0.0
 11
361.36191416412
 21
171.8963119370999
 31
0.0
  0
LINE
  5
4DA
330
18
100
AcDbEntity
  8
1
  6
CONTINUOUS
 62
     7
100
AcDbLine
 10
361.36191416412
 20
181.73372338328
 30
0.0
 11
355.86191416412
 21
181.73372338328
 31
0.0
  0
LINE
  5
4DB
330
18
100
AcDbEntity
  8
1
  6
CONTINUOUS
 62
     7
100
AcDbLine
 10
355.86191416412
 20
172.0132605177
 30
0.0
 11
361.36191416412
 21
172.0132605177
 31
0.0
  0
LINE
  5
4DC
330
18
100
AcDbEntity
  8
1
  6
CONTINUOUS
 62
     7
100
AcDbLine
 10
354.86191416412
 20
183.8963119370999
 30
0.0
 11
361.36191416412
 21
183.8963119370999
 31
0.0
  0
LINE
  5
4DD
330
18
100
AcDbEntity
  8
1
  6
CONTINUOUS
 62
     7
100
AcDbLine
 10
361.36191416412
 20
169.8963119371
 30
0.0
 11
354.86191416412
 21
169.8963119371
 31
0.0
  0
LINE
  5
4DE
330
18
100
AcDbEntity
  8
1
  6
CONTINUOUS
 62
     7
100
AcDbLine
 10
355.86191416412
 20
172.0132605177
 30
0.0
 11
361.36191416412
 21
181.73372338328
 31
0.0
  0
LINE
  5
4DF
330
18
100
AcDbEntity
  8
1
  6
CONTINUOUS
 62
     7
100
AcDbLine
 10
355.86191416412
 20
181.73372338328
 30
0.0
 11
361.36191416412
 21
172.0132605177
 31
0.0
  0
LINE
  5
4E0
330
18
100
AcDbEntity
  8
1
  6
CONTINUOUS
 62
     7
100
AcDbLine
 10
382.86191416412
 20
181.8963119371
 30
0.0
 11
382.86191416412
 21
171.8963119370999
 31
0.0
  0
LINE
  5
4E1
330
18
100
AcDbEntity
  8
1
  6
CONTINUOUS
 62
     7
100
AcDbLine
 10
346.86191416412
 20
184.3963119370999
 30
0.0
 11
354.86191416412
 21
184.3963119370999
 31
0.0
  0
LINE
  5
4E2
330
18
100
AcDbEntity
  8
1
  6
CONTINUOUS
 62
     7
100
AcDbLine
 10
346.86191416412
 20
169.3963119371
 30
0.0
 11
354.86191416412
 21
169.3963119371
 31
0.0
  0
DIMENSION
  5
4E3
330
18
100
AcDbEntity
  8
0
  6
CONTINUOUS
 62
     3
100
AcDbDimension
  2
*D8
 10
382.86191416412
 20
151.8963119371
 30
0.0
 11
372.86191416412
 21
151.8963119371
 31
0.0
  3
GMM001
100
AcDbAlignedDimension
 13
362.86191416412
 23
171.8963119370999
 33
0.0
 14
382.86191416412
 24
171.8963119370999
 34
0.0
100
AcDbRotatedDimension
  0
DIMENSION
  5
4E4
330
18
100
AcDbEntity
  8
0
  6
CONTINUOUS
 62
     3
100
AcDbDimension
  2
*D9
 10
402.86191416412
 20
184.3963119370999
 30
0.0
 11
402.86191416412
 21
176.8963119371
 31
0.0
  3
GMM005
100
AcDbAlignedDimension
 13
354.86191416412
 23
169.3963119371
 33
0.0
 14
354.86191416412
 24
184.3963119370999
 34
0.0
 50
90.0
100
AcDbRotatedDimension
  0
TEXT
  5
4E5
330
18
100
AcDbEntity
  8
0
 62
     3
100
AcDbText
 10
412.24568283285
 20
181.59428794031
 30
0.0
 40
2.25
  1
　０
 50
90.0
 41
0.77777777777778
100
AcDbText
  0
TEXT
  5
4E6
330
18
100
AcDbEntity
  8
0
 62
     3
100
AcDbText
 10
414.5980095185099
 20
181.6151806278697
 30
0.0
 40
2.25
  1
－０.０３３
 50
90.0
 41
0.77777777777778
100
AcDbText
  0
LEADER
  5
4E7
330
18
100
AcDbEntity
  8
0
  6
CONTINUOUS
 62
     1
100
AcDbLeader
  3
GMM004
 73
     0
 74
     0
 75
     1
 40
6.75
 41
44.625
 76
     3
 10
372.9062499999998
 20
181.8963119371
 30
0.0
 10
382.9158653846201
 20
217.10096153846
 30
0.0
 10
385.9158653846201
 20
217.10096153846
 30
0.0
340
4E8
213
0.0
223
-0.75
233
0.0
1001
ACAD
1000
DSTYLE
1002
{
1070
     6
1000
OPEN30
1070
   343
1005
160
1002
}
1000
LEANOF
1010
0.0
1020
-0.75
1030
0.0
  0
MTEXT
  5
4E8
330
18
100
AcDbEntity
  8
0
 62
     3
100
AcDbMText
 10
385.9158653846201
 20
217.85096153846
 30
0.0
 40
6.75
 41
0.0
 71
     7
 72
     1
  1
\A1;Ｍ１０×Ｐ１.２５
  7
GMM001
1001
ACAD
1000
MTEXTBEGIN
1070
    73
1070
     1
1070
    44
1040
1.0
1070
    74
1070
     0
1000
MTEXTEND
1000
MTEXTBEGIN
1070
    73
1070
     1
1070
    44
1040
1.0
1070
    74
1070
     0
1000
MTEXTEND
1000
MTEXTBEGIN
1070
    73
1070
     1
1070
    44
1040
1.0
1070
    74
1070
     0
1000
MTEXTEND
  0
LEADER
  5
4E9
330
18
100
AcDbEntity
  8
0
  6
CONTINUOUS
 62
     1
100
AcDbLeader
  3
GMM004
 73
     0
 74
     0
 75
     1
 40
6.75
 41
52.5
 76
     3
 10
357.99278846154
 20
181.73372338328
 30
0.0
 10
376.88701923077
 20
234.3413461538499
 30
0.0
 10
379.88701923077
 20
234.3413461538499
 30
0.0
340
4EA
213
0.0
223
-0.75
233
0.0
1001
ACAD
1000
DSTYLE
1002
{
1070
     6
1000
OPEN30
1070
   343
1005
160
1002
}
1000
LEANOF
1010
0.0
1020
-0.75
1030
0.0
  0
MTEXT
  5
4EA
330
18
100
AcDbEntity
  8
0
 62
     3
100
AcDbMText
 10
379.88701923077
 20
235.09134615385
 30
0.0
 40
6.75
 41
0.0
 71
     7
 72
     1
  1
\A1;スパナ掛け２面幅１０
  7
GMM001
1001
ACAD
1000
MTEXTBEGIN
1070
    73
1070
     1
1070
    44
1040
1.0
1070
    74
1070
     0
1000
MTEXTEND
1000
MTEXTBEGIN
1070
    73
1070
     1
1070
    44
1040
1.0
1070
    74
1070
     0
1000
MTEXTEND
1000
MTEXTBEGIN
1070
    73
1070
     1
1070
    44
1040
1.0
1070
    74
1070
     0
1000
MTEXTEND
  0
DIMENSION
  5
4EB
330
18
100
AcDbEntity
  8
0
  6
CONTINUOUS
 62
     3
100
AcDbDimension
  2
*D10
 10
361.36191416412
 20
136.8963119370999
 30
0.0
 11
356.2585733881998
 21
136.8963119370999
 31
0.0
 70
   128
  3
GMM006
100
AcDbAlignedDimension
 13
355.86191416412
 23
172.0132605177
 33
0.0
 14
361.36191416412
 24
169.8963119371
 34
0.0
100
AcDbRotatedDimension
  0
DIMENSION
  5
4EC
330
18
100
AcDbEntity
  8
0
  6
CONTINUOUS
 62
     3
100
AcDbDimension
  2
*D11
 10
382.86191416412
 20
136.8963119370999
 30
0.0
 11
373.61976727686
 21
136.8963119370999
 31
0.0
 70
   128
  3
GMM007
100
AcDbAlignedDimension
 13
361.36191416412
 23
169.8963119371
 33
0.0
 14
382.86191416412
 24
171.8963119370999
 34
0.0
100
AcDbRotatedDimension
  0
TEXT
  5
4ED
330
18
100
AcDbEntity
  8
0
 62
     3
100
AcDbText
 10
483.1717014826
 20
73.50381179999998
 30
0.0
 40
6.75
  1
平面図修正、寸法修正
 41
0.77777777777778
100
AcDbText
  0
INSERT
  5
4EE
330
18
100
AcDbEntity
  8
0
100
AcDbBlockReference
  2
GMM001
 10
374.13065843621
 20
126.82633771613
 30
0.0
 41
1.5
 42
1.5
  0
INSERT
  5
4EF
330
18
100
AcDbEntity
  8
0
100
AcDbBlockReference
  2
GMM001
 10
349.9022633744899
 20
404.41893030872
 30
0.0
 41
1.5
 42
1.5
  0
LINE
  5
4F0
330
18
100
AcDbEntity
  8
1
  6
CONTINUOUS
 62
     7
100
AcDbLine
 10
354.86191416412
 20
384.78846153846
 30
0.0
 11
354.86191416412
 21
369.78846153846
 31
0.0
  0
LINE
  5
4F1
330
18
100
AcDbEntity
  8
1
  6
CONTINUOUS
 62
     7
100
AcDbLine
 10
362.86191416412
 20
372.28846153846
 30
0.0
 11
362.86191416412
 21
382.28846153846
 31
0.0
  0
LINE
  5
4F2
330
18
100
AcDbEntity
  8
1
  6
CONTINUOUS
 62
     7
100
AcDbLine
 10
346.86191416412
 20
384.78846153846
 30
0.0
 11
354.86191416412
 21
384.78846153846
 31
0.0
  0
LINE
  5
4F3
330
18
100
AcDbEntity
  8
1
  6
CONTINUOUS
 62
     7
100
AcDbLine
 10
346.86191416412
 20
369.78846153846
 30
0.0
 11
354.86191416412
 21
369.78846153846
 31
0.0
  0
LINE
  5
4F4
330
18
100
AcDbEntity
  8
1
  6
CONTINUOUS
 62
     7
100
AcDbLine
 10
360.86191416412
 20
382.28846153846
 30
0.0
 11
355.86191416412
 21
382.28846153846
 31
0.0
  0
LINE
  5
4F5
330
18
100
AcDbEntity
  8
1
  6
CONTINUOUS
 62
     7
100
AcDbLine
 10
355.86191416412
 20
372.28846153846
 30
0.0
 11
360.86191416412
 21
372.28846153846
 31
0.0
  0
LINE
  5
4F6
330
18
100
AcDbEntity
  8
1
  6
CONTINUOUS
 62
     7
100
AcDbLine
 10
355.86191416412
 20
382.28846153846
 30
0.0
 11
355.86191416412
 21
384.28846153846
 31
0.0
  0
LINE
  5
4F7
330
18
100
AcDbEntity
  8
1
  6
CONTINUOUS
 62
     7
100
AcDbLine
 10
355.86191416412
 20
372.28846153846
 30
0.0
 11
355.86191416412
 21
370.28846153846
 31
0.0
  0
LINE
  5
4F8
330
18
100
AcDbEntity
  8
1
  6
CONTINUOUS
 62
     7
100
AcDbLine
 10
354.86191416412
 20
384.28846153846
 30
0.0
 11
355.86191416412
 21
384.28846153846
 31
0.0
  0
LINE
  5
4F9
330
18
100
AcDbEntity
  8
1
  6
CONTINUOUS
 62
     7
100
AcDbLine
 10
355.86191416412
 20
370.28846153846
 30
0.0
 11
354.86191416412
 21
370.28846153846
 31
0.0
  0
LINE
  5
4FA
330
18
100
AcDbEntity
  8
1
  6
CONTINUOUS
 62
     7
100
AcDbLine
 10
361.36191416412
 20
372.28846153846
 30
0.0
 11
361.36191416412
 21
382.28846153846
 31
0.0
  0
LINE
  5
4FB
330
18
100
AcDbEntity
  8
1
  6
CONTINUOUS
 62
     7
100
AcDbLine
 10
360.86191416412
 20
382.28846153846
 30
0.0
 11
382.86191416412
 21
382.28846153846
 31
0.0
  0
LINE
  5
4FC
330
18
100
AcDbEntity
  8
1
  6
CONTINUOUS
 62
     7
100
AcDbLine
 10
362.86191416412
 20
381.28846153846
 30
0.0
 11
382.86191416412
 21
381.28846153846
 31
0.0
  0
LINE
  5
4FD
330
18
100
AcDbEntity
  8
1
  6
CONTINUOUS
 62
     7
100
AcDbLine
 10
382.86191416412
 20
372.28846153846
 30
0.0
 11
360.86191416412
 21
372.28846153846
 31
0.0
  0
LINE
  5
4FE
330
18
100
AcDbEntity
  8
1
  6
CONTINUOUS
 62
     7
100
AcDbLine
 10
362.86191416412
 20
373.28846153846
 30
0.0
 11
382.86191416412
 21
373.28846153846
 31
0.0
  0
LINE
  5
4FF
330
18
100
AcDbEntity
  8
1
  6
CONTINUOUS
 62
     7
100
AcDbLine
 10
382.86191416412
 20
382.28846153846
 30
0.0
 11
382.86191416412
 21
372.28846153846
 31
0.0
  0
LINE
  5
500
330
18
100
AcDbEntity
  8
1
  6
CONTINUOUS
 62
     7
100
AcDbLine
 10
180.8619141641199
 20
222.8963119371
 30
0.0
 11
180.8619141641199
 21
216.3963119371
 31
0.0
  0
LINE
  5
501
330
18
100
AcDbEntity
  8
1
  6
CONTINUOUS
 62
     7
100
AcDbLine
 10
177.8619141641199
 20
220.8963119370999
 30
0.0
 11
177.8619141641199
 21
155.3963119370999
 31
0.0
  0
ARC
  5
502
330
18
100
AcDbEntity
  8
1
  6
CONTINUOUS
 62
     7
100
AcDbCircle
 10
178.3619141641199
 20
155.3963119370999
 30
0.0
 40
0.5
100
AcDbArc
 50
180.0
 51
269.99999999975
  0
ARC
  5
503
330
18
100
AcDbEntity
  8
1
  6
CONTINUOUS
 62
     7
100
AcDbCircle
 10
179.8619141641199
 20
220.8963119370999
 30
0.0
 40
2.0
100
AcDbArc
 50
90.0
 51
179.9999999999698
  0
LINE
  5
504
330
18
100
AcDbEntity
  8
1
  6
CONTINUOUS
 62
     7
100
AcDbLine
 10
179.8619141641199
 20
222.8963119371
 30
0.0
 11
180.8619141641199
 21
222.8963119371
 31
0.0
  0
LINE
  5
505
330
18
100
AcDbEntity
  8
1
  6
CONTINUOUS
 62
     7
100
AcDbLine
 10
178.3619141641199
 20
154.8963119371
 30
0.0
 11
193.8619141641199
 21
154.8963119371
 31
0.0
  0
LINE
  5
506
330
18
100
AcDbEntity
  8
1
  6
CONTINUOUS
 62
     7
100
AcDbLine
 10
179.3619141641199
 20
218.1463119371
 30
0.0
 11
179.3619141641199
 21
220.6463119371
 31
0.0
  0
ARC
  5
507
330
18
100
AcDbEntity
  8
1
  6
CONTINUOUS
 62
     7
100
AcDbCircle
 10
180.8619141641199
 20
218.1463119371
 30
0.0
 40
1.5
100
AcDbArc
 50
180.0
 51
270.00000000002
  0
ARC
  5
508
330
18
100
AcDbEntity
  8
1
  6
CONTINUOUS
 62
     7
100
AcDbCircle
 10
180.8619141641199
 20
220.6463119371
 30
0.0
 40
1.5
100
AcDbArc
 50
90.0
 51
179.9999999999
  0
LINE
  5
509
330
18
100
AcDbEntity
  8
1
  6
CONTINUOUS
 62
     7
100
AcDbLine
 10
180.8619141641199
 20
216.3963119371
 30
0.0
 11
177.8619141641199
 21
216.3963119371
 31
0.0
  0
LINE
  5
50A
330
18
100
AcDbEntity
  8
1
  6
DASHDOT
 62
     1
100
AcDbLine
 10
183.004334054
 20
219.3963119370998
 30
0.0
 11
175.6477721081198
 21
219.3963119370998
 31
0.0
  0
DIMENSION
  5
50B
330
18
100
AcDbEntity
  8
0
  6
CONTINUOUS
 62
     3
100
AcDbDimension
  2
*D12
 10
303.86191416412
 20
300.7551123016098
 30
0.0
 11
240.86191416412
 21
300.7551123016098
 31
0.0
  1
\A1;(127)
  3
GMM008
100
AcDbAlignedDimension
 13
177.8619141641199
 23
220.8963119370999
 33
0.0
 14
303.86191416412
 24
219.92349219381
 34
0.0
100
AcDbRotatedDimension
  0
DIMENSION
  5
50C
330
18
100
AcDbEntity
  8
0
  6
CONTINUOUS
 62
     3
100
AcDbDimension
  2
*D13
 10
316.8661378011297
 20
315.7551123016098
 30
0.0
 11
247.36402598262
 21
315.7551123016098
 31
0.0
  1
\A1;(140)
  3
GMM008
100
AcDbAlignedDimension
 13
177.8619141641199
 23
220.8963119370999
 33
0.0
 14
316.8661378011297
 24
199.20350296158
 34
0.0
100
AcDbRotatedDimension
  0
LINE
  5
50D
330
18
100
AcDbEntity
  8
1
  6
DASHDOT
 62
     1
100
AcDbLine
 10
386.9585437043799
 20
176.8963119371
 30
0.0
 11
174.6204989711899
 21
176.8963119371
 31
0.0
  0
DIMENSION
  5
50E
330
18
100
AcDbEntity
  8
0
  6
CONTINUOUS
 62
     3
100
AcDbDimension
  2
*D14
 10
343.86191416412
 20
121.8963119370999
 30
0.0
 11
260.86191416412
 21
121.8963119370999
 31
0.0
  1
\A1;L
  3
GMM008
100
AcDbAlignedDimension
 13
177.8619141641199
 23
155.3963119370999
 33
0.0
 14
343.86191416412
 24
154.3963119370999
 34
0.0
100
AcDbRotatedDimension
  0
DIMENSION
  5
50F
330
18
100
AcDbEntity
  8
0
  6
CONTINUOUS
 62
     3
100
AcDbDimension
  2
*D15
 10
346.86191416412
 20
121.8963119370999
 30
0.0
 11
345.36191416412
 21
121.8963119370999
 31
0.0
  3
GMM009
100
AcDbAlignedDimension
 13
343.86191416412
 23
154.3963119370999
 33
0.0
 14
346.86191416412
 24
161.8963119370999
 34
0.0
100
AcDbRotatedDimension
  0
DIMENSION
  5
510
330
18
100
AcDbEntity
  8
0
  6
CONTINUOUS
 62
     3
100
AcDbDimension
  2
*D16
 10
382.86191416412
 20
121.8963119370999
 30
0.0
 11
364.86191416412
 21
121.8963119370999
 31
0.0
  3
GMM001
100
AcDbAlignedDimension
 13
346.86191416412
 23
161.8963119370999
 33
0.0
 14
382.86191416412
 24
171.8963119370999
 34
0.0
100
AcDbRotatedDimension
  0
LINE
  5
511
330
18
100
AcDbEntity
  8
1
  6
CONTINUOUS
 62
     7
100
AcDbLine
 10
177.8619141641199
 20
357.28846153846
 30
0.0
 11
177.8619141641199
 21
397.28846153846
 31
0.0
  0
ARC
  5
512
330
18
100
AcDbEntity
  8
1
  6
CONTINUOUS
 62
     7
100
AcDbCircle
 10
179.86191416411
 20
357.28846153846
 30
0.0
 40
2.0
100
AcDbArc
 50
180.0
 51
270.0000000000299
  0
ARC
  5
513
330
18
100
AcDbEntity
  8
1
  6
CONTINUOUS
 62
     7
100
AcDbCircle
 10
180.3619141641199
 20
357.53846153846
 30
0.0
 40
1.5
100
AcDbArc
 50
180.0
 51
270.00000000007
  0
LINE
  5
514
330
18
100
AcDbEntity
  8
1
  6
CONTINUOUS
 62
     7
100
AcDbLine
 10
180.8619141641199
 20
356.03846153846
 30
0.0
 11
180.3619141641199
 21
356.03846153846
 31
0.0
  0
LINE
  5
515
330
18
100
AcDbEntity
  8
1
  6
CONTINUOUS
 62
     7
100
AcDbLine
 10
180.8619141641199
 20
361.8884615384597
 30
0.0
 11
180.8619141641199
 21
355.28846153846
 31
0.0
  0
ARC
  5
516
330
18
100
AcDbEntity
  8
1
  6
CONTINUOUS
 62
     7
100
AcDbCircle
 10
180.3619141641199
 20
360.03846153846
 30
0.0
 40
1.5
100
AcDbArc
 50
90.0
 51
179.99999999992
  0
LINE
  5
517
330
18
100
AcDbEntity
  8
1
  6
CONTINUOUS
 62
     7
100
AcDbLine
 10
177.8619141641199
 20
361.8884615384597
 30
0.0
 11
180.8619141641199
 21
361.8884615384597
 31
0.0
  0
LINE
  5
518
330
18
100
AcDbEntity
  8
1
  6
CONTINUOUS
 62
     7
100
AcDbLine
 10
180.3619141641199
 20
361.53846153846
 30
0.0
 11
180.8619141641199
 21
361.53846153846
 31
0.0
  0
LINE
  5
519
330
18
100
AcDbEntity
  8
1
  6
CONTINUOUS
 62
     7
100
AcDbLine
 10
178.8619141641199
 20
357.53846153846
 30
0.0
 11
178.8619141641199
 21
360.03846153846
 31
0.0
  0
LINE
  5
51A
330
18
100
AcDbEntity
  8
1
  6
CONTINUOUS
 62
     7
100
AcDbLine
 10
177.8619141641199
 20
392.6884615384597
 30
0.0
 11
180.8619141641199
 21
392.6884615384597
 31
0.0
  0
LINE
  5
51B
330
18
100
AcDbEntity
  8
1
  6
CONTINUOUS
 62
     7
100
AcDbLine
 10
180.8619141641199
 20
392.6884615384597
 30
0.0
 11
180.8619141641199
 21
399.28846153846
 31
0.0
  0
LINE
  5
51C
330
18
100
AcDbEntity
  8
1
  6
CONTINUOUS
 62
     7
100
AcDbLine
 10
180.8619141641199
 20
393.03846153846
 30
0.0
 11
180.3619141641199
 21
393.03846153846
 31
0.0
  0
ARC
  5
51D
330
18
100
AcDbEntity
  8
1
  6
CONTINUOUS
 62
     7
100
AcDbCircle
 10
180.3619141641199
 20
394.53846153846
 30
0.0
 40
1.5
100
AcDbArc
 50
180.0
 51
270.0
  0
LINE
  5
51E
330
18
100
AcDbEntity
  8
1
  6
CONTINUOUS
 62
     7
100
AcDbLine
 10
178.8619141641199
 20
394.53846153846
 30
0.0
 11
178.8619141641199
 21
397.03846153846
 31
0.0
  0
ARC
  5
51F
330
18
100
AcDbEntity
  8
1
  6
CONTINUOUS
 62
     7
100
AcDbCircle
 10
179.8619141641199
 20
397.28846153846
 30
0.0
 40
2.0
100
AcDbArc
 50
90.0
 51
180.00000000011
  0
ARC
  5
520
330
18
100
AcDbEntity
  8
1
  6
CONTINUOUS
 62
     7
100
AcDbCircle
 10
180.3619141641199
 20
397.03846153847
 30
0.0
 40
1.5
100
AcDbArc
 50
90.0
 51
180.0000000002598
  0
LINE
  5
521
330
18
100
AcDbEntity
  8
1
  6
CONTINUOUS
 62
     7
100
AcDbLine
 10
180.3619141641199
 20
398.53846153846
 30
0.0
 11
180.8619141641199
 21
398.53846153846
 31
0.0
  0
LINE
  5
522
330
18
100
AcDbEntity
  8
1
  6
CONTINUOUS
 62
     7
100
AcDbLine
 10
301.86191416412
 20
355.28846153846
 30
0.0
 11
179.8619141641199
 21
355.28846153846
 31
0.0
  0
LINE
  5
523
330
18
100
AcDbEntity
  8
1
  6
CONTINUOUS
 62
     7
100
AcDbLine
 10
179.8619141641199
 20
399.28846153846
 30
0.0
 11
301.86191416412
 21
399.28846153846
 31
0.0
  0
LINE
  5
524
330
18
100
AcDbEntity
  8
1
  6
DASHDOT
 62
     1
100
AcDbLine
 10
175.9712791495199
 20
377.28846153846
 30
0.0
 11
387.97472902399
 21
377.28846153846
 31
0.0
  0
LINE
  5
525
330
18
100
AcDbEntity
  8
1
  6
DASHDOT
 62
     1
100
AcDbLine
 10
311.06191416412
 20
367.32308410691
 30
0.0
 11
311.06191416412
 21
390.2833137092
 31
0.0
  0
LINE
  5
526
330
18
100
AcDbEntity
  8
1
  6
DOT
 62
     7
100
AcDbLine
 10
457.4165220699399
 20
188.5963119370999
 30
0.0
 11
452.41652206994
 21
188.5963119370999
 31
0.0
  0
ARC
  5
527
330
18
100
AcDbEntity
  8
1
  6
DOT
 62
     7
100
AcDbCircle
 10
452.41652206994
 20
187.5963119370999
 30
0.0
 40
1.0
100
AcDbArc
 50
90.0
 51
179.99999999979
  0
LINE
  5
528
330
18
100
AcDbEntity
  8
1
  6
DOT
 62
     7
100
AcDbLine
 10
451.41652206994
 20
187.5963119370999
 30
0.0
 11
451.41652206994
 21
166.1963119370999
 31
0.0
  0
ARC
  5
529
330
18
100
AcDbEntity
  8
1
  6
DOT
 62
     7
100
AcDbCircle
 10
457.4165220699399
 20
192.3963119371
 30
0.0
 40
3.799999999999998
100
AcDbArc
 50
270.0
 51
0.0
  0
LINE
  5
52A
330
18
100
AcDbEntity
  8
1
  6
DOT
 62
     7
100
AcDbLine
 10
483.61652206994
 20
198.3963119370999
 30
0.0
 11
462.2165220699399
 21
198.3963119370999
 31
0.0
  0
ARC
  5
52B
330
18
100
AcDbEntity
  8
1
  6
DOT
 62
     7
100
AcDbCircle
 10
462.2165220699399
 20
197.3963119370999
 30
0.0
 40
1.0
100
AcDbArc
 50
90.0
 51
179.9999999999499
  0
LINE
  5
52C
330
18
100
AcDbEntity
  8
1
  6
DOT
 62
     7
100
AcDbLine
 10
461.21652206994
 20
192.3963119371
 30
0.0
 11
461.21652206994
 21
197.3963119370999
 31
0.0
  0
LINE
  5
52D
330
18
100
AcDbEntity
  8
1
  6
DOT
 62
     7
100
AcDbLine
 10
484.6165220699401
 20
192.3963119371
 30
0.0
 11
484.6165220699401
 21
197.3963119370999
 31
0.0
  0
ARC
  5
52E
330
18
100
AcDbEntity
  8
1
  6
DOT
 62
     7
100
AcDbCircle
 10
483.6165220699498
 20
197.3963119370999
 30
0.0
 40
1.0
100
AcDbArc
 50
0.0
 51
90.000000000332
  0
ARC
  5
52F
330
18
100
AcDbEntity
  8
1
  6
DOT
 62
     7
100
AcDbCircle
 10
488.41652206994
 20
192.3963119371
 30
0.0
 40
3.799999999999998
100
AcDbArc
 50
180.0
 51
269.9999999999799
  0
LINE
  5
530
330
18
100
AcDbEntity
  8
1
  6
DOT
 62
     7
100
AcDbLine
 10
488.41652206994
 20
188.5963119370999
 30
0.0
 11
493.41652206994
 21
188.5963119370999
 31
0.0
  0
LINE
  5
531
330
18
100
AcDbEntity
  8
1
  6
DOT
 62
     7
100
AcDbLine
 10
494.41652206994
 20
166.1963119370999
 30
0.0
 11
494.41652206994
 21
187.5963119370999
 31
0.0
  0
ARC
  5
532
330
18
100
AcDbEntity
  8
1
  6
DOT
 62
     7
100
AcDbCircle
 10
493.41652206994
 20
187.5963119370999
 30
0.0
 40
1.0
100
AcDbArc
 50
0.0
 51
90.0
  0
LINE
  5
533
330
18
100
AcDbEntity
  8
1
  6
DOT
 62
     7
100
AcDbLine
 10
488.41652206994
 20
165.1963119370999
 30
0.0
 11
493.41652206994
 21
165.1963119370999
 31
0.0
  0
ARC
  5
534
330
18
100
AcDbEntity
  8
1
  6
DOT
 62
     7
100
AcDbCircle
 10
493.41652206994
 20
166.1963119370999
 30
0.0
 40
1.0
100
AcDbArc
 50
270.0
 51
0.0000000001791288
  0
ARC
  5
535
330
18
100
AcDbEntity
  8
1
  6
DOT
 62
     7
100
AcDbCircle
 10
488.41652206994
 20
161.3963119371
 30
0.0
 40
3.799999999999998
100
AcDbArc
 50
90.00000000000099
 51
180.00000000001
  0
LINE
  5
536
330
18
100
AcDbEntity
  8
1
  6
DOT
 62
     7
100
AcDbLine
 10
462.2165220699399
 20
155.3963119370999
 30
0.0
 11
483.61652206994
 21
155.3963119370999
 31
0.0
  0
ARC
  5
537
330
18
100
AcDbEntity
  8
1
  6
DOT
 62
     7
100
AcDbCircle
 10
483.61652206994
 20
156.39631193711
 30
0.0
 40
1.0
100
AcDbArc
 50
270.0
 51
0.0
  0
LINE
  5
538
330
18
100
AcDbEntity
  8
1
  6
DOT
 62
     7
100
AcDbLine
 10
484.6165220699401
 20
161.3963119371
 30
0.0
 11
484.6165220699401
 21
156.3963119370999
 31
0.0
  0
LINE
  5
539
330
18
100
AcDbEntity
  8
1
  6
DOT
 62
     7
100
AcDbLine
 10
461.21652206994
 20
161.3963119371
 30
0.0
 11
461.21652206994
 21
156.3963119370999
 31
0.0
  0
ARC
  5
53A
330
18
100
AcDbEntity
  8
1
  6
DOT
 62
     7
100
AcDbCircle
 10
462.2165220699399
 20
156.3963119370999
 30
0.0
 40
1.0
100
AcDbArc
 50
180.0
 51
270.0000000002099
  0
ARC
  5
53B
330
18
100
AcDbEntity
  8
1
  6
DOT
 62
     7
100
AcDbCircle
 10
452.41652206994
 20
166.1963119370999
 30
0.0
 40
1.0
100
AcDbArc
 50
180.0
 51
270.00000000005
  0
LINE
  5
53C
330
18
100
AcDbEntity
  8
1
  6
DOT
 62
     7
100
AcDbLine
 10
457.4165220699399
 20
165.1963119370999
 30
0.0
 11
452.41652206994
 21
165.1963119370999
 31
0.0
  0
ARC
  5
53D
330
18
100
AcDbEntity
  8
1
  6
DOT
 62
     7
100
AcDbCircle
 10
457.4165220699399
 20
161.3963119371
 30
0.0
 40
3.799999999999998
100
AcDbArc
 50
0.0
 51
89.99999999998699
  0
ENDSEC
  0
SECTION
  2
OBJECTS
  0
DICTIONARY
  5
C
330
0
100
AcDbDictionary
  3
ACAD_GROUP
350
D
  3
ACAD_LAYOUT
350
545
  3
ACAD_MLINESTYLE
350
1B
  3
ACAD_PLOTSETTINGS
350
546
1001
ACAD
1000
TREAT_AS_HARD
1070
     0
  0
DICTIONARY
  5
56E
330
18
100
AcDbDictionary
  3
ACAD_LAYOUTSELFREF
350
637
1001
ACAD
1000
TREAT_AS_HARD
1070
     1
  0
DICTIONARY
  5
56C
330
15
100
AcDbDictionary
  3
ACAD_LAYOUTSELFREF
350
636
1001
ACAD
1000
TREAT_AS_HARD
1070
     1
  0
DICTIONARY
  5
D
102
{ACAD_REACTORS
330
C
102
}
330
C
100
AcDbDictionary
1001
ACAD
1000
TREAT_AS_HARD
1070
     0
  0
DICTIONARY
  5
545
102
{ACAD_REACTORS
330
C
102
}
330
C
100
AcDbDictionary
1001
ACAD
1000
TREAT_AS_HARD
1070
     0
  0
DICTIONARY
  5
1B
102
{ACAD_REACTORS
330
C
102
}
330
C
100
AcDbDictionary
  3
STANDARD
350
1C
1001
ACAD
1000
TREAT_AS_HARD
1070
     0
  0
DICTIONARY
  5
546
102
{ACAD_REACTORS
330
C
102
}
330
C
100
AcDbDictionary
1001
ACAD
1000
TREAT_AS_HARD
1070
     0
  0
XRECORD
  5
637
102
{ACAD_REACTORS
330
56E
102
}
330
56E
100
AcDbXrecord
340
18
  0
XRECORD
  5
636
102
{ACAD_REACTORS
330
56C
102
}
330
56C
100
AcDbXrecord
340
15
  0
MLINESTYLE
  5
1C
102
{ACAD_REACTORS
330
1B
102
}
330
1B
100
AcDbMlineStyle
  2
STANDARD
 70
     0
  3

 62
   256
 51
90.0
 52
90.0
 71
     2
 49
0.5
 62
   256
  6
BYLAYER
 49
-0.5
 62
   256
  6
BYLAYER
  0
ENDSEC
  0
EOF
