  0
SECTION
  2
HEADER
  9
$ACADVER
  1
AC1014
  9
$ACADMAINTVER
 70
     9
  9
$DWGCODEPAGE
  3
ANSI_932
  9
$INSBASE
 10
0.0
 20
0.0
 30
0.0
  9
$EXTMIN
 10
3.1085205
 20
13.87881179999999
 30
0.0
  9
$EXTMAX
 10
573.1085205
 20
412.8788118000001
 30
0.0
  9
$LIMMIN
 10
0.0
 20
0.0
  9
$LIMMAX
 10
630.0
 20
445.5
  9
$ORTHOMODE
 70
     0
  9
$REGENMODE
 70
     1
  9
$FILLMODE
 70
     1
  9
$QTEXTMODE
 70
     0
  9
$MIRRTEXT
 70
     1
  9
$DRAGMODE
 70
     2
  9
$LTSCALE
 40
12.6
  9
$OSMODE
 70
    39
  9
$ATTMODE
 70
     1
  9
$TEXTSIZE
 40
0.2
  9
$TRACEWID
 40
0.05
  9
$TEXTSTYLE
  7
STANDARD
  9
$CLAYER
  8
LEVEL001
  9
$CELTYPE
  6
CONTINUOUS
  9
$CECOLOR
 62
   256
  9
$CELTSCALE
 40
1.0
  9
$DELOBJ
 70
     1
  9
$DISPSILH
 70
     0
  9
$DIMSCALE
 40
1.0
  9
$DIMASZ
 40
3.0
  9
$DIMEXO
 40
3.0
  9
$DIMDLI
 40
3.0
  9
$DIMRND
 40
0.0
  9
$DIMDLE
 40
0.0
  9
$DIMEXE
 40
3.0
  9
$DIMTP
 40
0.0
  9
$DIMTM
 40
0.0
  9
$DIMTXT
 40
6.75
  9
$DIMCEN
 40
1.5
  9
$DIMTSZ
 40
0.0
  9
$DIMTOL
 70
     0
  9
$DIMLIM
 70
     0
  9
$DIMTIH
 70
     0
  9
$DIMTOH
 70
     0
  9
$DIMSE1
 70
     0
  9
$DIMSE2
 70
     0
  9
$DIMTAD
 70
     3
  9
$DIMZIN
 70
     8
  9
$DIMBLK
  1

  9
$DIMASO
 70
     1
  9
$DIMSHO
 70
     1
  9
$DIMPOST
  1

  9
$DIMAPOST
  1

  9
$DIMALT
 70
     0
  9
$DIMALTD
 70
     2
  9
$DIMALTF
 40
0.0394
  9
$DIMLFAC
 40
1.0
  9
$DIMTOFL
 70
     1
  9
$DIMTVP
 40
0.0
  9
$DIMTIX
 70
     0
  9
$DIMSOXD
 70
     0
  9
$DIMSAH
 70
     1
  9
$DIMBLK1
  1
NONE
  9
$DIMBLK2
  1
NONE
  9
$DIMSTYLE
  2
GMM009
  9
$DIMCLRD
 70
   256
  9
$DIMCLRE
 70
   256
  9
$DIMCLRT
 70
   256
  9
$DIMTFAC
 40
0.55555555555556
  9
$DIMGAP
 40
0.75
  9
$DIMJUST
 70
     0
  9
$DIMSD1
 70
     0
  9
$DIMSD2
 70
     0
  9
$DIMTOLJ
 70
     1
  9
$DIMTZIN
 70
     0
  9
$DIMALTZ
 70
     0
  9
$DIMALTTZ
 70
     0
  9
$DIMFIT
 70
     3
  9
$DIMUPT
 70
     0
  9
$DIMUNIT
 70
     2
  9
$DIMDEC
 70
     6
  9
$DIMTDEC
 70
     6
  9
$DIMALTU
 70
     2
  9
$DIMALTTD
 70
     2
  9
$DIMTXSTY
  7
GMM001
  9
$DIMAUNIT
 70
     0
  9
$LUNITS
 70
     2
  9
$LUPREC
 70
     4
  9
$SKETCHINC
 40
0.1
  9
$FILLETRAD
 40
0.0
  9
$AUNITS
 70
     0
  9
$AUPREC
 70
     0
  9
$MENU
  1
.
  9
$ELEVATION
 40
0.0
  9
$PELEVATION
 40
0.0
  9
$THICKNESS
 40
0.0
  9
$LIMCHECK
 70
     0
  9
$BLIPMODE
 70
     0
  9
$CHAMFERA
 40
0.0
  9
$CHAMFERB
 40
0.0
  9
$CHAMFERC
 40
0.0
  9
$CHAMFERD
 40
0.0
  9
$SKPOLY
 70
     0
  9
$TDCREATE
 40
2453404.571849409
  9
$TDUPDATE
 40
2453727.447367419
  9
$TDINDWG
 40
0.0321221065
  9
$TDUSRTIMER
 40
0.0321207176
  9
$USRTIMER
 70
     1
  9
$ANGBASE
 50
0.0
  9
$ANGDIR
 70
     0
  9
$PDMODE
 70
     0
  9
$PDSIZE
 40
0.0
  9
$PLINEWID
 40
0.0
  9
$COORDS
 70
     0
  9
$SPLFRAME
 70
     0
  9
$SPLINETYPE
 70
     6
  9
$SPLINESEGS
 70
     8
  9
$ATTDIA
 70
     0
  9
$ATTREQ
 70
     1
  9
$HANDLING
 70
-16383
  9
$HANDSEED
  5
91A
  9
$SURFTAB1
 70
     6
  9
$SURFTAB2
 70
     6
  9
$SURFTYPE
 70
     6
  9
$SURFU
 70
     6
  9
$SURFV
 70
     6
  9
$UCSNAME
  2

  9
$UCSORG
 10
0.0
 20
0.0
 30
0.0
  9
$UCSXDIR
 10
1.0
 20
0.0
 30
0.0
  9
$UCSYDIR
 10
0.0
 20
1.0
 30
0.0
  9
$PUCSNAME
  2

  9
$PUCSORG
 10
0.0
 20
0.0
 30
0.0
  9
$PUCSXDIR
 10
1.0
 20
0.0
 30
0.0
  9
$PUCSYDIR
 10
0.0
 20
1.0
 30
0.0
  9
$USERI1
 70
     0
  9
$USERI2
 70
     0
  9
$USERI3
 70
     0
  9
$USERI4
 70
     0
  9
$USERI5
 70
     0
  9
$USERR1
 40
0.0
  9
$USERR2
 40
0.0
  9
$USERR3
 40
0.0
  9
$USERR4
 40
0.0
  9
$USERR5
 40
0.0
  9
$WORLDVIEW
 70
     1
  9
$SHADEDGE
 70
     3
  9
$SHADEDIF
 70
    70
  9
$TILEMODE
 70
     1
  9
$MAXACTVP
 70
    64
  9
$PINSBASE
 10
0.0
 20
0.0
 30
0.0
  9
$PLIMCHECK
 70
     0
  9
$PEXTMIN
 10
1.000000000000000E+20
 20
1.000000000000000E+20
 30
1.000000000000000E+20
  9
$PEXTMAX
 10
-1.000000000000000E+20
 20
-1.000000000000000E+20
 30
-1.000000000000000E+20
  9
$PLIMMIN
 10
0.0
 20
0.0
  9
$PLIMMAX
 10
12.0
 20
9.0
  9
$UNITMODE
 70
     0
  9
$VISRETAIN
 70
     1
  9
$PLINEGEN
 70
     0
  9
$PSLTSCALE
 70
     1
  9
$TREEDEPTH
 70
  3020
  9
$PICKSTYLE
 70
     1
  9
$CMLSTYLE
  2
STANDARD
  9
$CMLJUST
 70
     0
  9
$CMLSCALE
 40
1.0
  9
$PROXYGRAPHICS
 70
     1
  9
$MEASUREMENT
 70
     0
  0
ENDSEC
  0
SECTION
  2
CLASSES
  0
CLASS
  1
ACDBDICTIONARYWDFLT
  2
AcDbDictionaryWithDefault
  3
AutoCAD 2000
 90
        0
280
     0
281
     0
  0
CLASS
  1
ACDBPLACEHOLDER
  2
AcDbPlaceHolder
  3
AutoCAD 2000
 90
        0
280
     0
281
     0
  0
CLASS
  1
LAYOUT
  2
AcDbLayout
  3
AutoCAD 2000
 90
        0
280
     0
281
     0
  0
CLASS
  1
LONG_TRANSACTION
  2
AcDbLongTransaction
  3
AutoCAD 2000
 90
        0
280
     0
281
     0
  0
CLASS
  1
LWPOLYLINE
  2
AcDbPolyline
  3
AutoCAD 2000
 90
        0
280
     0
281
     1
  0
CLASS
  1
HATCH
  2
AcDbHatch
  3
AutoCAD 2000
 90
        0
280
     0
281
     1
  0
CLASS
  1
XRECORD
  2
AcDbXrecord
  3
AutoCAD 2000
 90
        0
280
     0
281
     0
  0
CLASS
  1
LONG_TRANSACTION
  2
AcDbLongTransaction
  3
AutoCAD 2000
 90
        0
280
     0
281
     0
  0
CLASS
  1
LWPOLYLINE
  2
AcDbPolyline
  3
AutoCAD 2000
 90
        0
280
     0
281
     1
  0
CLASS
  1
HATCH
  2
AcDbHatch
  3
AutoCAD 2000
 90
        0
280
     0
281
     1
  0
CLASS
  1
XRECORD
  2
AcDbXrecord
  3
AutoCAD 2000
 90
        0
280
     0
281
     0
  0
CLASS
  1
LONG_TRANSACTION
  2
AcDbLongTransaction
  3
AutoCAD 2000
 90
        0
280
     0
281
     0
  0
CLASS
  1
LWPOLYLINE
  2
AcDbPolyline
  3
AutoCAD 2000
 90
        0
280
     0
281
     1
  0
CLASS
  1
HATCH
  2
AcDbHatch
  3
AutoCAD 2000
 90
        0
280
     0
281
     1
  0
CLASS
  1
XRECORD
  2
AcDbXrecord
  3
AutoCAD 2000
 90
        0
280
     0
281
     0
  0
ENDSEC
  0
SECTION
  2
TABLES
  0
TABLE
  2
VPORT
  5
8
330
0
100
AcDbSymbolTable
 70
     4
  0
VPORT
  5
8F6
330
8
100
AcDbSymbolTableRecord
100
AcDbViewportTableRecord
  2
*ACTIVE
 70
     0
 10
0.0
 20
0.0
 11
1.0
 21
1.0
 12
288.6988913321376
 22
183.2529024656212
 13
0.0
 23
0.0
 14
1.0
 24
1.0
 15
0.0
 25
0.0
 16
0.0
 26
0.0
 36
1.0
 17
0.0
 27
0.0
 37
0.0
 40
498.8360602936511
 41
1.661996497373029
 42
50.0
 43
0.0
 44
0.0
 50
0.0
 51
0.0
 71
     0
 72
   100
 73
     1
 74
     1
 75
     0
 76
     0
 77
     0
 78
     0
  0
ENDTAB
  0
TABLE
  2
LTYPE
  5
5
330
0
100
AcDbSymbolTable
 70
    25
  0
LTYPE
  5
12
330
5
100
AcDbSymbolTableRecord
100
AcDbLinetypeTableRecord
  2
BYBLOCK
 70
     0
  3

 72
    65
 73
     0
 40
0.0
  0
LTYPE
  5
13
330
5
100
AcDbSymbolTableRecord
100
AcDbLinetypeTableRecord
  2
BYLAYER
 70
     0
  3

 72
    65
 73
     0
 40
0.0
  0
LTYPE
  5
14
330
5
100
AcDbSymbolTableRecord
100
AcDbLinetypeTableRecord
  2
CONTINUOUS
 70
     0
  3
Solid line
 72
    65
 73
     0
 40
0.0
  0
LTYPE
  5
20
330
5
100
AcDbSymbolTableRecord
100
AcDbLinetypeTableRecord
  2
BORDER
 70
     0
  3
__ __ . __ __ . __ __ . __ __ . __ __ . __ __ .
 72
    65
 73
     6
 40
1.75
 49
0.5
 74
     0
 49
-0.25
 74
     0
 49
0.5
 74
     0
 49
-0.25
 74
     0
 49
0.0
 74
     0
 49
-0.25
 74
     0
  0
LTYPE
  5
21
330
5
100
AcDbSymbolTableRecord
100
AcDbLinetypeTableRecord
  2
BORDER2
 70
     0
  3
__.__.__.__.__.__.__.__.__.__.__.__.__.__.__.__
 72
    65
 73
     6
 40
0.875
 49
0.25
 74
     0
 49
-0.125
 74
     0
 49
0.25
 74
     0
 49
-0.125
 74
     0
 49
0.0
 74
     0
 49
-0.125
 74
     0
  0
LTYPE
  5
22
330
5
100
AcDbSymbolTableRecord
100
AcDbLinetypeTableRecord
  2
BORDERX2
 70
     0
  3
____  ____  .  ____  ____  .  ____  ____  .  __
 72
    65
 73
     6
 40
3.5
 49
1.0
 74
     0
 49
-0.5
 74
     0
 49
1.0
 74
     0
 49
-0.5
 74
     0
 49
0.0
 74
     0
 49
-0.5
 74
     0
  0
LTYPE
  5
23
330
5
100
AcDbSymbolTableRecord
100
AcDbLinetypeTableRecord
  2
CENTER
 70
     0
  3
____ _ ____ _ ____ _ ____ _ ____ _ ____ _ ____ 
 72
    65
 73
     4
 40
2.0
 49
1.25
 74
     0
 49
-0.25
 74
     0
 49
0.25
 74
     0
 49
-0.25
 74
     0
  0
LTYPE
  5
24
330
5
100
AcDbSymbolTableRecord
100
AcDbLinetypeTableRecord
  2
CENTER2
 70
     0
  3
___ _ ___ _ ___ _ ___ _ ___ _ ___ _ ___ _ ___ _
 72
    65
 73
     4
 40
1.125
 49
0.75
 74
     0
 49
-0.125
 74
     0
 49
0.125
 74
     0
 49
-0.125
 74
     0
  0
LTYPE
  5
25
330
5
100
AcDbSymbolTableRecord
100
AcDbLinetypeTableRecord
  2
CENTERX2
 70
     0
  3
________  __  ________  __  ________  __  _____
 72
    65
 73
     4
 40
4.0
 49
2.5
 74
     0
 49
-0.5
 74
     0
 49
0.5
 74
     0
 49
-0.5
 74
     0
  0
LTYPE
  5
26
330
5
100
AcDbSymbolTableRecord
100
AcDbLinetypeTableRecord
  2
DASHDOT
 70
     0
  3
__ . __ . __ . __ . __ . __ . __ . __ . __ . __
 72
    65
 73
     4
 40
1.0
 49
0.5
 74
     0
 49
-0.25
 74
     0
 49
0.0
 74
     0
 49
-0.25
 74
     0
  0
LTYPE
  5
27
330
5
100
AcDbSymbolTableRecord
100
AcDbLinetypeTableRecord
  2
DASHDOT2
 70
     0
  3
_._._._._._._._._._._._._._._._._._._._._._._._
 72
    65
 73
     4
 40
0.5
 49
0.25
 74
     0
 49
-0.125
 74
     0
 49
0.0
 74
     0
 49
-0.125
 74
     0
  0
LTYPE
  5
28
330
5
100
AcDbSymbolTableRecord
100
AcDbLinetypeTableRecord
  2
DASHDOTX2
 70
     0
  3
____  .  ____  .  ____  .  ____  .  ____  .  __
 72
    65
 73
     4
 40
2.0
 49
1.0
 74
     0
 49
-0.5
 74
     0
 49
0.0
 74
     0
 49
-0.5
 74
     0
  0
LTYPE
  5
29
330
5
100
AcDbSymbolTableRecord
100
AcDbLinetypeTableRecord
  2
DASHED
 70
     0
  3
__ __ __ __ __ __ __ __ __ __ __ __ __ __ __ __
 72
    65
 73
     2
 40
0.75
 49
0.5
 74
     0
 49
-0.25
 74
     0
  0
LTYPE
  5
2A
330
5
100
AcDbSymbolTableRecord
100
AcDbLinetypeTableRecord
  2
DASHED2
 70
     0
  3
_ _ _ _ _ _ _ _ _ _ _ _ _ _ _ _ _ _ _ _ _ _ _ _
 72
    65
 73
     2
 40
0.375
 49
0.25
 74
     0
 49
-0.125
 74
     0
  0
LTYPE
  5
2B
330
5
100
AcDbSymbolTableRecord
100
AcDbLinetypeTableRecord
  2
DASHEDX2
 70
     0
  3
____  ____  ____  ____  ____  ____  ____  ____ 
 72
    65
 73
     2
 40
1.5
 49
1.0
 74
     0
 49
-0.5
 74
     0
  0
LTYPE
  5
2C
330
5
100
AcDbSymbolTableRecord
100
AcDbLinetypeTableRecord
  2
DIVIDE
 70
     0
  3
____ . . ____ . . ____ . . ____ . . ____ . . __
 72
    65
 73
     6
 40
1.25
 49
0.5
 74
     0
 49
-0.25
 74
     0
 49
0.0
 74
     0
 49
-0.25
 74
     0
 49
0.0
 74
     0
 49
-0.25
 74
     0
  0
LTYPE
  5
2D
330
5
100
AcDbSymbolTableRecord
100
AcDbLinetypeTableRecord
  2
DIVIDE2
 70
     0
  3
__..__..__..__..__..__..__..__..__..__..__..__.
 72
    65
 73
     6
 40
0.625
 49
0.25
 74
     0
 49
-0.125
 74
     0
 49
0.0
 74
     0
 49
-0.125
 74
     0
 49
0.0
 74
     0
 49
-0.125
 74
     0
  0
LTYPE
  5
2E
330
5
100
AcDbSymbolTableRecord
100
AcDbLinetypeTableRecord
  2
DIVIDEX2
 70
     0
  3
________  .  .  ________  .  .  ________  .  . 
 72
    65
 73
     6
 40
2.5
 49
1.0
 74
     0
 49
-0.5
 74
     0
 49
0.0
 74
     0
 49
-0.5
 74
     0
 49
0.0
 74
     0
 49
-0.5
 74
     0
  0
LTYPE
  5
2F
330
5
100
AcDbSymbolTableRecord
100
AcDbLinetypeTableRecord
  2
DOT
 70
     0
  3
. . . . . . . . . . . . . . . . . . . . . . . .
 72
    65
 73
     2
 40
0.25
 49
0.0
 74
     0
 49
-0.25
 74
     0
  0
LTYPE
  5
30
330
5
100
AcDbSymbolTableRecord
100
AcDbLinetypeTableRecord
  2
DOT2
 70
     0
  3
...............................................
 72
    65
 73
     2
 40
0.125
 49
0.0
 74
     0
 49
-0.125
 74
     0
  0
LTYPE
  5
31
330
5
100
AcDbSymbolTableRecord
100
AcDbLinetypeTableRecord
  2
DOTX2
 70
     0
  3
.  .  .  .  .  .  .  .  .  .  .  .  .  .  .  . 
 72
    65
 73
     2
 40
0.5
 49
0.0
 74
     0
 49
-0.5
 74
     0
  0
LTYPE
  5
32
330
5
100
AcDbSymbolTableRecord
100
AcDbLinetypeTableRecord
  2
HIDDEN
 70
     0
  3
__ __ __ __ __ __ __ __ __ __ __ __ __ __ __ __
 72
    65
 73
     2
 40
0.375
 49
0.25
 74
     0
 49
-0.125
 74
     0
  0
LTYPE
  5
33
330
5
100
AcDbSymbolTableRecord
100
AcDbLinetypeTableRecord
  2
HIDDEN2
 70
     0
  3
_ _ _ _ _ _ _ _ _ _ _ _ _ _ _ _ _ _ _ _ _ _ _ _
 72
    65
 73
     2
 40
0.1875
 49
0.125
 74
     0
 49
-0.0625
 74
     0
  0
LTYPE
  5
34
330
5
100
AcDbSymbolTableRecord
100
AcDbLinetypeTableRecord
  2
HIDDENX2
 70
     0
  3
____ ____ ____ ____ ____ ____ ____ ____ ____ __
 72
    65
 73
     2
 40
0.75
 49
0.5
 74
     0
 49
-0.25
 74
     0
  0
LTYPE
  5
35
330
5
100
AcDbSymbolTableRecord
100
AcDbLinetypeTableRecord
  2
PHANTOM
 70
     0
  3
______  __  __  ______  __  __  ______  __  __ 
 72
    65
 73
     6
 40
2.5
 49
1.25
 74
     0
 49
-0.25
 74
     0
 49
0.25
 74
     0
 49
-0.25
 74
     0
 49
0.25
 74
     0
 49
-0.25
 74
     0
  0
LTYPE
  5
36
330
5
100
AcDbSymbolTableRecord
100
AcDbLinetypeTableRecord
  2
PHANTOM2
 70
     0
  3
___ _ _ ___ _ _ ___ _ _ ___ _ _ ___ _ _ ___ _ _
 72
    65
 73
     6
 40
1.25
 49
0.625
 74
     0
 49
-0.125
 74
     0
 49
0.125
 74
     0
 49
-0.125
 74
     0
 49
0.125
 74
     0
 49
-0.125
 74
     0
  0
LTYPE
  5
37
330
5
100
AcDbSymbolTableRecord
100
AcDbLinetypeTableRecord
  2
PHANTOMX2
 70
     0
  3
____________    ____    ____    ____________   
 72
    65
 73
     6
 40
5.0
 49
2.5
 74
     0
 49
-0.5
 74
     0
 49
0.5
 74
     0
 49
-0.5
 74
     0
 49
0.5
 74
     0
 49
-0.5
 74
     0
  0
ENDTAB
  0
TABLE
  2
LAYER
  5
2
330
0
100
AcDbSymbolTable
 70
     4
  0
LAYER
  5
E
330
2
100
AcDbSymbolTableRecord
100
AcDbLayerTableRecord
  2
0
 70
     0
 62
     7
  6
CONTINUOUS
  0
LAYER
  5
39
330
2
100
AcDbSymbolTableRecord
100
AcDbLayerTableRecord
  2
LEVEL001
 70
     0
 62
     7
  6
CONTINUOUS
  0
LAYER
  5
3A
330
2
100
AcDbSymbolTableRecord
100
AcDbLayerTableRecord
  2
LEVEL255
 70
     0
 62
     7
  6
CONTINUOUS
  0
LAYER
  5
3DA
330
2
100
AcDbSymbolTableRecord
100
AcDbLayerTableRecord
  2
DEFPOINTS
 70
     0
 62
     7
  6
CONTINUOUS
  0
ENDTAB
  0
TABLE
  2
STYLE
  5
3
330
0
100
AcDbSymbolTable
 70
     3
  0
STYLE
  5
F
330
3
100
AcDbSymbolTableRecord
100
AcDbTextStyleTableRecord
  2
STANDARD
 70
     0
 40
0.0
 41
1.0
 50
0.0
 71
     0
 42
0.2
  3
TXT
  4
BIGFONT
  0
STYLE
  5
38
330
3
100
AcDbSymbolTableRecord
100
AcDbTextStyleTableRecord
  2
STANDARD1
 70
     4
 40
0.0
 41
1.0
 50
0.0
 71
     0
 42
0.2
  3
TXT
  4
BIGFONT
  0
STYLE
  5
3B
330
3
100
AcDbSymbolTableRecord
100
AcDbTextStyleTableRecord
  2
GMM001
 70
     0
 40
0.0
 41
0.77777777777778
 50
0.0
 71
     0
 42
1.0
  3
txt.shx
  4
bigfont.shx
  0
ENDTAB
  0
TABLE
  2
VIEW
  5
6
330
0
100
AcDbSymbolTable
 70
     0
  0
ENDTAB
  0
TABLE
  2
UCS
  5
7
330
0
100
AcDbSymbolTable
 70
     0
  0
ENDTAB
  0
TABLE
  2
APPID
  5
9
330
0
100
AcDbSymbolTable
 70
     1
  0
APPID
  5
10
330
9
100
AcDbSymbolTableRecord
100
AcDbRegAppTableRecord
  2
ACAD
 70
     0
  0
ENDTAB
  0
TABLE
  2
DIMSTYLE
  5
A
330
0
100
AcDbSymbolTable
 70
    10
  0
DIMSTYLE
105
1D
330
A
100
AcDbSymbolTableRecord
100
AcDbDimStyleTableRecord
  2
STANDARD
 70
     0
  3

  4

  5

  6

  7

 40
1.0
 41
0.18
 42
0.0625
 43
0.38
 44
0.18
 45
0.0
 46
0.0
 47
0.0
 48
0.0
140
0.18
141
0.09
142
0.0
143
25.4
144
1.0
145
0.0
146
1.0
147
0.09
 71
     0
 72
     0
 73
     1
 74
     1
 75
     0
 76
     0
 77
     0
 78
     0
170
     0
171
     2
172
     0
173
     0
174
     0
175
     0
176
   256
177
   256
178
     0
270
     2
271
     4
272
     4
273
     2
274
     2
340
F
275
     0
280
     0
281
     0
282
     0
283
     1
284
     0
285
     0
286
     0
287
     3
288
     0
  0
DIMSTYLE
105
3C
330
A
100
AcDbSymbolTableRecord
100
AcDbDimStyleTableRecord
  2
GMM001
 70
     0
  3

  4

  5

  6
OPEN30
  7
OPEN30
 40
1.0
 41
3.0
 42
3.0
 43
3.0
 44
3.0
 45
0.0
 46
0.0
 47
0.0
 48
0.0
140
6.75
141
1.5
142
0.0
143
0.0394
144
1.0
145
0.0
146
0.55555555555556
147
0.75
 71
     0
 72
     0
 73
     0
 74
     0
 75
     0
 76
     0
 77
     3
 78
     8
170
     0
171
     2
172
     1
173
     1
174
     0
175
     0
176
   256
177
   256
178
   256
270
     2
271
     4
272
     4
273
     2
274
     2
340
3B
275
     0
280
     0
281
     0
282
     0
283
     1
284
     0
285
     0
286
     0
287
     3
288
     0
  0
DIMSTYLE
105
3D
102
{ACAD_REACTORS
330
317
330
3BC
102
}
330
A
100
AcDbSymbolTableRecord
100
AcDbDimStyleTableRecord
  2
GMM002
 70
     0
  3

  4

  5

  6
OPEN30
  7
OPEN30
 40
1.0
 41
3.0
 42
3.0
 43
3.0
 44
3.0
 45
0.0
 46
0.0
 47
0.0
 48
0.0
140
6.75
141
1.5
142
0.0
143
0.0394
144
1.0
145
0.0
146
0.55555555555556
147
0.75
 71
     0
 72
     0
 73
     0
 74
     0
 75
     0
 76
     0
 77
     3
 78
     8
170
     0
171
     2
172
     1
173
     1
174
     0
175
     0
176
   256
177
   256
178
   256
270
     2
271
     6
272
     6
273
     2
274
     2
340
3B
275
     0
280
     0
281
     0
282
     0
283
     1
284
     0
285
     0
286
     0
287
     3
288
     0
  0
DIMSTYLE
105
3E
102
{ACAD_REACTORS
330
31C
330
31D
330
3A3
330
3B8
330
3B9
330
3BA
330
3BB
330
3BE
102
}
330
A
100
AcDbSymbolTableRecord
100
AcDbDimStyleTableRecord
  2
GMM003
 70
     0
  3

  4

  5

  6
OPEN30
  7
OPEN30
 40
1.0
 41
3.0
 42
3.0
 43
3.0
 44
3.0
 45
0.0
 46
0.0
 47
0.0
 48
0.0
140
6.75
141
1.5
142
0.0
143
0.0394
144
1.0
145
0.0
146
0.55555555555556
147
0.75
 71
     0
 72
     0
 73
     0
 74
     0
 75
     0
 76
     0
 77
     3
 78
     8
170
     0
171
     2
172
     1
173
     1
174
     0
175
     0
176
   256
177
   256
178
   256
270
     2
271
     6
272
     6
273
     2
274
     2
340
3B
275
     0
280
     0
281
     0
282
     0
283
     1
284
     0
285
     0
286
     0
287
     3
288
     0
  0
DIMSTYLE
105
3F
102
{ACAD_REACTORS
330
3C0
330
3C2
102
}
330
A
100
AcDbSymbolTableRecord
100
AcDbDimStyleTableRecord
  2
GMM004
 70
     0
  3

  4

  5

  6
OPEN30
  7
OPEN30
 40
1.0
 41
3.0
 42
3.0
 43
3.0
 44
3.0
 45
0.0
 46
0.0
 47
0.0
 48
0.0
140
6.75
141
1.5
142
0.0
143
0.0394
144
1.0
145
0.0
146
0.55555555555556
147
0.0
 71
     0
 72
     0
 73
     0
 74
     0
 75
     0
 76
     0
 77
     1
 78
     8
170
     0
171
     2
172
     1
173
     1
174
     0
175
     0
176
   256
177
   256
178
   256
270
     2
271
     6
272
     6
273
     2
274
     2
340
3B
275
     0
280
     0
281
     0
282
     0
283
     1
284
     0
285
     0
286
     0
287
     3
288
     0
  0
DIMSTYLE
105
40
102
{ACAD_REACTORS
330
35E
330
35F
102
}
330
A
100
AcDbSymbolTableRecord
100
AcDbDimStyleTableRecord
  2
GMM005
 70
     0
  3
□<>
  4

  5

  6
OPEN30
  7
OPEN30
 40
1.0
 41
3.0
 42
1.5
 43
3.0
 44
3.0
 45
0.0
 46
3.75
 47
0.0
 48
0.0
140
6.75
141
1.5
142
0.0
143
0.0394
144
1.0
145
0.0
146
0.625
147
0.0
 71
     0
 72
     0
 73
     0
 74
     0
 75
     0
 76
     0
 77
     1
 78
     8
170
     0
171
     2
172
     1
173
     1
174
     0
175
     0
176
   256
177
   256
178
   256
270
     2
271
     6
272
     6
273
     2
274
     2
340
3B
275
     0
280
     0
281
     0
282
     0
283
     1
284
     0
285
     0
286
     0
287
     3
288
     0
  0
DIMSTYLE
105
41
102
{ACAD_REACTORS
330
360
102
}
330
A
100
AcDbSymbolTableRecord
100
AcDbDimStyleTableRecord
  2
GMM006
 70
     0
  3

  4

  5

  6
OPEN30
  7
OPEN30
 40
1.0
 41
3.0
 42
1.5
 43
3.0
 44
3.0
 45
0.0
 46
3.75
 47
0.0
 48
0.0
140
6.75
141
1.5
142
0.0
143
0.0394
144
1.0
145
0.0
146
0.625
147
0.0
 71
     0
 72
     0
 73
     0
 74
     0
 75
     1
 76
     1
 77
     1
 78
     8
170
     0
171
     2
172
     1
173
     1
174
     0
175
     0
176
   256
177
     1
178
   256
270
     2
271
     6
272
     6
273
     2
274
     2
340
3B
275
     0
280
     0
281
     0
282
     0
283
     1
284
     0
285
     0
286
     0
287
     3
288
     0
  0
DIMSTYLE
105
42
102
{ACAD_REACTORS
330
3A1
102
}
330
A
100
AcDbSymbolTableRecord
100
AcDbDimStyleTableRecord
  2
GMM007
 70
     0
  3
%%c<>
  4

  5

  6
OPEN30
  7
OPEN30
 40
1.0
 41
3.0
 42
1.5
 43
3.0
 44
3.0
 45
0.0
 46
3.75
 47
0.0
 48
0.0
140
6.75
141
1.5
142
0.0
143
0.0394
144
1.0
145
0.0
146
0.625
147
0.0
 71
     0
 72
     0
 73
     0
 74
     0
 75
     0
 76
     0
 77
     1
 78
     8
170
     0
171
     2
172
     1
173
     1
174
     0
175
     0
176
   256
177
   256
178
   256
270
     2
271
     6
272
     6
273
     2
274
     2
340
3B
275
     0
280
     0
281
     0
282
     0
283
     1
284
     0
285
     0
286
     0
287
     3
288
     0
  0
DIMSTYLE
105
43
102
{ACAD_REACTORS
330
3B5
102
}
330
A
100
AcDbSymbolTableRecord
100
AcDbDimStyleTableRecord
  2
GMM008
 70
     0
  3
%%c<>
  4

  5

  6
OPEN30
  7
OPEN30
 40
1.0
 41
3.0
 42
1.5
 43
3.0
 44
3.0
 45
0.0
 46
3.75
 47
0.0
 48
0.0
140
6.75
141
1.5
142
0.0
143
0.0394
144
1.0
145
0.0
146
0.625
147
4.6413590256398
 71
     0
 72
     0
 73
     0
 74
     0
 75
     0
 76
     0
 77
     1
 78
     8
170
     0
171
     2
172
     1
173
     1
174
     0
175
     0
176
   256
177
   256
178
   256
270
     2
271
     6
272
     6
273
     2
274
     2
340
3B
275
     0
280
     0
281
     0
282
     0
283
     1
284
     0
285
     0
286
     0
287
     3
288
     1
  0
DIMSTYLE
105
44
102
{ACAD_REACTORS
330
3BD
102
}
330
A
100
AcDbSymbolTableRecord
100
AcDbDimStyleTableRecord
  2
GMM009
 70
     0
  3

  4

  5

  6
NONE
  7
NONE
 40
1.0
 41
3.0
 42
3.0
 43
3.0
 44
3.0
 45
0.0
 46
0.0
 47
0.0
 48
0.0
140
6.75
141
1.5
142
0.0
143
0.0394
144
1.0
145
0.0
146
0.55555555555556
147
0.75
 71
     0
 72
     0
 73
     0
 74
     0
 75
     0
 76
     0
 77
     3
 78
     8
170
     0
171
     2
172
     1
173
     1
174
     0
175
     0
176
   256
177
   256
178
   256
270
     2
271
     6
272
     6
273
     2
274
     2
340
3B
275
     0
280
     0
281
     0
282
     0
283
     1
284
     0
285
     0
286
     0
287
     3
288
     0
  0
ENDTAB
  0
TABLE
  2
BLOCK_RECORD
  5
1
330
0
100
AcDbSymbolTable
 70
    56
  0
BLOCK_RECORD
  5
18
102
{ACAD_XDICTIONARY
360
751
102
}
330
1
100
AcDbSymbolTableRecord
100
AcDbBlockTableRecord
  2
*MODEL_SPACE
  0
BLOCK_RECORD
  5
15
102
{ACAD_XDICTIONARY
360
74F
102
}
330
1
100
AcDbSymbolTableRecord
100
AcDbBlockTableRecord
  2
*PAPER_SPACE
  0
BLOCK_RECORD
  5
45
330
1
100
AcDbSymbolTableRecord
100
AcDbBlockTableRecord
  2
JFKANAT_4
  0
BLOCK_RECORD
  5
46
330
1
100
AcDbSymbolTableRecord
100
AcDbBlockTableRecord
  2
*D1
  0
BLOCK_RECORD
  5
47
330
1
100
AcDbSymbolTableRecord
100
AcDbBlockTableRecord
  2
*D2
  0
BLOCK_RECORD
  5
48
330
1
100
AcDbSymbolTableRecord
100
AcDbBlockTableRecord
  2
*D3
  0
BLOCK_RECORD
  5
49
330
1
100
AcDbSymbolTableRecord
100
AcDbBlockTableRecord
  2
*D4
  0
BLOCK_RECORD
  5
4A
330
1
100
AcDbSymbolTableRecord
100
AcDbBlockTableRecord
  2
*D5
  0
BLOCK_RECORD
  5
4B
330
1
100
AcDbSymbolTableRecord
100
AcDbBlockTableRecord
  2
*D6
  0
BLOCK_RECORD
  5
4C
330
1
100
AcDbSymbolTableRecord
100
AcDbBlockTableRecord
  2
*D7
  0
BLOCK_RECORD
  5
4D
330
1
100
AcDbSymbolTableRecord
100
AcDbBlockTableRecord
  2
JFKANAB_4
  0
BLOCK_RECORD
  5
4E
330
1
100
AcDbSymbolTableRecord
100
AcDbBlockTableRecord
  2
*D9
  0
BLOCK_RECORD
  5
4F
330
1
100
AcDbSymbolTableRecord
100
AcDbBlockTableRecord
  2
*D10
  0
BLOCK_RECORD
  5
50
330
1
100
AcDbSymbolTableRecord
100
AcDbBlockTableRecord
  2
*D11
  0
BLOCK_RECORD
  5
51
330
1
100
AcDbSymbolTableRecord
100
AcDbBlockTableRecord
  2
*D12
  0
BLOCK_RECORD
  5
52
330
1
100
AcDbSymbolTableRecord
100
AcDbBlockTableRecord
  2
*D13
  0
BLOCK_RECORD
  5
53
330
1
100
AcDbSymbolTableRecord
100
AcDbBlockTableRecord
  2
*D14
  0
BLOCK_RECORD
  5
54
330
1
100
AcDbSymbolTableRecord
100
AcDbBlockTableRecord
  2
*D15
  0
BLOCK_RECORD
  5
55
330
1
100
AcDbSymbolTableRecord
100
AcDbBlockTableRecord
  2
*D16
  0
BLOCK_RECORD
  5
56
330
1
100
AcDbSymbolTableRecord
100
AcDbBlockTableRecord
  2
*D17
  0
BLOCK_RECORD
  5
57
330
1
100
AcDbSymbolTableRecord
100
AcDbBlockTableRecord
  2
*D18
  0
BLOCK_RECORD
  5
58
330
1
100
AcDbSymbolTableRecord
100
AcDbBlockTableRecord
  2
_ARCHTICK
  0
BLOCK_RECORD
  5
59
330
1
100
AcDbSymbolTableRecord
100
AcDbBlockTableRecord
  2
_BOXBLANK
  0
BLOCK_RECORD
  5
5A
330
1
100
AcDbSymbolTableRecord
100
AcDbBlockTableRecord
  2
_BOXFILLED
  0
BLOCK_RECORD
  5
5B
330
1
100
AcDbSymbolTableRecord
100
AcDbBlockTableRecord
  2
_CLOSED
  0
BLOCK_RECORD
  5
5C
330
1
100
AcDbSymbolTableRecord
100
AcDbBlockTableRecord
  2
_CLOSEDBLANK
  0
BLOCK_RECORD
  5
5D
330
1
100
AcDbSymbolTableRecord
100
AcDbBlockTableRecord
  2
_DATUMBLANK
  0
BLOCK_RECORD
  5
5E
330
1
100
AcDbSymbolTableRecord
100
AcDbBlockTableRecord
  2
_DATUMFILLED
  0
BLOCK_RECORD
  5
5F
330
1
100
AcDbSymbolTableRecord
100
AcDbBlockTableRecord
  2
_DOT
  0
BLOCK_RECORD
  5
60
330
1
100
AcDbSymbolTableRecord
100
AcDbBlockTableRecord
  2
_DOTBLANK
  0
BLOCK_RECORD
  5
61
330
1
100
AcDbSymbolTableRecord
100
AcDbBlockTableRecord
  2
_DOTSMALL
  0
BLOCK_RECORD
  5
62
330
1
100
AcDbSymbolTableRecord
100
AcDbBlockTableRecord
  2
_INTEGRAL
  0
BLOCK_RECORD
  5
63
330
1
100
AcDbSymbolTableRecord
100
AcDbBlockTableRecord
  2
_NONE
  0
BLOCK_RECORD
  5
64
330
1
100
AcDbSymbolTableRecord
100
AcDbBlockTableRecord
  2
_OBLIQUE
  0
BLOCK_RECORD
  5
65
330
1
100
AcDbSymbolTableRecord
100
AcDbBlockTableRecord
  2
_OPEN
  0
BLOCK_RECORD
  5
66
330
1
100
AcDbSymbolTableRecord
100
AcDbBlockTableRecord
  2
_OPEN30
  0
BLOCK_RECORD
  5
67
330
1
100
AcDbSymbolTableRecord
100
AcDbBlockTableRecord
  2
_OPEN90
  0
BLOCK_RECORD
  5
68
330
1
100
AcDbSymbolTableRecord
100
AcDbBlockTableRecord
  2
_ORIGIN
  0
BLOCK_RECORD
  5
3DB
330
1
100
AcDbSymbolTableRecord
100
AcDbBlockTableRecord
  2
*D36
  0
BLOCK_RECORD
  5
3E7
330
1
100
AcDbSymbolTableRecord
100
AcDbBlockTableRecord
  2
*D37
  0
BLOCK_RECORD
  5
3F3
330
1
100
AcDbSymbolTableRecord
100
AcDbBlockTableRecord
  2
*D38
  0
BLOCK_RECORD
  5
3FF
330
1
100
AcDbSymbolTableRecord
100
AcDbBlockTableRecord
  2
*D39
  0
BLOCK_RECORD
  5
40D
330
1
100
AcDbSymbolTableRecord
100
AcDbBlockTableRecord
  2
*D40
  0
BLOCK_RECORD
  5
41B
330
1
100
AcDbSymbolTableRecord
100
AcDbBlockTableRecord
  2
*D41
  0
BLOCK_RECORD
  5
427
330
1
100
AcDbSymbolTableRecord
100
AcDbBlockTableRecord
  2
*D42
  0
BLOCK_RECORD
  5
433
330
1
100
AcDbSymbolTableRecord
100
AcDbBlockTableRecord
  2
*D43
  0
BLOCK_RECORD
  5
43F
330
1
100
AcDbSymbolTableRecord
100
AcDbBlockTableRecord
  2
*D44
  0
BLOCK_RECORD
  5
44B
330
1
100
AcDbSymbolTableRecord
100
AcDbBlockTableRecord
  2
*D45
  0
BLOCK_RECORD
  5
459
330
1
100
AcDbSymbolTableRecord
100
AcDbBlockTableRecord
  2
*D46
  0
BLOCK_RECORD
  5
465
330
1
100
AcDbSymbolTableRecord
100
AcDbBlockTableRecord
  2
*D47
  0
BLOCK_RECORD
  5
470
330
1
100
AcDbSymbolTableRecord
100
AcDbBlockTableRecord
  2
*D48
  0
BLOCK_RECORD
  5
47C
330
1
100
AcDbSymbolTableRecord
100
AcDbBlockTableRecord
  2
*D49
  0
BLOCK_RECORD
  5
488
330
1
100
AcDbSymbolTableRecord
100
AcDbBlockTableRecord
  2
*D50
  0
BLOCK_RECORD
  5
494
330
1
100
AcDbSymbolTableRecord
100
AcDbBlockTableRecord
  2
*D51
  0
BLOCK_RECORD
  5
4A0
330
1
100
AcDbSymbolTableRecord
100
AcDbBlockTableRecord
  2
*D52
  0
BLOCK_RECORD
  5
8BF
330
1
100
AcDbSymbolTableRecord
100
AcDbBlockTableRecord
  2
A$C69483A7F
  0
ENDTAB
  0
ENDSEC
  0
SECTION
  2
BLOCKS
  0
BLOCK
  5
19
330
18
100
AcDbEntity
  8
0
100
AcDbBlockBegin
  2
*MODEL_SPACE
 70
     0
 10
0.0
 20
0.0
 30
0.0
  3
*MODEL_SPACE
  1

  0
ENDBLK
  5
1A
330
18
100
AcDbEntity
  8
0
100
AcDbBlockEnd
  0
BLOCK
  5
16
330
15
100
AcDbEntity
 67
     1
  8
0
100
AcDbBlockBegin
  2
*PAPER_SPACE
 70
     0
 10
0.0
 20
0.0
 30
0.0
  3
*PAPER_SPACE
  1

  0
ENDBLK
  5
17
330
15
100
AcDbEntity
 67
     1
  8
0
100
AcDbBlockEnd
  0
BLOCK
  5
BB
330
45
100
AcDbEntity
  8
0
100
AcDbBlockBegin
  2
JFKANAT_4
 70
     0
 10
0.0
 20
0.0
 30
0.0
  3
JFKANAT_4
  1

  0
CIRCLE
  5
BC
330
45
100
AcDbEntity
  8
LEVEL001
  6
CONTINUOUS
 62
     7
100
AcDbCircle
 10
0.0
 20
0.0
 30
0.0
 40
3.5
  0
CIRCLE
  5
BD
330
45
100
AcDbEntity
  8
LEVEL001
  6
CONTINUOUS
 62
     7
100
AcDbCircle
 10
0.0
 20
0.0
 30
0.0
 40
1.719999999999999
  0
LWPOLYLINE
  5
BE
330
45
100
AcDbEntity
  8
LEVEL001
  6
CONTINUOUS
 62
     7
100
AcDbPolyline
 90
        6
 70
     1
 43
0.0
 10
0.0
 20
1.719970999999999
 10
-1.489562999999999
 20
0.8599849999999998
 10
-1.489562999999999
 20
-0.8599849999999998
 10
0.0
 20
-1.720122999999999
 10
1.489562999999999
 20
-0.8599849999999998
 10
1.489562999999999
 20
0.8599849999999998
  0
ENDBLK
  5
BF
330
45
100
AcDbEntity
  8
0
100
AcDbBlockEnd
  0
BLOCK
  5
C0
330
46
100
AcDbEntity
  8
0
100
AcDbBlockBegin
  2
*D1
 70
     1
 10
0.0
 20
0.0
 30
0.0
  3
*D1
  1

  0
LINE
  5
C1
330
46
100
AcDbEntity
  8
LEVEL001
  6
CONTINUOUS
 62
     1
100
AcDbLine
 10
150.9096113504698
 20
93.312542058041
 30
0.0
 11
165.44189710511
 21
118.4831993351799
 31
0.0
  0
LINE
  5
C2
330
46
100
AcDbEntity
  8
LEVEL001
  6
CONTINUOUS
 62
     1
100
AcDbLine
 10
139.80307954507
 20
107.56892038209
 30
0.0
 11
139.80307954507
 21
125.3530997952799
 31
0.0
  0
ARC
  5
C3
330
46
100
AcDbEntity
  8
LEVEL001
  6
CONTINUOUS
 62
     1
100
AcDbCircle
 10
139.80307954507
 20
74.075464675205
 30
0.0
 40
48.277635120075
100
AcDbArc
 50
60.0
 51
75.0
  0
ARC
  5
C4
330
46
100
AcDbEntity
  8
LEVEL001
  6
CONTINUOUS
 62
     1
100
AcDbCircle
 10
139.80307954507
 20
74.075464675205
 30
0.0
 40
48.277635120075
100
AcDbArc
 50
75.0
 51
90.0
  0
INSERT
  5
C5
330
46
100
AcDbEntity
  8
LEVEL001
  6
CONTINUOUS
 62
     1
100
AcDbBlockReference
  2
_OPEN30
 10
163.94189710511
 20
115.88512312383
 30
0.0
 41
3.0
 42
3.0
 43
3.0
 50
330.0
  0
INSERT
  5
C6
330
46
100
AcDbEntity
  8
LEVEL001
  6
CONTINUOUS
 62
     1
100
AcDbBlockReference
  2
_OPEN30
 10
139.80307954507
 20
122.3530997952799
 30
0.0
 41
3.0
 42
3.0
 43
3.0
 50
180.0
  0
MTEXT
  5
C7
330
46
100
AcDbEntity
  8
LEVEL001
 62
     3
100
AcDbMText
 10
152.4923652504799
 20
121.43252363956
 30
0.0
 40
6.75
 41
0.0
 71
     8
 72
     5
  1
\A1;30%%d
  7
GMM001
 11
0.9659258262890686
 21
-0.2588190451025196
 31
0.0
1001
ACAD
1000
MTEXTBEGIN
1070
    73
1070
     1
1070
    44
1040
1.0
1070
    74
1070
     0
1000
MTEXTEND
1000
MTEXTBEGIN
1070
    73
1070
     1
1070
    44
1040
1.0
1070
    74
1070
     0
1000
MTEXTEND
1000
MTEXTBEGIN
1070
    73
1070
     1
1070
    44
1040
1.0
1070
    74
1070
     0
1000
MTEXTEND
  0
ENDBLK
  5
C8
330
46
100
AcDbEntity
  8
0
100
AcDbBlockEnd
  0
BLOCK
  5
C9
330
47
100
AcDbEntity
  8
0
100
AcDbBlockBegin
  2
*D2
 70
     1
 10
0.0
 20
0.0
 30
0.0
  3
*D2
  1

  0
LINE
  5
CA
330
47
100
AcDbEntity
  8
LEVEL001
  6
CONTINUOUS
 62
     1
100
AcDbLine
 10
56.506295758242
 20
107.56892038209
 30
0.0
 11
56.506295758242
 21
125.3530997952799
 31
0.0
  0
LINE
  5
CB
330
47
100
AcDbEntity
  8
LEVEL001
  6
CONTINUOUS
 62
     1
100
AcDbLine
 10
45.39976395284
 20
93.312542058041
 30
0.0
 11
30.867478198204
 21
118.4831993351799
 31
0.0
  0
ARC
  5
CC
330
47
100
AcDbEntity
  8
LEVEL001
  6
CONTINUOUS
 62
     1
100
AcDbCircle
 10
56.506295758242
 20
74.075464675205
 30
0.0
 40
48.277635120075
100
AcDbArc
 50
90.0
 51
105.0
  0
ARC
  5
CD
330
47
100
AcDbEntity
  8
LEVEL001
  6
CONTINUOUS
 62
     1
100
AcDbCircle
 10
56.506295758242
 20
74.075464675205
 30
0.0
 40
48.277635120075
100
AcDbArc
 50
105.0
 51
119.9999999999999
  0
INSERT
  5
CE
330
47
100
AcDbEntity
  8
LEVEL001
  6
CONTINUOUS
 62
     1
100
AcDbBlockReference
  2
_OPEN30
 10
56.506295758242
 20
122.3530997952799
 30
0.0
 41
3.0
 42
3.0
 43
3.0
 50
360.0
  0
INSERT
  5
CF
330
47
100
AcDbEntity
  8
LEVEL001
  6
CONTINUOUS
 62
     1
100
AcDbBlockReference
  2
_OPEN30
 10
32.367478198204
 20
115.88512312383
 30
0.0
 41
3.0
 42
3.0
 43
3.0
 50
210.0
  0
MTEXT
  5
D0
330
47
100
AcDbEntity
  8
LEVEL001
 62
     3
100
AcDbMText
 10
43.81701005282899
 20
121.43252363956
 30
0.0
 40
6.75
 41
0.0
 71
     8
 72
     5
  1
\A1;30%%d
  7
GMM001
 11
0.9659258262890686
 21
0.2588190451025196
 31
0.0
1001
ACAD
1000
MTEXTBEGIN
1070
    73
1070
     1
1070
    44
1040
1.0
1070
    74
1070
     0
1000
MTEXTEND
1000
MTEXTBEGIN
1070
    73
1070
     1
1070
    44
1040
1.0
1070
    74
1070
     0
1000
MTEXTEND
1000
MTEXTBEGIN
1070
    73
1070
     1
1070
    44
1040
1.0
1070
    74
1070
     0
1000
MTEXTEND
  0
ENDBLK
  5
D1
330
47
100
AcDbEntity
  8
0
100
AcDbBlockEnd
  0
BLOCK
  5
D2
330
48
100
AcDbEntity
  8
0
100
AcDbBlockBegin
  2
*D3
 70
     1
 10
0.0
 20
0.0
 30
0.0
  3
*D3
  1

  0
LINE
  5
D3
330
48
100
AcDbEntity
  8
LEVEL001
  6
CONTINUOUS
 62
     1
100
AcDbLine
 10
101.4002520057099
 20
221.8261068167298
 30
0.0
 11
125.40025200571
 21
221.8261068167298
 31
0.0
  0
LINE
  5
D4
330
48
100
AcDbEntity
  8
LEVEL001
  6
CONTINUOUS
 62
     1
100
AcDbLine
 10
86.70025200570902
 20
299.9261068167299
 30
0.0
 11
125.40025200571
 21
299.9261068167299
 31
0.0
  0
LINE
  5
D5
330
48
100
AcDbEntity
  8
LEVEL001
  6
CONTINUOUS
 62
     1
100
AcDbLine
 10
122.40025200571
 20
221.8261068167298
 30
0.0
 11
122.40025200571
 21
260.87610681673
 31
0.0
  0
LINE
  5
D6
330
48
100
AcDbEntity
  8
LEVEL001
  6
CONTINUOUS
 62
     1
100
AcDbLine
 10
122.40025200571
 20
299.9261068167299
 30
0.0
 11
122.40025200571
 21
260.87610681673
 31
0.0
  0
INSERT
  5
D7
330
48
100
AcDbEntity
  8
LEVEL001
  6
CONTINUOUS
 62
     1
100
AcDbBlockReference
  2
_OPEN30
 10
122.40025200571
 20
221.8261068167298
 30
0.0
 41
3.0
 42
3.0
 43
3.0
 50
270.0
  0
INSERT
  5
D8
330
48
100
AcDbEntity
  8
LEVEL001
  6
CONTINUOUS
 62
     1
100
AcDbBlockReference
  2
_OPEN30
 10
122.40025200571
 20
299.9261068167299
 30
0.0
 41
3.0
 42
3.0
 43
3.0
 50
90.0
  0
MTEXT
  5
D9
330
48
100
AcDbEntity
  8
LEVEL001
 62
     3
100
AcDbMText
 10
121.65025200571
 20
260.87610681673
 30
0.0
 40
6.75
 41
0.0
 71
     8
 72
     5
  1
\A1;(78)
  7
GMM001
 11
0.0
 21
1.0
 31
0.0
1001
ACAD
1000
MTEXTBEGIN
1070
    73
1070
     1
1070
    44
1040
1.0
1070
    74
1070
     0
1000
MTEXTEND
1000
MTEXTBEGIN
1070
    73
1070
     1
1070
    44
1040
1.0
1070
    74
1070
     0
1000
MTEXTEND
1000
MTEXTBEGIN
1070
    73
1070
     1
1070
    44
1040
1.0
1070
    74
1070
     0
1000
MTEXTEND
  0
ENDBLK
  5
DA
330
48
100
AcDbEntity
  8
0
100
AcDbBlockEnd
  0
BLOCK
  5
DB
330
49
100
AcDbEntity
  8
0
100
AcDbBlockBegin
  2
*D4
 70
     1
 10
0.0
 20
0.0
 30
0.0
  3
*D4
  1

  0
LINE
  5
DC
330
49
100
AcDbEntity
  8
LEVEL001
  6
CONTINUOUS
 62
     1
100
AcDbLine
 10
38.26910446472499
 20
250.8261068167298
 30
0.0
 11
26.40025200570899
 21
250.8261068167298
 31
0.0
  0
LINE
  5
DD
330
49
100
AcDbEntity
  8
LEVEL001
  6
CONTINUOUS
 62
     1
100
AcDbLine
 10
57.355857672879
 20
232.8261068167297
 30
0.0
 11
26.40025200570899
 21
232.8261068167297
 31
0.0
  0
LINE
  5
DE
330
49
100
AcDbEntity
  8
LEVEL001
  6
CONTINUOUS
 62
     1
100
AcDbLine
 10
29.400252005709
 20
250.8261068167298
 30
0.0
 11
29.400252005709
 21
241.82610681673
 31
0.0
  0
LINE
  5
DF
330
49
100
AcDbEntity
  8
LEVEL001
  6
CONTINUOUS
 62
     1
100
AcDbLine
 10
29.400252005709
 20
232.8261068167297
 30
0.0
 11
29.400252005709
 21
241.82610681673
 31
0.0
  0
INSERT
  5
E0
330
49
100
AcDbEntity
  8
LEVEL001
  6
CONTINUOUS
 62
     1
100
AcDbBlockReference
  2
_OPEN30
 10
29.400252005709
 20
250.8261068167298
 30
0.0
 41
3.0
 42
3.0
 43
3.0
 50
90.0
  0
INSERT
  5
E1
330
49
100
AcDbEntity
  8
LEVEL001
  6
CONTINUOUS
 62
     1
100
AcDbBlockReference
  2
_OPEN30
 10
29.400252005709
 20
232.8261068167297
 30
0.0
 41
3.0
 42
3.0
 43
3.0
 50
270.0
  0
MTEXT
  5
E2
330
49
100
AcDbEntity
  8
LEVEL001
 62
     3
100
AcDbMText
 10
28.65025200570899
 20
241.82610681673
 30
0.0
 40
6.75
 41
0.0
 71
     8
 72
     5
  1
\A1;18
  7
GMM001
 11
0.0
 21
1.0
 31
0.0
1001
ACAD
1000
MTEXTBEGIN
1070
    73
1070
     1
1070
    44
1040
1.0
1070
    74
1070
     0
1000
MTEXTEND
1000
MTEXTBEGIN
1070
    73
1070
     1
1070
    44
1040
1.0
1070
    74
1070
     0
1000
MTEXTEND
1000
MTEXTBEGIN
1070
    73
1070
     1
1070
    44
1040
1.0
1070
    74
1070
     0
1000
MTEXTEND
  0
ENDBLK
  5
E3
330
49
100
AcDbEntity
  8
0
100
AcDbBlockEnd
  0
BLOCK
  5
E4
330
4A
100
AcDbEntity
  8
0
100
AcDbBlockBegin
  2
*D5
 70
     1
 10
0.0
 20
0.0
 30
0.0
  3
*D5
  1

  0
LINE
  5
E5
330
4A
100
AcDbEntity
  8
LEVEL001
  6
CONTINUOUS
 62
     1
100
AcDbLine
 10
62.400252005709
 20
227.68094414332
 30
0.0
 11
62.400252005709
 21
203.82610681673
 31
0.0
  0
LINE
  5
E6
330
4A
100
AcDbEntity
  8
LEVEL001
  6
CONTINUOUS
 62
     1
100
AcDbLine
 10
84.400252005709
 20
227.8174967306299
 30
0.0
 11
84.400252005709
 21
203.82610681673
 31
0.0
  0
LINE
  5
E7
330
4A
100
AcDbEntity
  8
LEVEL001
  6
CONTINUOUS
 62
     1
100
AcDbLine
 10
62.400252005709
 20
206.8261068167299
 30
0.0
 11
73.40025200570902
 21
206.8261068167299
 31
0.0
  0
LINE
  5
E8
330
4A
100
AcDbEntity
  8
LEVEL001
  6
CONTINUOUS
 62
     1
100
AcDbLine
 10
84.400252005709
 20
206.8261068167299
 30
0.0
 11
73.40025200570902
 21
206.8261068167299
 31
0.0
  0
INSERT
  5
E9
330
4A
100
AcDbEntity
  8
LEVEL001
  6
CONTINUOUS
 62
     1
100
AcDbBlockReference
  2
_OPEN30
 10
62.400252005709
 20
206.8261068167299
 30
0.0
 41
3.0
 42
3.0
 43
3.0
 50
180.0
  0
INSERT
  5
EA
330
4A
100
AcDbEntity
  8
LEVEL001
  6
CONTINUOUS
 62
     1
100
AcDbBlockReference
  2
_OPEN30
 10
84.400252005709
 20
206.8261068167299
 30
0.0
 41
3.0
 42
3.0
 43
3.0
  0
MTEXT
  5
EB
330
4A
100
AcDbEntity
  8
LEVEL001
 62
     3
100
AcDbMText
 10
73.40025200570902
 20
207.57610681673
 30
0.0
 40
6.75
 41
0.0
 71
     8
 72
     5
  1
\A1;22
  7
GMM001
1001
ACAD
1000
MTEXTBEGIN
1070
    73
1070
     1
1070
    44
1040
1.0
1070
    74
1070
     0
1000
MTEXTEND
1000
MTEXTBEGIN
1070
    73
1070
     1
1070
    44
1040
1.0
1070
    74
1070
     0
1000
MTEXTEND
1000
MTEXTBEGIN
1070
    73
1070
     1
1070
    44
1040
1.0
1070
    74
1070
     0
1000
MTEXTEND
  0
ENDBLK
  5
EC
330
4A
100
AcDbEntity
  8
0
100
AcDbBlockEnd
  0
BLOCK
  5
ED
330
4B
100
AcDbEntity
  8
0
100
AcDbBlockBegin
  2
*D6
 70
     1
 10
0.0
 20
0.0
 30
0.0
  3
*D6
  1

  0
LINE
  5
EE
330
4B
100
AcDbEntity
  8
LEVEL001
  6
CONTINUOUS
 62
     1
100
AcDbLine
 10
492.01173209705
 20
277.32610681673
 30
0.0
 11
492.01173209705
 21
322.3261068167297
 31
0.0
  0
LINE
  5
EF
330
4B
100
AcDbEntity
  8
LEVEL001
  6
CONTINUOUS
 62
     1
100
AcDbLine
 10
550.0117320970501
 20
277.32610681673
 30
0.0
 11
550.0117320970501
 21
322.3261068167297
 31
0.0
  0
LINE
  5
F0
330
4B
100
AcDbEntity
  8
LEVEL001
  6
CONTINUOUS
 62
     1
100
AcDbLine
 10
492.01173209705
 20
319.3261068167298
 30
0.0
 11
550.0117320970501
 21
319.3261068167298
 31
0.0
  0
INSERT
  5
F1
330
4B
100
AcDbEntity
  8
LEVEL001
  6
CONTINUOUS
 62
     1
100
AcDbBlockReference
  2
_OPEN30
 10
492.01173209705
 20
319.3261068167298
 30
0.0
 41
3.0
 42
3.0
 43
3.0
 50
180.0
  0
INSERT
  5
F2
330
4B
100
AcDbEntity
  8
LEVEL001
  6
CONTINUOUS
 62
     1
100
AcDbBlockReference
  2
_OPEN30
 10
550.0117320970501
 20
319.3261068167298
 30
0.0
 41
3.0
 42
3.0
 43
3.0
  0
MTEXT
  5
F3
330
4B
100
AcDbEntity
  8
LEVEL001
 62
     3
100
AcDbMText
 10
521.0117320970501
 20
319.3261068167298
 30
0.0
 40
6.75
 41
0.0
 71
     8
 72
     5
  1
\A1;□58
  7
GMM001
1001
ACAD
1000
MTEXTBEGIN
1070
    73
1070
     1
1070
    44
1040
1.0
1070
    74
1070
     0
1000
MTEXTEND
1000
MTEXTBEGIN
1070
    73
1070
     1
1070
    44
1040
1.0
1070
    74
1070
     0
1000
MTEXTEND
1000
MTEXTBEGIN
1070
    73
1070
     1
1070
    44
1040
1.0
1070
    74
1070
     0
1000
MTEXTEND
  0
ENDBLK
  5
F4
330
4B
100
AcDbEntity
  8
0
100
AcDbBlockEnd
  0
BLOCK
  5
F5
330
4C
100
AcDbEntity
  8
0
100
AcDbBlockBegin
  2
*D7
 70
     1
 10
0.0
 20
0.0
 30
0.0
  3
*D7
  1

  0
LINE
  5
F6
330
4C
100
AcDbEntity
  8
LEVEL001
  6
CONTINUOUS
 62
     1
100
AcDbLine
 10
497.01173209705
 20
280.54673959815
 30
0.0
 11
497.01173209705
 21
305.71579042602
 31
0.0
  0
LINE
  5
F7
330
4C
100
AcDbEntity
  8
LEVEL001
  6
CONTINUOUS
 62
     1
100
AcDbLine
 10
545.01173209705
 20
280.54673959815
 30
0.0
 11
545.01173209705
 21
305.71579042602
 31
0.0
  0
LINE
  5
F8
330
4C
100
AcDbEntity
  8
LEVEL001
  6
CONTINUOUS
 62
     1
100
AcDbLine
 10
497.01173209705
 20
302.71579042602
 30
0.0
 11
545.01173209705
 21
302.71579042602
 31
0.0
  0
INSERT
  5
F9
330
4C
100
AcDbEntity
  8
LEVEL001
  6
CONTINUOUS
 62
     1
100
AcDbBlockReference
  2
_OPEN30
 10
497.01173209705
 20
302.71579042602
 30
0.0
 41
3.0
 42
3.0
 43
3.0
 50
180.0
  0
INSERT
  5
FA
330
4C
100
AcDbEntity
  8
LEVEL001
  6
CONTINUOUS
 62
     1
100
AcDbBlockReference
  2
_OPEN30
 10
545.01173209705
 20
302.71579042602
 30
0.0
 41
3.0
 42
3.0
 43
3.0
  0
MTEXT
  5
FB
330
4C
100
AcDbEntity
  8
LEVEL001
 62
     3
100
AcDbMText
 10
521.0117320970501
 20
302.71579042602
 30
0.0
 40
6.75
 41
0.0
 71
     8
 72
     5
  1
\A1;□48
  7
GMM001
1001
ACAD
1000
MTEXTBEGIN
1070
    73
1070
     1
1070
    44
1040
1.0
1070
    74
1070
     0
1000
MTEXTEND
1000
MTEXTBEGIN
1070
    73
1070
     1
1070
    44
1040
1.0
1070
    74
1070
     0
1000
MTEXTEND
1000
MTEXTBEGIN
1070
    73
1070
     1
1070
    44
1040
1.0
1070
    74
1070
     0
1000
MTEXTEND
  0
ENDBLK
  5
FC
330
4C
100
AcDbEntity
  8
0
100
AcDbBlockEnd
  0
BLOCK
  5
FD
330
4D
100
AcDbEntity
  8
0
100
AcDbBlockBegin
  2
JFKANAB_4
 70
     0
 10
0.0
 20
0.0
 30
0.0
  3
JFKANAB_4
  1

  0
ARC
  5
FE
330
4D
100
AcDbEntity
  8
LEVEL001
  6
CONTINUOUS
 62
     3
100
AcDbCircle
 10
-2.923888999999998
 20
-1.610106999999999
 30
0.0
 40
1.190139999999997
100
AcDbArc
 50
14.068281854297
 51
39.072822205645
  0
ARC
  5
FF
330
4D
100
AcDbEntity
  8
LEVEL001
  6
CONTINUOUS
 62
     3
100
AcDbCircle
 10
-2.923583999999998
 20
1.61087
 30
0.0
 40
1.190170999999998
100
AcDbArc
 50
320.88941188777
 51
345.8853720931299
  0
ARC
  5
100
330
4D
100
AcDbEntity
  8
LEVEL001
  6
CONTINUOUS
 62
     3
100
AcDbCircle
 10
-3.489287999999998
 20
-0.0001529999999548
 30
0.0
 40
1.720000999999999
100
AcDbArc
 50
330.00230361369
 51
30.006524588892
  0
LWPOLYLINE
  5
101
330
4D
100
AcDbEntity
  8
LEVEL001
  6
CONTINUOUS
 62
     3
100
AcDbPolyline
 90
        5
 70
     0
 43
0.0
 10
-3.999846999999998
 20
1.719970999999999
 10
-1.999968999999999
 20
1.719970999999999
 10
-1.006926999999999
 20
0.0
 10
-1.999968999999999
 20
-1.7201230000001
 10
-3.999846999999998
 20
-1.7201230000001
  0
LINE
  5
102
330
4D
100
AcDbEntity
  8
LEVEL001
  6
CONTINUOUS
 62
     3
100
AcDbLine
 10
-3.999846999999998
 20
-0.85998500000005
 30
0.0
 11
-1.999968999999999
 21
-0.85998500000005
 31
0.0
  0
LINE
  5
103
330
4D
100
AcDbEntity
  8
LEVEL001
  6
CONTINUOUS
 62
     3
100
AcDbLine
 10
-3.999846999999998
 20
0.85998500000005
 30
0.0
 11
-1.999968999999999
 21
0.85998500000005
 31
0.0
  0
LWPOLYLINE
  5
104
330
4D
100
AcDbEntity
  8
LEVEL001
  6
CONTINUOUS
 62
     7
100
AcDbPolyline
 90
        4
 70
     1
 43
0.0
 10
-3.999846999999998
 20
-3.5
 10
-3.999846999999998
 20
3.5
 10
0.0001530000000116
 20
3.5
 10
0.0001530000000116
 20
-3.5
  0
ENDBLK
  5
105
330
4D
100
AcDbEntity
  8
0
100
AcDbBlockEnd
  0
BLOCK
  5
106
330
4E
100
AcDbEntity
  8
0
100
AcDbBlockBegin
  2
*D9
 70
     1
 10
0.0
 20
0.0
 30
0.0
  3
*D9
  1

  0
LINE
  5
107
330
4E
100
AcDbEntity
  8
LEVEL001
  6
CONTINUOUS
 62
     1
100
AcDbLine
 10
390.5578436664199
 20
268.3261068167297
 30
0.0
 11
460.5578436664199
 21
268.3261068167297
 31
0.0
  0
LINE
  5
108
330
4E
100
AcDbEntity
  8
LEVEL001
  6
CONTINUOUS
 62
     1
100
AcDbLine
 10
390.5578436664199
 20
233.3261068167299
 30
0.0
 11
460.5578436664199
 21
233.3261068167299
 31
0.0
  0
LINE
  5
109
330
4E
100
AcDbEntity
  8
LEVEL001
  6
CONTINUOUS
 62
     1
100
AcDbLine
 10
457.55784366642
 20
268.3261068167297
 30
0.0
 11
457.55784366642
 21
233.3261068167299
 31
0.0
  0
INSERT
  5
10A
330
4E
100
AcDbEntity
  8
LEVEL001
  6
CONTINUOUS
 62
     1
100
AcDbBlockReference
  2
_OPEN30
 10
457.55784366642
 20
268.3261068167297
 30
0.0
 41
3.0
 42
3.0
 43
3.0
 50
90.0
  0
INSERT
  5
10B
330
4E
100
AcDbEntity
  8
LEVEL001
  6
CONTINUOUS
 62
     1
100
AcDbBlockReference
  2
_OPEN30
 10
457.55784366642
 20
233.3261068167299
 30
0.0
 41
3.0
 42
3.0
 43
3.0
 50
270.0
  0
MTEXT
  5
10C
330
4E
100
AcDbEntity
  8
LEVEL001
 62
     3
100
AcDbMText
 10
457.55784366642
 20
250.8261068167298
 30
0.0
 40
6.75
 41
0.0
 71
     8
 72
     5
  1
\A1;%%c35
  7
GMM001
 11
0.0
 21
1.0
 31
0.0
1001
ACAD
1000
MTEXTBEGIN
1070
    73
1070
     1
1070
    44
1040
1.0
1070
    74
1070
     0
1000
MTEXTEND
1000
MTEXTBEGIN
1070
    73
1070
     1
1070
    44
1040
1.0
1070
    74
1070
     0
1000
MTEXTEND
1000
MTEXTBEGIN
1070
    73
1070
     1
1070
    44
1040
1.0
1070
    74
1070
     0
1000
MTEXTEND
  0
ENDBLK
  5
10D
330
4E
100
AcDbEntity
  8
0
100
AcDbBlockEnd
  0
BLOCK
  5
10E
330
4F
100
AcDbEntity
  8
0
100
AcDbBlockBegin
  2
*D10
 70
     1
 10
0.0
 20
0.0
 30
0.0
  3
*D10
  1

  0
LINE
  5
10F
330
4F
100
AcDbEntity
  8
LEVEL001
  6
CONTINUOUS
 62
     1
100
AcDbLine
 10
166.05784366642
 20
338.9135707715498
 30
0.0
 11
166.05784366642
 21
352.48108478002
 31
0.0
  0
LINE
  5
110
330
4F
100
AcDbEntity
  8
LEVEL001
  6
CONTINUOUS
 62
     1
100
AcDbLine
 10
147.05784366642
 20
300.9261068167298
 30
0.0
 11
147.05784366642
 21
352.48108478002
 31
0.0
  0
LINE
  5
111
330
4F
100
AcDbEntity
  8
LEVEL001
  6
CONTINUOUS
 62
     1
100
AcDbLine
 10
166.05784366642
 20
349.48108478002
 30
0.0
 11
156.55784366642
 21
349.48108478002
 31
0.0
  0
LINE
  5
112
330
4F
100
AcDbEntity
  8
LEVEL001
  6
CONTINUOUS
 62
     1
100
AcDbLine
 10
147.05784366642
 20
349.48108478002
 30
0.0
 11
156.55784366642
 21
349.48108478002
 31
0.0
  0
INSERT
  5
113
330
4F
100
AcDbEntity
  8
LEVEL001
  6
CONTINUOUS
 62
     1
100
AcDbBlockReference
  2
_OPEN30
 10
166.05784366642
 20
349.48108478002
 30
0.0
 41
3.0
 42
3.0
 43
3.0
  0
INSERT
  5
114
330
4F
100
AcDbEntity
  8
LEVEL001
  6
CONTINUOUS
 62
     1
100
AcDbBlockReference
  2
_OPEN30
 10
147.05784366642
 20
349.48108478002
 30
0.0
 41
3.0
 42
3.0
 43
3.0
 50
180.0
  0
MTEXT
  5
115
330
4F
100
AcDbEntity
  8
LEVEL001
 62
     3
100
AcDbMText
 10
156.55784366642
 20
350.23108478002
 30
0.0
 40
6.75
 41
0.0
 71
     8
 72
     5
  1
\A1;19
  7
GMM001
1001
ACAD
1000
MTEXTBEGIN
1070
    73
1070
     1
1070
    44
1040
1.0
1070
    74
1070
     0
1000
MTEXTEND
1000
MTEXTBEGIN
1070
    73
1070
     1
1070
    44
1040
1.0
1070
    74
1070
     0
1000
MTEXTEND
1000
MTEXTBEGIN
1070
    73
1070
     1
1070
    44
1040
1.0
1070
    74
1070
     0
1000
MTEXTEND
  0
ENDBLK
  5
116
330
4F
100
AcDbEntity
  8
0
100
AcDbBlockEnd
  0
BLOCK
  5
117
330
50
100
AcDbEntity
  8
0
100
AcDbBlockBegin
  2
*D11
 70
     1
 10
0.0
 20
0.0
 30
0.0
  3
*D11
  1

  0
LINE
  5
118
330
50
100
AcDbEntity
  8
LEVEL001
  6
CONTINUOUS
 62
     1
100
AcDbLine
 10
402.5578436664199
 20
261.8261068167297
 30
0.0
 11
447.0578436664198
 21
261.8261068167297
 31
0.0
  0
LINE
  5
119
330
50
100
AcDbEntity
  8
LEVEL001
  6
CONTINUOUS
 62
     1
100
AcDbLine
 10
402.5578436664199
 20
239.82610681673
 30
0.0
 11
447.0578436664198
 21
239.82610681673
 31
0.0
  0
LINE
  5
11A
330
50
100
AcDbEntity
  8
LEVEL001
  6
CONTINUOUS
 62
     1
100
AcDbLine
 10
444.0578436664199
 20
261.8261068167297
 30
0.0
 11
444.0578436664199
 21
239.82610681673
 31
0.0
  0
INSERT
  5
11B
330
50
100
AcDbEntity
  8
LEVEL001
  6
CONTINUOUS
 62
     1
100
AcDbBlockReference
  2
_OPEN30
 10
444.0578436664199
 20
261.8261068167297
 30
0.0
 41
3.0
 42
3.0
 43
3.0
 50
90.0
  0
INSERT
  5
11C
330
50
100
AcDbEntity
  8
LEVEL001
  6
CONTINUOUS
 62
     1
100
AcDbBlockReference
  2
_OPEN30
 10
444.0578436664199
 20
239.82610681673
 30
0.0
 41
3.0
 42
3.0
 43
3.0
 50
270.0
  0
MTEXT
  5
11D
330
50
100
AcDbEntity
  8
LEVEL001
 62
     3
100
AcDbMText
 10
439.4164846407798
 20
247.9825721153798
 30
0.0
 40
6.75
 41
0.0
 71
     8
 72
     5
  1
\A1;%%c22
  7
GMM001
 11
0.0
 21
1.0
 31
0.0
1001
ACAD
1000
MTEXTBEGIN
1070
    73
1070
     1
1070
    44
1040
1.0
1070
    74
1070
     0
1000
MTEXTEND
1000
MTEXTBEGIN
1070
    73
1070
     1
1070
    44
1040
1.0
1070
    74
1070
     0
1000
MTEXTEND
1000
MTEXTBEGIN
1070
    73
1070
     1
1070
    44
1040
1.0
1070
    74
1070
     0
1000
MTEXTEND
  0
ENDBLK
  5
11E
330
50
100
AcDbEntity
  8
0
100
AcDbBlockEnd
  0
BLOCK
  5
11F
330
51
100
AcDbEntity
  8
0
100
AcDbBlockBegin
  2
*D12
 70
     1
 10
0.0
 20
0.0
 30
0.0
  3
*D12
  1

  0
LINE
  5
120
330
51
100
AcDbEntity
  8
LEVEL001
  6
CONTINUOUS
 62
     1
100
AcDbLine
 10
404.0578436664199
 20
240.8261068167298
 30
0.0
 11
404.0578436664199
 21
198.82610681673
 31
0.0
  0
LINE
  5
121
330
51
100
AcDbEntity
  8
LEVEL001
  6
CONTINUOUS
 62
     1
100
AcDbLine
 10
424.0578436664199
 20
242.2791014328999
 30
0.0
 11
424.0578436664199
 21
198.82610681673
 31
0.0
  0
LINE
  5
122
330
51
100
AcDbEntity
  8
LEVEL001
  6
CONTINUOUS
 62
     1
100
AcDbLine
 10
404.0578436664199
 20
201.82610681673
 30
0.0
 11
414.0578436664198
 21
201.82610681673
 31
0.0
  0
LINE
  5
123
330
51
100
AcDbEntity
  8
LEVEL001
  6
CONTINUOUS
 62
     1
100
AcDbLine
 10
424.0578436664199
 20
201.82610681673
 30
0.0
 11
414.0578436664198
 21
201.82610681673
 31
0.0
  0
INSERT
  5
124
330
51
100
AcDbEntity
  8
LEVEL001
  6
CONTINUOUS
 62
     1
100
AcDbBlockReference
  2
_OPEN30
 10
404.0578436664199
 20
201.82610681673
 30
0.0
 41
3.0
 42
3.0
 43
3.0
 50
180.0
  0
INSERT
  5
125
330
51
100
AcDbEntity
  8
LEVEL001
  6
CONTINUOUS
 62
     1
100
AcDbBlockReference
  2
_OPEN30
 10
424.0578436664199
 20
201.82610681673
 30
0.0
 41
3.0
 42
3.0
 43
3.0
  0
MTEXT
  5
126
330
51
100
AcDbEntity
  8
LEVEL001
 62
     3
100
AcDbMText
 10
414.0578436664198
 20
202.5761068167299
 30
0.0
 40
6.75
 41
0.0
 71
     8
 72
     5
  1
\A1;20
  7
GMM001
1001
ACAD
1000
MTEXTBEGIN
1070
    73
1070
     1
1070
    44
1040
1.0
1070
    74
1070
     0
1000
MTEXTEND
1000
MTEXTBEGIN
1070
    73
1070
     1
1070
    44
1040
1.0
1070
    74
1070
     0
1000
MTEXTEND
1000
MTEXTBEGIN
1070
    73
1070
     1
1070
    44
1040
1.0
1070
    74
1070
     0
1000
MTEXTEND
  0
ENDBLK
  5
127
330
51
100
AcDbEntity
  8
0
100
AcDbBlockEnd
  0
BLOCK
  5
128
330
52
100
AcDbEntity
  8
0
100
AcDbBlockBegin
  2
*D13
 70
     1
 10
0.0
 20
0.0
 30
0.0
  3
*D13
  1

  0
LINE
  5
129
330
52
100
AcDbEntity
  8
LEVEL001
  6
CONTINUOUS
 62
     1
100
AcDbLine
 10
394.0578436664198
 20
236.8261068167297
 30
0.0
 11
394.0578436664198
 21
183.82610681673
 31
0.0
  0
LINE
  5
12A
330
52
100
AcDbEntity
  8
LEVEL001
  6
CONTINUOUS
 62
     1
100
AcDbLine
 10
394.0578436664198
 20
186.8261068167297
 30
0.0
 11
397.5578436664198
 21
186.8261068167297
 31
0.0
  0
LINE
  5
12B
330
52
100
AcDbEntity
  8
LEVEL001
  6
CONTINUOUS
 62
     1
100
AcDbLine
 10
401.0578436664198
 20
186.8261068167297
 30
0.0
 11
397.5578436664198
 21
186.8261068167297
 31
0.0
  0
INSERT
  5
12C
330
52
100
AcDbEntity
  8
LEVEL001
  6
CONTINUOUS
 62
     1
100
AcDbBlockReference
  2
_OPEN30
 10
394.0578436664198
 20
186.8261068167297
 30
0.0
 41
3.0
 42
3.0
 43
3.0
 50
180.0
  0
INSERT
  5
12D
330
52
100
AcDbEntity
  8
LEVEL001
  6
CONTINUOUS
 62
     1
100
AcDbBlockReference
  2
_OPEN30
 10
401.0578436664198
 20
186.8261068167297
 30
0.0
 41
3.0
 42
3.0
 43
3.0
  0
MTEXT
  5
12E
330
52
100
AcDbEntity
  8
LEVEL001
 62
     3
100
AcDbMText
 10
397.5578436664198
 20
187.57610681673
 30
0.0
 40
6.75
 41
0.0
 71
     8
 72
     5
  1
\A1;7
  7
GMM001
1001
ACAD
1000
MTEXTBEGIN
1070
    73
1070
     1
1070
    44
1040
1.0
1070
    74
1070
     0
1000
MTEXTEND
1000
MTEXTBEGIN
1070
    73
1070
     1
1070
    44
1040
1.0
1070
    74
1070
     0
1000
MTEXTEND
1000
MTEXTBEGIN
1070
    73
1070
     1
1070
    44
1040
1.0
1070
    74
1070
     0
1000
MTEXTEND
  0
ENDBLK
  5
12F
330
52
100
AcDbEntity
  8
0
100
AcDbBlockEnd
  0
BLOCK
  5
130
330
53
100
AcDbEntity
  8
0
100
AcDbBlockBegin
  2
*D14
 70
     1
 10
0.0
 20
0.0
 30
0.0
  3
*D14
  1

  0
LINE
  5
131
330
53
100
AcDbEntity
  8
LEVEL001
  6
CONTINUOUS
 62
     1
100
AcDbLine
 10
401.0578436664198
 20
236.8261068167297
 30
0.0
 11
401.0578436664198
 21
183.82610681673
 31
0.0
  0
LINE
  5
132
330
53
100
AcDbEntity
  8
LEVEL001
  6
CONTINUOUS
 62
     1
100
AcDbLine
 10
424.0578436664199
 20
242.2791014328999
 30
0.0
 11
424.0578436664199
 21
183.82610681673
 31
0.0
  0
LINE
  5
133
330
53
100
AcDbEntity
  8
LEVEL001
  6
CONTINUOUS
 62
     1
100
AcDbLine
 10
401.0578436664198
 20
186.8261068167297
 30
0.0
 11
412.5578436664198
 21
186.8261068167297
 31
0.0
  0
LINE
  5
134
330
53
100
AcDbEntity
  8
LEVEL001
  6
CONTINUOUS
 62
     1
100
AcDbLine
 10
424.0578436664199
 20
186.8261068167297
 30
0.0
 11
412.5578436664198
 21
186.8261068167297
 31
0.0
  0
INSERT
  5
135
330
53
100
AcDbEntity
  8
LEVEL001
  6
CONTINUOUS
 62
     1
100
AcDbBlockReference
  2
_OPEN30
 10
401.0578436664198
 20
186.8261068167297
 30
0.0
 41
3.0
 42
3.0
 43
3.0
 50
180.0
  0
INSERT
  5
136
330
53
100
AcDbEntity
  8
LEVEL001
  6
CONTINUOUS
 62
     1
100
AcDbBlockReference
  2
_OPEN30
 10
424.0578436664199
 20
186.8261068167297
 30
0.0
 41
3.0
 42
3.0
 43
3.0
  0
MTEXT
  5
137
330
53
100
AcDbEntity
  8
LEVEL001
 62
     3
100
AcDbMText
 10
412.5578436664198
 20
187.57610681673
 30
0.0
 40
6.75
 41
0.0
 71
     8
 72
     5
  1
\A1;23
  7
GMM001
1001
ACAD
1000
MTEXTBEGIN
1070
    73
1070
     1
1070
    44
1040
1.0
1070
    74
1070
     0
1000
MTEXTEND
1000
MTEXTBEGIN
1070
    73
1070
     1
1070
    44
1040
1.0
1070
    74
1070
     0
1000
MTEXTEND
1000
MTEXTBEGIN
1070
    73
1070
     1
1070
    44
1040
1.0
1070
    74
1070
     0
1000
MTEXTEND
  0
ENDBLK
  5
138
330
53
100
AcDbEntity
  8
0
100
AcDbBlockEnd
  0
BLOCK
  5
139
330
54
100
AcDbEntity
  8
0
100
AcDbBlockBegin
  2
*D15
 70
     1
 10
0.0
 20
0.0
 30
0.0
  3
*D15
  1

  0
LINE
  5
13A
330
54
100
AcDbEntity
  8
LEVEL001
  6
CONTINUOUS
 62
     1
100
AcDbLine
 10
376.0578436664199
 20
218.82610681673
 30
0.0
 11
376.0578436664199
 21
198.82610681673
 31
0.0
  0
LINE
  5
13B
330
54
100
AcDbEntity
  8
LEVEL001
  6
CONTINUOUS
 62
     1
100
AcDbLine
 10
386.0578436664198
 20
218.82610681673
 30
0.0
 11
386.0578436664198
 21
198.82610681673
 31
0.0
  0
LINE
  5
13C
330
54
100
AcDbEntity
  8
LEVEL001
  6
CONTINUOUS
 62
     1
100
AcDbLine
 10
376.0578436664199
 20
201.82610681673
 30
0.0
 11
381.0578436664199
 21
201.82610681673
 31
0.0
  0
LINE
  5
13D
330
54
100
AcDbEntity
  8
LEVEL001
  6
CONTINUOUS
 62
     1
100
AcDbLine
 10
386.0578436664198
 20
201.82610681673
 30
0.0
 11
381.0578436664199
 21
201.82610681673
 31
0.0
  0
INSERT
  5
13E
330
54
100
AcDbEntity
  8
LEVEL001
  6
CONTINUOUS
 62
     1
100
AcDbBlockReference
  2
_OPEN30
 10
376.0578436664199
 20
201.82610681673
 30
0.0
 41
3.0
 42
3.0
 43
3.0
 50
180.0
  0
INSERT
  5
13F
330
54
100
AcDbEntity
  8
LEVEL001
  6
CONTINUOUS
 62
     1
100
AcDbBlockReference
  2
_OPEN30
 10
386.0578436664198
 20
201.82610681673
 30
0.0
 41
3.0
 42
3.0
 43
3.0
  0
MTEXT
  5
140
330
54
100
AcDbEntity
  8
LEVEL001
 62
     3
100
AcDbMText
 10
381.0578436664199
 20
202.5761068167299
 30
0.0
 40
6.75
 41
0.0
 71
     8
 72
     5
  1
\A1;10
  7
GMM001
1001
ACAD
1000
MTEXTBEGIN
1070
    73
1070
     1
1070
    44
1040
1.0
1070
    74
1070
     0
1000
MTEXTEND
1000
MTEXTBEGIN
1070
    73
1070
     1
1070
    44
1040
1.0
1070
    74
1070
     0
1000
MTEXTEND
1000
MTEXTBEGIN
1070
    73
1070
     1
1070
    44
1040
1.0
1070
    74
1070
     0
1000
MTEXTEND
  0
ENDBLK
  5
141
330
54
100
AcDbEntity
  8
0
100
AcDbBlockEnd
  0
BLOCK
  5
142
330
55
100
AcDbEntity
  8
0
100
AcDbBlockBegin
  2
*D16
 70
     1
 10
0.0
 20
0.0
 30
0.0
  3
*D16
  1

  0
LINE
  5
143
330
55
100
AcDbEntity
  8
LEVEL001
  6
CONTINUOUS
 62
     1
100
AcDbLine
 10
147.05784366642
 20
224.3261068167297
 30
0.0
 11
147.05784366642
 21
168.82610681673
 31
0.0
  0
LINE
  5
144
330
55
100
AcDbEntity
  8
LEVEL001
  6
CONTINUOUS
 62
     1
100
AcDbLine
 10
147.05784366642
 20
171.82610681673
 30
0.0
 11
266.55784366642
 21
171.82610681673
 31
0.0
  0
LINE
  5
145
330
55
100
AcDbEntity
  8
LEVEL001
  6
CONTINUOUS
 62
     1
100
AcDbLine
 10
386.0578436664198
 20
171.82610681673
 30
0.0
 11
266.55784366642
 21
171.82610681673
 31
0.0
  0
INSERT
  5
146
330
55
100
AcDbEntity
  8
LEVEL001
  6
CONTINUOUS
 62
     1
100
AcDbBlockReference
  2
_OPEN30
 10
147.05784366642
 20
171.82610681673
 30
0.0
 41
3.0
 42
3.0
 43
3.0
 50
180.0
  0
INSERT
  5
147
330
55
100
AcDbEntity
  8
LEVEL001
  6
CONTINUOUS
 62
     1
100
AcDbBlockReference
  2
_OPEN30
 10
386.0578436664198
 20
171.82610681673
 30
0.0
 41
3.0
 42
3.0
 43
3.0
  0
MTEXT
  5
148
330
55
100
AcDbEntity
  8
LEVEL001
 62
     3
100
AcDbMText
 10
266.55784366642
 20
172.57610681673
 30
0.0
 40
6.75
 41
0.0
 71
     8
 72
     5
  1
\A1;L
  7
GMM001
1001
ACAD
1000
MTEXTBEGIN
1070
    73
1070
     1
1070
    44
1040
1.0
1070
    74
1070
     0
1000
MTEXTEND
1000
MTEXTBEGIN
1070
    73
1070
     1
1070
    44
1040
1.0
1070
    74
1070
     0
1000
MTEXTEND
1000
MTEXTBEGIN
1070
    73
1070
     1
1070
    44
1040
1.0
1070
    74
1070
     0
1000
MTEXTEND
  0
ENDBLK
  5
149
330
55
100
AcDbEntity
  8
0
100
AcDbBlockEnd
  0
BLOCK
  5
14A
330
56
100
AcDbEntity
  8
0
100
AcDbBlockBegin
  2
*D17
 70
     1
 10
0.0
 20
0.0
 30
0.0
  3
*D17
  1

  0
LINE
  5
14B
330
56
100
AcDbEntity
  8
LEVEL001
  6
CONTINUOUS
 62
     1
100
AcDbLine
 10
386.0578436664198
 20
218.82610681673
 30
0.0
 11
386.0578436664198
 21
168.82610681673
 31
0.0
  0
LINE
  5
14C
330
56
100
AcDbEntity
  8
LEVEL001
  6
CONTINUOUS
 62
     1
100
AcDbLine
 10
386.0578436664198
 20
171.82610681673
 30
0.0
 11
387.5578436664198
 21
171.82610681673
 31
0.0
  0
LINE
  5
14D
330
56
100
AcDbEntity
  8
LEVEL001
  6
CONTINUOUS
 62
     1
100
AcDbLine
 10
389.0578436664199
 20
171.82610681673
 30
0.0
 11
387.5578436664198
 21
171.82610681673
 31
0.0
  0
MTEXT
  5
14E
330
56
100
AcDbEntity
  8
LEVEL001
 62
     3
100
AcDbMText
 10
387.5578436664198
 20
172.57610681673
 30
0.0
 40
6.75
 41
0.0
 71
     8
 72
     5
  1
\A1;3
  7
GMM001
1001
ACAD
1000
MTEXTBEGIN
1070
    73
1070
     1
1070
    44
1040
1.0
1070
    74
1070
     0
1000
MTEXTEND
1000
MTEXTBEGIN
1070
    73
1070
     1
1070
    44
1040
1.0
1070
    74
1070
     0
1000
MTEXTEND
1000
MTEXTBEGIN
1070
    73
1070
     1
1070
    44
1040
1.0
1070
    74
1070
     0
1000
MTEXTEND
  0
ENDBLK
  5
14F
330
56
100
AcDbEntity
  8
0
100
AcDbBlockEnd
  0
BLOCK
  5
150
330
57
100
AcDbEntity
  8
0
100
AcDbBlockBegin
  2
*D18
 70
     1
 10
0.0
 20
0.0
 30
0.0
  3
*D18
  1

  0
LINE
  5
151
330
57
100
AcDbEntity
  8
LEVEL001
  6
CONTINUOUS
 62
     1
100
AcDbLine
 10
389.0578436664199
 20
230.3261068167298
 30
0.0
 11
389.0578436664199
 21
168.82610681673
 31
0.0
  0
LINE
  5
152
330
57
100
AcDbEntity
  8
LEVEL001
  6
CONTINUOUS
 62
     1
100
AcDbLine
 10
424.0578436664199
 20
242.2791014328999
 30
0.0
 11
424.0578436664199
 21
168.82610681673
 31
0.0
  0
LINE
  5
153
330
57
100
AcDbEntity
  8
LEVEL001
  6
CONTINUOUS
 62
     1
100
AcDbLine
 10
389.0578436664199
 20
171.82610681673
 30
0.0
 11
406.5578436664199
 21
171.82610681673
 31
0.0
  0
LINE
  5
154
330
57
100
AcDbEntity
  8
LEVEL001
  6
CONTINUOUS
 62
     1
100
AcDbLine
 10
424.0578436664199
 20
171.82610681673
 30
0.0
 11
406.5578436664199
 21
171.82610681673
 31
0.0
  0
INSERT
  5
155
330
57
100
AcDbEntity
  8
LEVEL001
  6
CONTINUOUS
 62
     1
100
AcDbBlockReference
  2
_OPEN30
 10
389.0578436664199
 20
171.82610681673
 30
0.0
 41
3.0
 42
3.0
 43
3.0
 50
180.0
  0
INSERT
  5
156
330
57
100
AcDbEntity
  8
LEVEL001
  6
CONTINUOUS
 62
     1
100
AcDbBlockReference
  2
_OPEN30
 10
424.0578436664199
 20
171.82610681673
 30
0.0
 41
3.0
 42
3.0
 43
3.0
  0
MTEXT
  5
157
330
57
100
AcDbEntity
  8
LEVEL001
 62
     3
100
AcDbMText
 10
406.5578436664199
 20
172.57610681673
 30
0.0
 40
6.75
 41
0.0
 71
     8
 72
     5
  1
\A1;35
  7
GMM001
1001
ACAD
1000
MTEXTBEGIN
1070
    73
1070
     1
1070
    44
1040
1.0
1070
    74
1070
     0
1000
MTEXTEND
1000
MTEXTBEGIN
1070
    73
1070
     1
1070
    44
1040
1.0
1070
    74
1070
     0
1000
MTEXTEND
1000
MTEXTBEGIN
1070
    73
1070
     1
1070
    44
1040
1.0
1070
    74
1070
     0
1000
MTEXTEND
  0
ENDBLK
  5
158
330
57
100
AcDbEntity
  8
0
100
AcDbBlockEnd
  0
BLOCK
  5
69
330
58
100
AcDbEntity
  8
0
100
AcDbBlockBegin
  2
_ARCHTICK
 70
     0
 10
0.0
 20
0.0
 30
0.0
  3
_ARCHTICK
  1

  0
LWPOLYLINE
  5
6A
330
58
100
AcDbEntity
  8
0
  6
BYBLOCK
 62
     0
100
AcDbPolyline
 90
        2
 70
     1
 43
0.15
 10
-0.5
 20
-0.5
 10
0.5
 20
0.5
  0
ENDBLK
  5
6E
330
58
100
AcDbEntity
  8
0
100
AcDbBlockEnd
  0
BLOCK
  5
72
330
59
100
AcDbEntity
  8
0
100
AcDbBlockBegin
  2
_BOXBLANK
 70
     0
 10
0.0
 20
0.0
 30
0.0
  3
_BOXBLANK
  1

  0
LINE
  5
73
330
59
100
AcDbEntity
  8
0
  6
BYBLOCK
 62
     0
100
AcDbLine
 10
-0.5
 20
-0.5
 30
0.0
 11
0.5
 21
-0.5
 31
0.0
  0
LINE
  5
74
330
59
100
AcDbEntity
  8
0
  6
BYBLOCK
 62
     0
100
AcDbLine
 10
0.5
 20
-0.5
 30
0.0
 11
0.5
 21
0.5
 31
0.0
  0
LINE
  5
75
330
59
100
AcDbEntity
  8
0
  6
BYBLOCK
 62
     0
100
AcDbLine
 10
0.5
 20
0.5
 30
0.0
 11
-0.5
 21
0.5
 31
0.0
  0
LINE
  5
76
330
59
100
AcDbEntity
  8
0
  6
BYBLOCK
 62
     0
100
AcDbLine
 10
-0.5
 20
0.5
 30
0.0
 11
-0.5
 21
-0.5
 31
0.0
  0
LINE
  5
77
330
59
100
AcDbEntity
  8
0
  6
BYBLOCK
 62
     0
100
AcDbLine
 10
-0.5
 20
0.0
 30
0.0
 11
-1.0
 21
0.0
 31
0.0
  0
ENDBLK
  5
78
330
59
100
AcDbEntity
  8
0
100
AcDbBlockEnd
  0
BLOCK
  5
79
330
5A
100
AcDbEntity
  8
0
100
AcDbBlockBegin
  2
_BOXFILLED
 70
     0
 10
0.0
 20
0.0
 30
0.0
  3
_BOXFILLED
  1

  0
SOLID
  5
7A
330
5A
100
AcDbEntity
  8
0
  6
BYBLOCK
 62
     0
100
AcDbTrace
 10
-0.5
 20
0.5
 30
0.0
 11
0.5
 21
0.5
 31
0.0
 12
-0.5
 22
-0.5
 32
0.0
 13
0.5
 23
-0.5
 33
0.0
  0
LINE
  5
7B
330
5A
100
AcDbEntity
  8
0
  6
BYBLOCK
 62
     0
100
AcDbLine
 10
-0.5
 20
0.0
 30
0.0
 11
-1.0
 21
0.0
 31
0.0
  0
ENDBLK
  5
7C
330
5A
100
AcDbEntity
  8
0
100
AcDbBlockEnd
  0
BLOCK
  5
7D
330
5B
100
AcDbEntity
  8
0
100
AcDbBlockBegin
  2
_CLOSED
 70
     0
 10
0.0
 20
0.0
 30
0.0
  3
_CLOSED
  1

  0
LINE
  5
7E
330
5B
100
AcDbEntity
  8
0
  6
BYBLOCK
 62
     0
100
AcDbLine
 10
-1.0
 20
0.16666666666667
 30
0.0
 11
0.0
 21
0.0
 31
0.0
  0
LINE
  5
7F
330
5B
100
AcDbEntity
  8
0
  6
BYBLOCK
 62
     0
100
AcDbLine
 10
0.0
 20
0.0
 30
0.0
 11
-1.0
 21
-0.16666666666667
 31
0.0
  0
LINE
  5
80
330
5B
100
AcDbEntity
  8
0
  6
BYBLOCK
 62
     0
100
AcDbLine
 10
-1.0
 20
0.16666666666667
 30
0.0
 11
-1.0
 21
-0.16666666666667
 31
0.0
  0
LINE
  5
81
330
5B
100
AcDbEntity
  8
0
  6
BYBLOCK
 62
     0
100
AcDbLine
 10
0.0
 20
0.0
 30
0.0
 11
-1.0
 21
0.0
 31
0.0
  0
ENDBLK
  5
82
330
5B
100
AcDbEntity
  8
0
100
AcDbBlockEnd
  0
BLOCK
  5
92
330
5C
100
AcDbEntity
  8
0
100
AcDbBlockBegin
  2
_CLOSEDBLANK
 70
     0
 10
0.0
 20
0.0
 30
0.0
  3
_CLOSEDBLANK
  1

  0
LINE
  5
93
330
5C
100
AcDbEntity
  8
0
  6
BYBLOCK
 62
     0
100
AcDbLine
 10
-1.0
 20
0.16666666666667
 30
0.0
 11
0.0
 21
0.0
 31
0.0
  0
LINE
  5
94
330
5C
100
AcDbEntity
  8
0
  6
BYBLOCK
 62
     0
100
AcDbLine
 10
0.0
 20
0.0
 30
0.0
 11
-1.0
 21
-0.16666666666667
 31
0.0
  0
LINE
  5
95
330
5C
100
AcDbEntity
  8
0
  6
BYBLOCK
 62
     0
100
AcDbLine
 10
-1.0
 20
0.16666666666667
 30
0.0
 11
-1.0
 21
-0.16666666666667
 31
0.0
  0
ENDBLK
  5
96
330
5C
100
AcDbEntity
  8
0
100
AcDbBlockEnd
  0
BLOCK
  5
A4
330
5D
100
AcDbEntity
  8
0
100
AcDbBlockBegin
  2
_DATUMBLANK
 70
     0
 10
0.0
 20
0.0
 30
0.0
  3
_DATUMBLANK
  1

  0
LINE
  5
A5
330
5D
100
AcDbEntity
  8
0
  6
BYBLOCK
 62
     0
100
AcDbLine
 10
0.0
 20
0.5773502700000001
 30
0.0
 11
-1.0
 21
0.0
 31
0.0
  0
LINE
  5
A6
330
5D
100
AcDbEntity
  8
0
  6
BYBLOCK
 62
     0
100
AcDbLine
 10
-1.0
 20
0.0
 30
0.0
 11
0.0
 21
-0.5773502700000001
 31
0.0
  0
LINE
  5
A7
330
5D
100
AcDbEntity
  8
0
  6
BYBLOCK
 62
     0
100
AcDbLine
 10
0.0
 20
-0.5773502700000001
 30
0.0
 11
0.0
 21
0.5773502700000001
 31
0.0
  0
ENDBLK
  5
A8
330
5D
100
AcDbEntity
  8
0
100
AcDbBlockEnd
  0
BLOCK
  5
A9
330
5E
100
AcDbEntity
  8
0
100
AcDbBlockBegin
  2
_DATUMFILLED
 70
     0
 10
0.0
 20
0.0
 30
0.0
  3
_DATUMFILLED
  1

  0
SOLID
  5
AA
330
5E
100
AcDbEntity
  8
0
  6
BYBLOCK
 62
     0
100
AcDbTrace
 10
0.0
 20
0.5773502700000001
 30
0.0
 11
-1.0
 21
0.0
 31
0.0
 12
0.0
 22
-0.5773502700000001
 32
0.0
 13
0.0
 23
-0.5773502700000001
 33
0.0
  0
ENDBLK
  5
AB
330
5E
100
AcDbEntity
  8
0
100
AcDbBlockEnd
  0
BLOCK
  5
97
330
5F
100
AcDbEntity
  8
0
100
AcDbBlockBegin
  2
_DOT
 70
     0
 10
0.0
 20
0.0
 30
0.0
  3
_DOT
  1

  0
LWPOLYLINE
  5
98
330
5F
100
AcDbEntity
  8
0
  6
BYBLOCK
 62
     0
100
AcDbPolyline
 90
        2
 70
     1
 43
0.5
 10
-0.25
 20
0.0
 42
1.0
 10
0.25
 20
0.0
 42
1.0
  0
LINE
  5
9C
330
5F
100
AcDbEntity
  8
0
  6
BYBLOCK
 62
     0
100
AcDbLine
 10
-0.5
 20
0.0
 30
0.0
 11
-1.0
 21
0.0
 31
0.0
  0
ENDBLK
  5
9D
330
5F
100
AcDbEntity
  8
0
100
AcDbBlockEnd
  0
BLOCK
  5
B3
330
60
100
AcDbEntity
  8
0
100
AcDbBlockBegin
  2
_DOTBLANK
 70
     0
 10
0.0
 20
0.0
 30
0.0
  3
_DOTBLANK
  1

  0
CIRCLE
  5
B4
330
60
100
AcDbEntity
  8
0
  6
BYBLOCK
 62
     0
100
AcDbCircle
 10
0.0
 20
0.0
 30
0.0
 40
0.5
  0
LINE
  5
B5
330
60
100
AcDbEntity
  8
0
  6
BYBLOCK
 62
     0
100
AcDbLine
 10
-0.5
 20
0.0
 30
0.0
 11
-1.0
 21
0.0
 31
0.0
  0
ENDBLK
  5
B6
330
60
100
AcDbEntity
  8
0
100
AcDbBlockEnd
  0
BLOCK
  5
9E
330
61
100
AcDbEntity
  8
0
100
AcDbBlockBegin
  2
_DOTSMALL
 70
     0
 10
0.0
 20
0.0
 30
0.0
  3
_DOTSMALL
  1

  0
LWPOLYLINE
  5
9F
330
61
100
AcDbEntity
  8
0
  6
BYBLOCK
 62
     0
100
AcDbPolyline
 90
        2
 70
     1
 43
0.5
 10
-0.0625
 20
0.0
 42
1.0
 10
0.0625
 20
0.0
 42
1.0
  0
ENDBLK
  5
A3
330
61
100
AcDbEntity
  8
0
100
AcDbBlockEnd
  0
BLOCK
  5
B7
330
62
100
AcDbEntity
  8
0
100
AcDbBlockBegin
  2
_INTEGRAL
 70
     0
 10
0.0
 20
0.0
 30
0.0
  3
_INTEGRAL
  1

  0
ARC
  5
B8
330
62
100
AcDbEntity
  8
0
  6
BYBLOCK
 62
     0
100
AcDbCircle
 10
0.444888
 20
-0.091335
 30
0.0
 40
0.454167
100
AcDbArc
 50
102.0
 51
168.0
  0
ARC
  5
B9
330
62
100
AcDbEntity
  8
0
  6
BYBLOCK
 62
     0
100
AcDbCircle
 10
-0.444888
 20
0.091335
 30
0.0
 40
0.454167
100
AcDbArc
 50
282.0
 51
348.0
  0
ENDBLK
  5
BA
330
62
100
AcDbEntity
  8
0
100
AcDbBlockEnd
  0
BLOCK
  5
B0
330
63
100
AcDbEntity
  8
0
100
AcDbBlockBegin
  2
_NONE
 70
     0
 10
0.0
 20
0.0
 30
0.0
  3
_NONE
  1

  0
CIRCLE
  5
B1
330
63
100
AcDbEntity
  8
0
  6
BYBLOCK
 62
     0
100
AcDbCircle
 10
0.0
 20
0.0
 30
0.0
 40
0.25
  0
ENDBLK
  5
B2
330
63
100
AcDbEntity
  8
0
100
AcDbBlockEnd
  0
BLOCK
  5
6F
330
64
100
AcDbEntity
  8
0
100
AcDbBlockBegin
  2
_OBLIQUE
 70
     0
 10
0.0
 20
0.0
 30
0.0
  3
_OBLIQUE
  1

  0
LINE
  5
70
330
64
100
AcDbEntity
  8
0
  6
BYBLOCK
 62
     0
100
AcDbLine
 10
-0.5
 20
-0.5
 30
0.0
 11
0.5
 21
0.5
 31
0.0
  0
ENDBLK
  5
71
330
64
100
AcDbEntity
  8
0
100
AcDbBlockEnd
  0
BLOCK
  5
83
330
65
100
AcDbEntity
  8
0
100
AcDbBlockBegin
  2
_OPEN
 70
     0
 10
0.0
 20
0.0
 30
0.0
  3
_OPEN
  1

  0
LINE
  5
84
330
65
100
AcDbEntity
  8
0
  6
BYBLOCK
 62
     0
100
AcDbLine
 10
-1.0
 20
0.16666666666667
 30
0.0
 11
0.0
 21
0.0
 31
0.0
  0
LINE
  5
85
330
65
100
AcDbEntity
  8
0
  6
BYBLOCK
 62
     0
100
AcDbLine
 10
0.0
 20
0.0
 30
0.0
 11
-1.0
 21
-0.16666666666667
 31
0.0
  0
LINE
  5
86
330
65
100
AcDbEntity
  8
0
  6
BYBLOCK
 62
     0
100
AcDbLine
 10
0.0
 20
0.0
 30
0.0
 11
-1.0
 21
0.0
 31
0.0
  0
ENDBLK
  5
87
330
65
100
AcDbEntity
  8
0
100
AcDbBlockEnd
  0
BLOCK
  5
88
330
66
100
AcDbEntity
  8
0
100
AcDbBlockBegin
  2
_OPEN30
 70
     0
 10
0.0
 20
0.0
 30
0.0
  3
_OPEN30
  1

  0
LINE
  5
89
330
66
100
AcDbEntity
  8
0
  6
BYBLOCK
 62
     0
100
AcDbLine
 10
-1.0
 20
0.2679491924311
 30
0.0
 11
0.0
 21
0.0
 31
0.0
  0
LINE
  5
8A
330
66
100
AcDbEntity
  8
0
  6
BYBLOCK
 62
     0
100
AcDbLine
 10
0.0
 20
0.0
 30
0.0
 11
-1.0
 21
-0.2679491924311
 31
0.0
  0
LINE
  5
8B
330
66
100
AcDbEntity
  8
0
  6
BYBLOCK
 62
     0
100
AcDbLine
 10
0.0
 20
0.0
 30
0.0
 11
-1.0
 21
0.0
 31
0.0
  0
ENDBLK
  5
8C
330
66
100
AcDbEntity
  8
0
100
AcDbBlockEnd
  0
BLOCK
  5
8D
330
67
100
AcDbEntity
  8
0
100
AcDbBlockBegin
  2
_OPEN90
 70
     0
 10
0.0
 20
0.0
 30
0.0
  3
_OPEN90
  1

  0
LINE
  5
8E
330
67
100
AcDbEntity
  8
0
  6
BYBLOCK
 62
     0
100
AcDbLine
 10
-0.5
 20
0.5
 30
0.0
 11
0.0
 21
0.0
 31
0.0
  0
LINE
  5
8F
330
67
100
AcDbEntity
  8
0
  6
BYBLOCK
 62
     0
100
AcDbLine
 10
0.0
 20
0.0
 30
0.0
 11
-0.5
 21
-0.5
 31
0.0
  0
LINE
  5
90
330
67
100
AcDbEntity
  8
0
  6
BYBLOCK
 62
     0
100
AcDbLine
 10
0.0
 20
0.0
 30
0.0
 11
-1.0
 21
0.0
 31
0.0
  0
ENDBLK
  5
91
330
67
100
AcDbEntity
  8
0
100
AcDbBlockEnd
  0
BLOCK
  5
AC
330
68
100
AcDbEntity
  8
0
100
AcDbBlockBegin
  2
_ORIGIN
 70
     0
 10
0.0
 20
0.0
 30
0.0
  3
_ORIGIN
  1

  0
CIRCLE
  5
AD
330
68
100
AcDbEntity
  8
0
  6
BYBLOCK
 62
     0
100
AcDbCircle
 10
0.0
 20
0.0
 30
0.0
 40
0.5
  0
LINE
  5
AE
330
68
100
AcDbEntity
  8
0
  6
BYBLOCK
 62
     0
100
AcDbLine
 10
0.0
 20
0.0
 30
0.0
 11
-1.0
 21
0.0
 31
0.0
  0
ENDBLK
  5
AF
330
68
100
AcDbEntity
  8
0
100
AcDbBlockEnd
  0
BLOCK
  5
3E5
330
3DB
100
AcDbEntity
  8
0
100
AcDbBlockBegin
  2
*D36
 70
     1
 10
0.0
 20
0.0
 30
0.0
  3
*D36
  1

  0
LINE
  5
6AB
330
3DB
100
AcDbEntity
  8
LEVEL001
  6
CONTINUOUS
100
AcDbLine
 10
147.05784366642
 20
224.3261068167297
 30
0.0
 11
147.05784366642
 21
168.82610681673
 31
0.0
  0
LINE
  5
6AC
330
3DB
100
AcDbEntity
  8
LEVEL001
  6
CONTINUOUS
100
AcDbLine
 10
386.0578436664198
 20
218.8261068167299
 30
0.0
 11
386.0578436664198
 21
168.82610681673
 31
0.0
  0
LINE
  5
6AD
330
3DB
100
AcDbEntity
  8
LEVEL001
  6
CONTINUOUS
100
AcDbLine
 10
150.05784366642
 20
171.82610681673
 30
0.0
 11
383.0578436664199
 21
171.82610681673
 31
0.0
  0
INSERT
  5
6AE
330
3DB
100
AcDbEntity
  8
LEVEL001
  6
CONTINUOUS
100
AcDbBlockReference
  2
_OPEN30
 10
147.05784366642
 20
171.82610681673
 30
0.0
 41
3.0
 42
3.0
 43
3.0
 50
180.0
  0
INSERT
  5
6AF
330
3DB
100
AcDbEntity
  8
LEVEL001
  6
CONTINUOUS
100
AcDbBlockReference
  2
_OPEN30
 10
386.0578436664198
 20
171.82610681673
 30
0.0
 41
3.0
 42
3.0
 43
3.0
  0
MTEXT
  5
6B0
330
3DB
100
AcDbEntity
  8
LEVEL001
  6
CONTINUOUS
100
AcDbMText
 10
266.55784366642
 20
175.95110681673
 30
0.0
 40
6.75
 41
0.0
 71
     5
 72
     5
  1
\A1;\A1;L
  7
GMM001
1001
ACAD
1000
MTEXTBEGIN
1070
    73
1070
     1
1070
    44
1040
1.0
1070
    74
1070
     0
1000
MTEXTEND
1000
MTEXTBEGIN
1070
    73
1070
     1
1070
    44
1040
1.0
1070
    74
1070
     0
1000
MTEXTEND
1000
MTEXTBEGIN
1070
    73
1070
     1
1070
    44
1040
1.0
1070
    74
1070
     0
1000
MTEXTEND
  0
POINT
  5
6B1
330
3DB
100
AcDbEntity
  8
DEFPOINTS
  6
CONTINUOUS
 62
     0
100
AcDbPoint
 10
147.05784366642
 20
227.32610681673
 30
0.0
  0
POINT
  5
6B2
330
3DB
100
AcDbEntity
  8
DEFPOINTS
  6
CONTINUOUS
 62
     0
100
AcDbPoint
 10
386.0578436664198
 20
221.8261068167298
 30
0.0
  0
POINT
  5
6B3
330
3DB
100
AcDbEntity
  8
DEFPOINTS
  6
CONTINUOUS
 62
     0
100
AcDbPoint
 10
386.0578436664198
 20
171.82610681673
 30
0.0
  0
ENDBLK
  5
3E6
330
3DB
100
AcDbEntity
  8
0
100
AcDbBlockEnd
  0
BLOCK
  5
3F1
330
3E7
100
AcDbEntity
  8
0
100
AcDbBlockBegin
  2
*D37
 70
     1
 10
0.0
 20
0.0
 30
0.0
  3
*D37
  1

  0
LINE
  5
6D3
330
3E7
100
AcDbEntity
  8
LEVEL001
  6
CONTINUOUS
100
AcDbLine
 10
62.400252005709
 20
227.68094414332
 30
0.0
 11
62.400252005709
 21
203.82610681673
 31
0.0
  0
LINE
  5
6D4
330
3E7
100
AcDbEntity
  8
LEVEL001
  6
CONTINUOUS
100
AcDbLine
 10
84.400252005709
 20
227.8174967306299
 30
0.0
 11
84.400252005709
 21
203.82610681673
 31
0.0
  0
LINE
  5
6D5
330
3E7
100
AcDbEntity
  8
LEVEL001
  6
CONTINUOUS
100
AcDbLine
 10
65.40025200570901
 20
206.8261068167299
 30
0.0
 11
81.40025200570901
 21
206.8261068167299
 31
0.0
  0
INSERT
  5
6D6
330
3E7
100
AcDbEntity
  8
LEVEL001
  6
CONTINUOUS
100
AcDbBlockReference
  2
_OPEN30
 10
62.400252005709
 20
206.8261068167299
 30
0.0
 41
3.0
 42
3.0
 43
3.0
 50
180.0
  0
INSERT
  5
6D7
330
3E7
100
AcDbEntity
  8
LEVEL001
  6
CONTINUOUS
100
AcDbBlockReference
  2
_OPEN30
 10
84.400252005709
 20
206.8261068167299
 30
0.0
 41
3.0
 42
3.0
 43
3.0
  0
MTEXT
  5
6D8
330
3E7
100
AcDbEntity
  8
LEVEL001
  6
CONTINUOUS
100
AcDbMText
 10
73.40025200570902
 20
210.95110681673
 30
0.0
 40
6.75
 41
0.0
 71
     5
 72
     5
  1
\A1;22
  7
GMM001
1001
ACAD
1000
MTEXTBEGIN
1070
    73
1070
     1
1070
    44
1040
1.0
1070
    74
1070
     0
1000
MTEXTEND
1000
MTEXTBEGIN
1070
    73
1070
     1
1070
    44
1040
1.0
1070
    74
1070
     0
1000
MTEXTEND
1000
MTEXTBEGIN
1070
    73
1070
     1
1070
    44
1040
1.0
1070
    74
1070
     0
1000
MTEXTEND
  0
POINT
  5
6D9
330
3E7
100
AcDbEntity
  8
DEFPOINTS
  6
CONTINUOUS
 62
     0
100
AcDbPoint
 10
62.400252005709
 20
230.68094414332
 30
0.0
  0
POINT
  5
6DA
330
3E7
100
AcDbEntity
  8
DEFPOINTS
  6
CONTINUOUS
 62
     0
100
AcDbPoint
 10
84.400252005709
 20
230.8174967306299
 30
0.0
  0
POINT
  5
6DB
330
3E7
100
AcDbEntity
  8
DEFPOINTS
  6
CONTINUOUS
 62
     0
100
AcDbPoint
 10
84.400252005709
 20
206.8261068167299
 30
0.0
  0
ENDBLK
  5
3F2
330
3E7
100
AcDbEntity
  8
0
100
AcDbBlockEnd
  0
BLOCK
  5
3FD
330
3F3
100
AcDbEntity
  8
0
100
AcDbBlockBegin
  2
*D38
 70
     1
 10
0.0
 20
0.0
 30
0.0
  3
*D38
  1

  0
LINE
  5
6A2
330
3F3
100
AcDbEntity
  8
LEVEL001
  6
CONTINUOUS
100
AcDbLine
 10
101.400252005709
 20
221.8261068167298
 30
0.0
 11
125.4002520057099
 21
221.8261068167298
 31
0.0
  0
LINE
  5
6A3
330
3F3
100
AcDbEntity
  8
LEVEL001
  6
CONTINUOUS
100
AcDbLine
 10
86.70025200570902
 20
299.9261068167299
 30
0.0
 11
125.40025200571
 21
299.9261068167299
 31
0.0
  0
LINE
  5
6A4
330
3F3
100
AcDbEntity
  8
LEVEL001
  6
CONTINUOUS
100
AcDbLine
 10
122.40025200571
 20
224.8261068167298
 30
0.0
 11
122.40025200571
 21
296.9261068167298
 31
0.0
  0
INSERT
  5
6A5
330
3F3
100
AcDbEntity
  8
LEVEL001
  6
CONTINUOUS
100
AcDbBlockReference
  2
_OPEN30
 10
122.4002520057099
 20
221.8261068167298
 30
0.0
 41
3.0
 42
3.0
 43
3.0
 50
270.0
  0
INSERT
  5
6A6
330
3F3
100
AcDbEntity
  8
LEVEL001
  6
CONTINUOUS
100
AcDbBlockReference
  2
_OPEN30
 10
122.40025200571
 20
299.9261068167299
 30
0.0
 41
3.0
 42
3.0
 43
3.0
 50
90.0
  0
MTEXT
  5
6A7
330
3F3
100
AcDbEntity
  8
LEVEL001
  6
CONTINUOUS
100
AcDbMText
 10
118.2752520057099
 20
260.87610681673
 30
0.0
 40
6.75
 41
0.0
 71
     5
 72
     5
  1
\A1;\A1;(78)
  7
GMM001
 11
0.0000000000000001
 21
1.0
 31
0.0
1001
ACAD
1000
MTEXTBEGIN
1070
    73
1070
     1
1070
    44
1040
1.0
1070
    74
1070
     0
1000
MTEXTEND
1000
MTEXTBEGIN
1070
    73
1070
     1
1070
    44
1040
1.0
1070
    74
1070
     0
1000
MTEXTEND
1000
MTEXTBEGIN
1070
    73
1070
     1
1070
    44
1040
1.0
1070
    74
1070
     0
1000
MTEXTEND
  0
POINT
  5
6A8
330
3F3
100
AcDbEntity
  8
DEFPOINTS
  6
CONTINUOUS
 62
     0
100
AcDbPoint
 10
98.40025200570901
 20
221.8261068167298
 30
0.0
  0
POINT
  5
6A9
330
3F3
100
AcDbEntity
  8
DEFPOINTS
  6
CONTINUOUS
 62
     0
100
AcDbPoint
 10
83.700252005709
 20
299.9261068167299
 30
0.0
  0
POINT
  5
6AA
330
3F3
100
AcDbEntity
  8
DEFPOINTS
  6
CONTINUOUS
 62
     0
100
AcDbPoint
 10
122.40025200571
 20
299.9261068167299
 30
0.0
  0
ENDBLK
  5
3FE
330
3F3
100
AcDbEntity
  8
0
100
AcDbBlockEnd
  0
BLOCK
  5
40B
330
3FF
100
AcDbEntity
  8
0
100
AcDbBlockBegin
  2
*D39
 70
     1
 10
0.0
 20
0.0
 30
0.0
  3
*D39
  1

  0
LINE
  5
779
330
3FF
100
AcDbEntity
  8
LEVEL001
  6
CONTINUOUS
100
AcDbLine
 10
56.506295758242
 20
107.56892038209
 30
0.0
 11
56.50629575824197
 21
125.3530997952791
 31
0.0
  0
LINE
  5
77A
330
3FF
100
AcDbEntity
  8
LEVEL001
  6
CONTINUOUS
100
AcDbLine
 10
45.39976395284003
 20
93.3125420580413
 30
0.0
 11
30.86747819820516
 21
118.4831993351785
 31
0.0
  0
ARC
  5
77B
330
3FF
100
AcDbEntity
  8
LEVEL001
  6
CONTINUOUS
100
AcDbCircle
 10
56.506295758242
 20
74.07546467520527
 30
0.0
 40
48.27763512007396
100
AcDbArc
 50
93.56096577097249
 51
116.4390342290273
  0
INSERT
  5
77C
330
3FF
100
AcDbEntity
  8
LEVEL001
  6
CONTINUOUS
100
AcDbBlockReference
  2
_OPEN30
 10
56.50629575824197
 20
122.3530997952791
 30
0.0
 41
3.0
 42
3.0
 43
3.0
 50
1.780482885486245
  0
INSERT
  5
77D
330
3FF
100
AcDbEntity
  8
LEVEL001
  6
CONTINUOUS
100
AcDbBlockReference
  2
_OPEN30
 10
32.36747819820514
 20
115.8851231238251
 30
0.0
 41
3.0
 42
3.0
 43
3.0
 50
208.2195171145134
  0
MTEXT
  5
77E
330
3FF
100
AcDbEntity
  8
LEVEL001
  6
CONTINUOUS
100
AcDbMText
 10
42.94349577560872
 20
124.692523303287
 30
0.0
 40
6.75
 41
0.0
 71
     5
 72
     5
  1
\A1;30°
  7
GMM001
 11
0.9659258262890686
 21
0.2588190451025198
 31
0.0
1001
ACAD
1000
MTEXTBEGIN
1070
    73
1070
     1
1070
    44
1040
1.0
1070
    74
1070
     0
1000
MTEXTEND
1000
MTEXTBEGIN
1070
    73
1070
     1
1070
    44
1040
1.0
1070
    74
1070
     0
1000
MTEXTEND
  0
POINT
  5
77F
330
3FF
100
AcDbEntity
  8
DEFPOINTS
  6
CONTINUOUS
 62
     0
100
AcDbPoint
 10
48.12297239757221
 20
121.6196540385485
 30
0.0
  0
POINT
  5
780
330
3FF
100
AcDbEntity
  8
DEFPOINTS
  6
CONTINUOUS
 62
     0
100
AcDbPoint
 10
56.506295758242
 20
104.56892038209
 30
0.0
  0
POINT
  5
781
330
3FF
100
AcDbEntity
  8
DEFPOINTS
  6
CONTINUOUS
 62
     0
100
AcDbPoint
 10
66.09328195606797
 20
57.470317489109
 30
0.0
  0
POINT
  5
782
330
3FF
100
AcDbEntity
  8
DEFPOINTS
  6
CONTINUOUS
 62
     0
100
AcDbPoint
 10
46.89976395284
 20
90.71446584668798
 30
0.0
  0
POINT
  5
783
330
3FF
100
AcDbEntity
  8
DEFPOINTS
  6
CONTINUOUS
 62
     0
100
AcDbPoint
 10
56.50629575824201
 20
43.497911464059
 30
0.0
  0
ENDBLK
  5
40C
330
3FF
100
AcDbEntity
  8
0
100
AcDbBlockEnd
  0
BLOCK
  5
419
330
40D
100
AcDbEntity
  8
0
100
AcDbBlockBegin
  2
*D40
 70
     1
 10
0.0
 20
0.0
 30
0.0
  3
*D40
  1

  0
LINE
  5
76E
330
40D
100
AcDbEntity
  8
LEVEL001
  6
CONTINUOUS
100
AcDbLine
 10
150.9096113504693
 20
93.31254205804162
 30
0.0
 11
165.4418971051029
 21
118.4831993351866
 31
0.0
  0
LINE
  5
76F
330
40D
100
AcDbEntity
  8
LEVEL001
  6
CONTINUOUS
100
AcDbLine
 10
139.80307954507
 20
107.56892038209
 30
0.0
 11
139.80307954507
 21
125.3530997952837
 31
0.0
  0
ARC
  5
770
330
40D
100
AcDbEntity
  8
LEVEL001
  6
CONTINUOUS
100
AcDbCircle
 10
139.80307954507
 20
74.07546467520186
 30
0.0
 40
48.277635120082
100
AcDbArc
 50
63.56096577098237
 51
86.43903422902814
  0
INSERT
  5
771
330
40D
100
AcDbEntity
  8
LEVEL001
  6
CONTINUOUS
100
AcDbBlockReference
  2
_OPEN30
 10
163.9418971051033
 20
115.885123123833
 30
0.0
 41
3.0
 42
3.0
 43
3.0
 50
331.7804828854963
  0
INSERT
  5
772
330
40D
100
AcDbEntity
  8
LEVEL001
  6
CONTINUOUS
100
AcDbBlockReference
  2
_OPEN30
 10
139.80307954507
 20
122.3530997952837
 30
0.0
 41
3.0
 42
3.0
 43
3.0
 50
178.219517114514
  0
MTEXT
  5
773
330
40D
100
AcDbEntity
  8
LEVEL001
  6
CONTINUOUS
100
AcDbMText
 10
153.3658795277006
 20
124.6925233032927
 30
0.0
 40
6.75
 41
0.0
 71
     5
 72
     5
  1
\A1;30°
  7
GMM001
 11
0.9659258262890919
 21
-0.2588190451024324
 31
0.0
1001
ACAD
1000
MTEXTBEGIN
1070
    73
1070
     1
1070
    44
1040
1.0
1070
    74
1070
     0
1000
MTEXTEND
1000
MTEXTBEGIN
1070
    73
1070
     1
1070
    44
1040
1.0
1070
    74
1070
     0
1000
MTEXTEND
  0
POINT
  5
774
330
40D
100
AcDbEntity
  8
DEFPOINTS
  6
CONTINUOUS
 62
     0
100
AcDbPoint
 10
156.315003228259
 20
119.4416021465394
 30
0.0
  0
POINT
  5
775
330
40D
100
AcDbEntity
  8
DEFPOINTS
  6
CONTINUOUS
 62
     0
100
AcDbPoint
 10
130.2160933472499
 20
57.47031748910899
 30
0.0
  0
POINT
  5
776
330
40D
100
AcDbEntity
  8
DEFPOINTS
  6
CONTINUOUS
 62
     0
100
AcDbPoint
 10
139.80307954507
 20
104.56892038209
 30
0.0
  0
POINT
  5
777
330
40D
100
AcDbEntity
  8
DEFPOINTS
  6
CONTINUOUS
 62
     0
100
AcDbPoint
 10
139.80307954507
 20
43.497911464059
 30
0.0
  0
POINT
  5
778
330
40D
100
AcDbEntity
  8
DEFPOINTS
  6
CONTINUOUS
 62
     0
100
AcDbPoint
 10
149.4096113504699
 20
90.71446584668803
 30
0.0
  0
ENDBLK
  5
41A
330
40D
100
AcDbEntity
  8
0
100
AcDbBlockEnd
  0
BLOCK
  5
425
330
41B
100
AcDbEntity
  8
0
100
AcDbBlockBegin
  2
*D41
 70
     1
 10
0.0
 20
0.0
 30
0.0
  3
*D41
  1

  0
LINE
  5
6CA
330
41B
100
AcDbEntity
  8
LEVEL001
  6
CONTINUOUS
100
AcDbLine
 10
38.26910446472499
 20
250.8261068167298
 30
0.0
 11
26.40025200570899
 21
250.8261068167298
 31
0.0
  0
LINE
  5
6CB
330
41B
100
AcDbEntity
  8
LEVEL001
  6
CONTINUOUS
100
AcDbLine
 10
57.355857672879
 20
232.8261068167297
 30
0.0
 11
26.40025200570899
 21
232.8261068167297
 31
0.0
  0
LINE
  5
6CC
330
41B
100
AcDbEntity
  8
LEVEL001
  6
CONTINUOUS
100
AcDbLine
 10
29.400252005709
 20
247.8261068167298
 30
0.0
 11
29.400252005709
 21
235.8261068167299
 31
0.0
  0
INSERT
  5
6CD
330
41B
100
AcDbEntity
  8
LEVEL001
  6
CONTINUOUS
100
AcDbBlockReference
  2
_OPEN30
 10
29.400252005709
 20
250.8261068167298
 30
0.0
 41
3.0
 42
3.0
 43
3.0
 50
90.0
  0
INSERT
  5
6CE
330
41B
100
AcDbEntity
  8
LEVEL001
  6
CONTINUOUS
100
AcDbBlockReference
  2
_OPEN30
 10
29.400252005709
 20
232.8261068167297
 30
0.0
 41
3.0
 42
3.0
 43
3.0
 50
270.0
  0
MTEXT
  5
6CF
330
41B
100
AcDbEntity
  8
LEVEL001
  6
CONTINUOUS
100
AcDbMText
 10
25.27525200570896
 20
241.82610681673
 30
0.0
 40
6.75
 41
0.0
 71
     5
 72
     5
  1
\A1;18
  7
GMM001
 11
0.0000000000000001
 21
1.0
 31
0.0
1001
ACAD
1000
MTEXTBEGIN
1070
    73
1070
     1
1070
    44
1040
1.0
1070
    74
1070
     0
1000
MTEXTEND
1000
MTEXTBEGIN
1070
    73
1070
     1
1070
    44
1040
1.0
1070
    74
1070
     0
1000
MTEXTEND
1000
MTEXTBEGIN
1070
    73
1070
     1
1070
    44
1040
1.0
1070
    74
1070
     0
1000
MTEXTEND
  0
POINT
  5
6D0
330
41B
100
AcDbEntity
  8
DEFPOINTS
  6
CONTINUOUS
 62
     0
100
AcDbPoint
 10
41.26910446472499
 20
250.8261068167298
 30
0.0
  0
POINT
  5
6D1
330
41B
100
AcDbEntity
  8
DEFPOINTS
  6
CONTINUOUS
 62
     0
100
AcDbPoint
 10
60.355857672879
 20
232.8261068167297
 30
0.0
  0
POINT
  5
6D2
330
41B
100
AcDbEntity
  8
DEFPOINTS
  6
CONTINUOUS
 62
     0
100
AcDbPoint
 10
29.400252005709
 20
232.8261068167297
 30
0.0
  0
ENDBLK
  5
426
330
41B
100
AcDbEntity
  8
0
100
AcDbBlockEnd
  0
BLOCK
  5
431
330
427
100
AcDbEntity
  8
0
100
AcDbBlockBegin
  2
*D42
 70
     1
 10
0.0
 20
0.0
 30
0.0
  3
*D42
  1

  0
LINE
  5
6DC
330
427
100
AcDbEntity
  8
LEVEL001
  6
CONTINUOUS
100
AcDbLine
 10
166.05784366642
 20
338.9135707715498
 30
0.0
 11
166.05784366642
 21
352.48108478002
 31
0.0
  0
LINE
  5
6DD
330
427
100
AcDbEntity
  8
LEVEL001
  6
CONTINUOUS
100
AcDbLine
 10
147.05784366642
 20
300.9261068167298
 30
0.0
 11
147.05784366642
 21
352.48108478002
 31
0.0
  0
LINE
  5
6DE
330
427
100
AcDbEntity
  8
LEVEL001
  6
CONTINUOUS
100
AcDbLine
 10
163.05784366642
 20
349.48108478002
 30
0.0
 11
150.05784366642
 21
349.48108478002
 31
0.0
  0
INSERT
  5
6DF
330
427
100
AcDbEntity
  8
LEVEL001
  6
CONTINUOUS
100
AcDbBlockReference
  2
_OPEN30
 10
166.05784366642
 20
349.48108478002
 30
0.0
 41
3.0
 42
3.0
 43
3.0
  0
INSERT
  5
6E0
330
427
100
AcDbEntity
  8
LEVEL001
  6
CONTINUOUS
100
AcDbBlockReference
  2
_OPEN30
 10
147.05784366642
 20
349.48108478002
 30
0.0
 41
3.0
 42
3.0
 43
3.0
 50
180.0
  0
MTEXT
  5
6E1
330
427
100
AcDbEntity
  8
LEVEL001
  6
CONTINUOUS
100
AcDbMText
 10
156.55784366642
 20
353.60608478002
 30
0.0
 40
6.75
 41
0.0
 71
     5
 72
     5
  1
\A1;19
  7
GMM001
1001
ACAD
1000
MTEXTBEGIN
1070
    73
1070
     1
1070
    44
1040
1.0
1070
    74
1070
     0
1000
MTEXTEND
1000
MTEXTBEGIN
1070
    73
1070
     1
1070
    44
1040
1.0
1070
    74
1070
     0
1000
MTEXTEND
1000
MTEXTBEGIN
1070
    73
1070
     1
1070
    44
1040
1.0
1070
    74
1070
     0
1000
MTEXTEND
  0
POINT
  5
6E2
330
427
100
AcDbEntity
  8
DEFPOINTS
  6
CONTINUOUS
 62
     0
100
AcDbPoint
 10
166.05784366642
 20
335.9135707715498
 30
0.0
  0
POINT
  5
6E3
330
427
100
AcDbEntity
  8
DEFPOINTS
  6
CONTINUOUS
 62
     0
100
AcDbPoint
 10
147.05784366642
 20
297.9261068167298
 30
0.0
  0
POINT
  5
6E4
330
427
100
AcDbEntity
  8
DEFPOINTS
  6
CONTINUOUS
 62
     0
100
AcDbPoint
 10
147.05784366642
 20
349.48108478002
 30
0.0
  0
ENDBLK
  5
432
330
427
100
AcDbEntity
  8
0
100
AcDbBlockEnd
  0
BLOCK
  5
43D
330
433
100
AcDbEntity
  8
0
100
AcDbBlockBegin
  2
*D43
 70
     1
 10
0.0
 20
0.0
 30
0.0
  3
*D43
  1

  0
LINE
  5
70B
330
433
100
AcDbEntity
  8
LEVEL001
  6
CONTINUOUS
100
AcDbLine
 10
389.0578436664199
 20
230.3261068167298
 30
0.0
 11
389.0578436664199
 21
168.82610681673
 31
0.0
  0
LINE
  5
70C
330
433
100
AcDbEntity
  8
LEVEL001
  6
CONTINUOUS
100
AcDbLine
 10
424.0578436664199
 20
242.2791014328999
 30
0.0
 11
424.0578436664199
 21
168.82610681673
 31
0.0
  0
LINE
  5
70D
330
433
100
AcDbEntity
  8
LEVEL001
  6
CONTINUOUS
100
AcDbLine
 10
392.0578436664198
 20
171.82610681673
 30
0.0
 11
421.0578436664198
 21
171.82610681673
 31
0.0
  0
INSERT
  5
70E
330
433
100
AcDbEntity
  8
LEVEL001
  6
CONTINUOUS
100
AcDbBlockReference
  2
_OPEN30
 10
389.0578436664199
 20
171.82610681673
 30
0.0
 41
3.0
 42
3.0
 43
3.0
 50
180.0
  0
INSERT
  5
70F
330
433
100
AcDbEntity
  8
LEVEL001
  6
CONTINUOUS
100
AcDbBlockReference
  2
_OPEN30
 10
424.0578436664199
 20
171.82610681673
 30
0.0
 41
3.0
 42
3.0
 43
3.0
  0
MTEXT
  5
710
330
433
100
AcDbEntity
  8
LEVEL001
  6
CONTINUOUS
100
AcDbMText
 10
406.5578436664199
 20
175.95110681673
 30
0.0
 40
6.75
 41
0.0
 71
     5
 72
     5
  1
\A1;35
  7
GMM001
1001
ACAD
1000
MTEXTBEGIN
1070
    73
1070
     1
1070
    44
1040
1.0
1070
    74
1070
     0
1000
MTEXTEND
1000
MTEXTBEGIN
1070
    73
1070
     1
1070
    44
1040
1.0
1070
    74
1070
     0
1000
MTEXTEND
1000
MTEXTBEGIN
1070
    73
1070
     1
1070
    44
1040
1.0
1070
    74
1070
     0
1000
MTEXTEND
  0
POINT
  5
711
330
433
100
AcDbEntity
  8
DEFPOINTS
  6
CONTINUOUS
 62
     0
100
AcDbPoint
 10
389.0578436664199
 20
233.3261068167299
 30
0.0
  0
POINT
  5
712
330
433
100
AcDbEntity
  8
DEFPOINTS
  6
CONTINUOUS
 62
     0
100
AcDbPoint
 10
424.0578436664199
 20
245.2791014329
 30
0.0
  0
POINT
  5
713
330
433
100
AcDbEntity
  8
DEFPOINTS
  6
CONTINUOUS
 62
     0
100
AcDbPoint
 10
424.0578436664199
 20
171.82610681673
 30
0.0
  0
ENDBLK
  5
43E
330
433
100
AcDbEntity
  8
0
100
AcDbBlockEnd
  0
BLOCK
  5
449
330
43F
100
AcDbEntity
  8
0
100
AcDbBlockBegin
  2
*D44
 70
     1
 10
0.0
 20
0.0
 30
0.0
  3
*D44
  1

  0
LINE
  5
6F9
330
43F
100
AcDbEntity
  8
LEVEL001
  6
CONTINUOUS
100
AcDbLine
 10
401.0578436664198
 20
236.8261068167297
 30
0.0
 11
401.0578436664198
 21
183.82610681673
 31
0.0
  0
LINE
  5
6FA
330
43F
100
AcDbEntity
  8
LEVEL001
  6
CONTINUOUS
100
AcDbLine
 10
424.0578436664199
 20
242.2791014328999
 30
0.0
 11
424.0578436664199
 21
183.82610681673
 31
0.0
  0
LINE
  5
6FB
330
43F
100
AcDbEntity
  8
LEVEL001
  6
CONTINUOUS
100
AcDbLine
 10
404.0578436664199
 20
186.8261068167297
 30
0.0
 11
421.0578436664198
 21
186.8261068167297
 31
0.0
  0
INSERT
  5
6FC
330
43F
100
AcDbEntity
  8
LEVEL001
  6
CONTINUOUS
100
AcDbBlockReference
  2
_OPEN30
 10
401.0578436664198
 20
186.8261068167297
 30
0.0
 41
3.0
 42
3.0
 43
3.0
 50
180.0
  0
INSERT
  5
6FD
330
43F
100
AcDbEntity
  8
LEVEL001
  6
CONTINUOUS
100
AcDbBlockReference
  2
_OPEN30
 10
424.0578436664199
 20
186.8261068167297
 30
0.0
 41
3.0
 42
3.0
 43
3.0
  0
MTEXT
  5
6FE
330
43F
100
AcDbEntity
  8
LEVEL001
  6
CONTINUOUS
100
AcDbMText
 10
412.5578436664198
 20
190.9511068167297
 30
0.0
 40
6.75
 41
0.0
 71
     5
 72
     5
  1
\A1;23
  7
GMM001
1001
ACAD
1000
MTEXTBEGIN
1070
    73
1070
     1
1070
    44
1040
1.0
1070
    74
1070
     0
1000
MTEXTEND
1000
MTEXTBEGIN
1070
    73
1070
     1
1070
    44
1040
1.0
1070
    74
1070
     0
1000
MTEXTEND
1000
MTEXTBEGIN
1070
    73
1070
     1
1070
    44
1040
1.0
1070
    74
1070
     0
1000
MTEXTEND
  0
POINT
  5
6FF
330
43F
100
AcDbEntity
  8
DEFPOINTS
  6
CONTINUOUS
 62
     0
100
AcDbPoint
 10
401.0578436664198
 20
239.82610681673
 30
0.0
  0
POINT
  5
700
330
43F
100
AcDbEntity
  8
DEFPOINTS
  6
CONTINUOUS
 62
     0
100
AcDbPoint
 10
424.0578436664199
 20
245.2791014329
 30
0.0
  0
POINT
  5
701
330
43F
100
AcDbEntity
  8
DEFPOINTS
  6
CONTINUOUS
 62
     0
100
AcDbPoint
 10
424.0578436664199
 20
186.8261068167297
 30
0.0
  0
ENDBLK
  5
44A
330
43F
100
AcDbEntity
  8
0
100
AcDbBlockEnd
  0
BLOCK
  5
457
330
44B
100
AcDbEntity
  8
0
100
AcDbBlockBegin
  2
*D45
 70
     1
 10
0.0
 20
0.0
 30
0.0
  3
*D45
  1

  0
LINE
  5
6EE
330
44B
100
AcDbEntity
  8
LEVEL001
  6
CONTINUOUS
100
AcDbLine
 10
394.0578436664198
 20
236.8261068167297
 30
0.0
 11
394.0578436664198
 21
183.82610681673
 31
0.0
  0
LINE
  5
6EF
330
44B
100
AcDbEntity
  8
LEVEL001
  6
CONTINUOUS
100
AcDbLine
 10
401.0578436664198
 20
236.8261068167297
 30
0.0
 11
401.0578436664198
 21
183.82610681673
 31
0.0
  0
LINE
  5
6F0
330
44B
100
AcDbEntity
  8
LEVEL001
  6
CONTINUOUS
100
AcDbLine
 10
391.0578436664199
 20
186.8261068167297
 30
0.0
 11
388.0578436664198
 21
186.8261068167297
 31
0.0
  0
LINE
  5
6F1
330
44B
100
AcDbEntity
  8
LEVEL001
  6
CONTINUOUS
100
AcDbLine
 10
404.0578436664199
 20
186.8261068167297
 30
0.0
 11
407.0578436664199
 21
186.8261068167297
 31
0.0
  0
LINE
  5
6F2
330
44B
100
AcDbEntity
  8
LEVEL001
  6
CONTINUOUS
100
AcDbLine
 10
394.0578436664198
 20
186.8261068167297
 30
0.0
 11
401.0578436664198
 21
186.8261068167297
 31
0.0
  0
INSERT
  5
6F3
330
44B
100
AcDbEntity
  8
LEVEL001
  6
CONTINUOUS
100
AcDbBlockReference
  2
_OPEN30
 10
394.0578436664198
 20
186.8261068167297
 30
0.0
 41
3.0
 42
3.0
 43
3.0
  0
INSERT
  5
6F4
330
44B
100
AcDbEntity
  8
LEVEL001
  6
CONTINUOUS
100
AcDbBlockReference
  2
_OPEN30
 10
401.0578436664198
 20
186.8261068167297
 30
0.0
 41
3.0
 42
3.0
 43
3.0
 50
180.0
  0
MTEXT
  5
6F5
330
44B
100
AcDbEntity
  8
LEVEL001
  6
CONTINUOUS
100
AcDbMText
 10
397.5578436664198
 20
190.9511068167297
 30
0.0
 40
6.75
 41
0.0
 71
     5
 72
     5
  1
\A1;7
  7
GMM001
1001
ACAD
1000
MTEXTBEGIN
1070
    73
1070
     1
1070
    44
1040
1.0
1070
    74
1070
     0
1000
MTEXTEND
1000
MTEXTBEGIN
1070
    73
1070
     1
1070
    44
1040
1.0
1070
    74
1070
     0
1000
MTEXTEND
1000
MTEXTBEGIN
1070
    73
1070
     1
1070
    44
1040
1.0
1070
    74
1070
     0
1000
MTEXTEND
  0
POINT
  5
6F6
330
44B
100
AcDbEntity
  8
DEFPOINTS
  6
CONTINUOUS
 62
     0
100
AcDbPoint
 10
394.0578436664198
 20
239.82610681673
 30
0.0
  0
POINT
  5
6F7
330
44B
100
AcDbEntity
  8
DEFPOINTS
  6
CONTINUOUS
 62
     0
100
AcDbPoint
 10
401.0578436664198
 20
239.82610681673
 30
0.0
  0
POINT
  5
6F8
330
44B
100
AcDbEntity
  8
DEFPOINTS
  6
CONTINUOUS
 62
     0
100
AcDbPoint
 10
401.0578436664198
 20
186.8261068167297
 30
0.0
  0
ENDBLK
  5
458
330
44B
100
AcDbEntity
  8
0
100
AcDbBlockEnd
  0
BLOCK
  5
463
330
459
100
AcDbEntity
  8
0
100
AcDbBlockBegin
  2
*D46
 70
     1
 10
0.0
 20
0.0
 30
0.0
  3
*D46
  1

  0
LINE
  5
6E5
330
459
100
AcDbEntity
  8
LEVEL001
  6
CONTINUOUS
100
AcDbLine
 10
404.0578436664199
 20
240.8261068167298
 30
0.0
 11
404.0578436664199
 21
198.82610681673
 31
0.0
  0
LINE
  5
6E6
330
459
100
AcDbEntity
  8
LEVEL001
  6
CONTINUOUS
100
AcDbLine
 10
424.0578436664199
 20
242.2791014328999
 30
0.0
 11
424.0578436664199
 21
198.82610681673
 31
0.0
  0
LINE
  5
6E7
330
459
100
AcDbEntity
  8
LEVEL001
  6
CONTINUOUS
100
AcDbLine
 10
407.0578436664199
 20
201.82610681673
 30
0.0
 11
421.0578436664198
 21
201.82610681673
 31
0.0
  0
INSERT
  5
6E8
330
459
100
AcDbEntity
  8
LEVEL001
  6
CONTINUOUS
100
AcDbBlockReference
  2
_OPEN30
 10
404.0578436664199
 20
201.82610681673
 30
0.0
 41
3.0
 42
3.0
 43
3.0
 50
180.0
  0
INSERT
  5
6E9
330
459
100
AcDbEntity
  8
LEVEL001
  6
CONTINUOUS
100
AcDbBlockReference
  2
_OPEN30
 10
424.0578436664199
 20
201.82610681673
 30
0.0
 41
3.0
 42
3.0
 43
3.0
  0
MTEXT
  5
6EA
330
459
100
AcDbEntity
  8
LEVEL001
  6
CONTINUOUS
100
AcDbMText
 10
414.0578436664198
 20
205.9511068167299
 30
0.0
 40
6.75
 41
0.0
 71
     5
 72
     5
  1
\A1;20
  7
GMM001
1001
ACAD
1000
MTEXTBEGIN
1070
    73
1070
     1
1070
    44
1040
1.0
1070
    74
1070
     0
1000
MTEXTEND
1000
MTEXTBEGIN
1070
    73
1070
     1
1070
    44
1040
1.0
1070
    74
1070
     0
1000
MTEXTEND
1000
MTEXTBEGIN
1070
    73
1070
     1
1070
    44
1040
1.0
1070
    74
1070
     0
1000
MTEXTEND
  0
POINT
  5
6EB
330
459
100
AcDbEntity
  8
DEFPOINTS
  6
CONTINUOUS
 62
     0
100
AcDbPoint
 10
404.0578436664199
 20
243.8261068167299
 30
0.0
  0
POINT
  5
6EC
330
459
100
AcDbEntity
  8
DEFPOINTS
  6
CONTINUOUS
 62
     0
100
AcDbPoint
 10
424.0578436664199
 20
245.2791014329
 30
0.0
  0
POINT
  5
6ED
330
459
100
AcDbEntity
  8
DEFPOINTS
  6
CONTINUOUS
 62
     0
100
AcDbPoint
 10
424.0578436664199
 20
201.82610681673
 30
0.0
  0
ENDBLK
  5
464
330
459
100
AcDbEntity
  8
0
100
AcDbBlockEnd
  0
BLOCK
  5
46E
330
465
100
AcDbEntity
  8
0
100
AcDbBlockBegin
  2
*D47
 70
     1
 10
0.0
 20
0.0
 30
0.0
  3
*D47
  1

  0
LINE
  5
738
330
465
100
AcDbEntity
  8
LEVEL001
  6
CONTINUOUS
100
AcDbLine
 10
386.0578436664198
 20
218.8261068167299
 30
0.0
 11
386.0578436664198
 21
168.82610681673
 31
0.0
  0
LINE
  5
739
330
465
100
AcDbEntity
  8
LEVEL001
  6
CONTINUOUS
100
AcDbLine
 10
389.0578436664199
 20
230.3261068167298
 30
0.0
 11
389.0578436664199
 21
168.82610681673
 31
0.0
  0
LINE
  5
73A
330
465
100
AcDbEntity
  8
LEVEL001
  6
CONTINUOUS
100
AcDbLine
 10
386.0578436664198
 20
171.82610681673
 30
0.0
 11
389.0578436664199
 21
171.82610681673
 31
0.0
  0
LINE
  5
73B
330
465
100
AcDbEntity
  8
LEVEL001
  6
CONTINUOUS
100
AcDbLine
 10
389.0578436664199
 20
171.82610681673
 30
0.0
 11
397.0578436664199
 21
171.82610681673
 31
0.0
  0
MTEXT
  5
73C
330
465
100
AcDbEntity
  8
LEVEL001
  6
CONTINUOUS
100
AcDbMText
 10
394.5578436664199
 20
175.95110681673
 30
0.0
 40
6.75
 41
0.0
 71
     5
 72
     5
  1
\A1;3
  7
GMM001
1001
ACAD
1000
MTEXTBEGIN
1070
    73
1070
     1
1070
    44
1040
1.0
1070
    74
1070
     0
1000
MTEXTEND
1000
MTEXTBEGIN
1070
    73
1070
     1
1070
    44
1040
1.0
1070
    74
1070
     0
1000
MTEXTEND
1000
MTEXTBEGIN
1070
    73
1070
     1
1070
    44
1040
1.0
1070
    74
1070
     0
1000
MTEXTEND
  0
POINT
  5
73D
330
465
100
AcDbEntity
  8
DEFPOINTS
  6
CONTINUOUS
 62
     0
100
AcDbPoint
 10
386.0578436664198
 20
221.8261068167298
 30
0.0
  0
POINT
  5
73E
330
465
100
AcDbEntity
  8
DEFPOINTS
  6
CONTINUOUS
 62
     0
100
AcDbPoint
 10
389.0578436664199
 20
233.3261068167299
 30
0.0
  0
POINT
  5
73F
330
465
100
AcDbEntity
  8
DEFPOINTS
  6
CONTINUOUS
 62
     0
100
AcDbPoint
 10
389.0578436664199
 20
171.82610681673
 30
0.0
  0
ENDBLK
  5
46F
330
465
100
AcDbEntity
  8
0
100
AcDbBlockEnd
  0
BLOCK
  5
47A
330
470
100
AcDbEntity
  8
0
100
AcDbBlockBegin
  2
*D48
 70
     1
 10
0.0
 20
0.0
 30
0.0
  3
*D48
  1

  0
LINE
  5
702
330
470
100
AcDbEntity
  8
LEVEL001
  6
CONTINUOUS
100
AcDbLine
 10
376.0578436664199
 20
218.8261068167299
 30
0.0
 11
376.0578436664199
 21
198.82610681673
 31
0.0
  0
LINE
  5
703
330
470
100
AcDbEntity
  8
LEVEL001
  6
CONTINUOUS
100
AcDbLine
 10
386.0578436664198
 20
218.8261068167299
 30
0.0
 11
386.0578436664198
 21
198.82610681673
 31
0.0
  0
LINE
  5
704
330
470
100
AcDbEntity
  8
LEVEL001
  6
CONTINUOUS
100
AcDbLine
 10
379.0578436664199
 20
201.82610681673
 30
0.0
 11
383.0578436664199
 21
201.82610681673
 31
0.0
  0
INSERT
  5
705
330
470
100
AcDbEntity
  8
LEVEL001
  6
CONTINUOUS
100
AcDbBlockReference
  2
_OPEN30
 10
376.0578436664199
 20
201.82610681673
 30
0.0
 41
3.0
 42
3.0
 43
3.0
 50
180.0
  0
INSERT
  5
706
330
470
100
AcDbEntity
  8
LEVEL001
  6
CONTINUOUS
100
AcDbBlockReference
  2
_OPEN30
 10
386.0578436664198
 20
201.82610681673
 30
0.0
 41
3.0
 42
3.0
 43
3.0
  0
MTEXT
  5
707
330
470
100
AcDbEntity
  8
LEVEL001
  6
CONTINUOUS
100
AcDbMText
 10
381.0578436664199
 20
205.9511068167299
 30
0.0
 40
6.75
 41
0.0
 71
     5
 72
     5
  1
\A1;10
  7
GMM001
1001
ACAD
1000
MTEXTBEGIN
1070
    73
1070
     1
1070
    44
1040
1.0
1070
    74
1070
     0
1000
MTEXTEND
1000
MTEXTBEGIN
1070
    73
1070
     1
1070
    44
1040
1.0
1070
    74
1070
     0
1000
MTEXTEND
1000
MTEXTBEGIN
1070
    73
1070
     1
1070
    44
1040
1.0
1070
    74
1070
     0
1000
MTEXTEND
  0
POINT
  5
708
330
470
100
AcDbEntity
  8
DEFPOINTS
  6
CONTINUOUS
 62
     0
100
AcDbPoint
 10
376.0578436664199
 20
221.8261068167298
 30
0.0
  0
POINT
  5
709
330
470
100
AcDbEntity
  8
DEFPOINTS
  6
CONTINUOUS
 62
     0
100
AcDbPoint
 10
386.0578436664198
 20
221.8261068167298
 30
0.0
  0
POINT
  5
70A
330
470
100
AcDbEntity
  8
DEFPOINTS
  6
CONTINUOUS
 62
     0
100
AcDbPoint
 10
386.0578436664198
 20
201.82610681673
 30
0.0
  0
ENDBLK
  5
47B
330
470
100
AcDbEntity
  8
0
100
AcDbBlockEnd
  0
BLOCK
  5
486
330
47C
100
AcDbEntity
  8
0
100
AcDbBlockBegin
  2
*D49
 70
     1
 10
0.0
 20
0.0
 30
0.0
  3
*D49
  1

  0
LINE
  5
71D
330
47C
100
AcDbEntity
  8
LEVEL001
  6
CONTINUOUS
100
AcDbLine
 10
497.01173209705
 20
280.54673959815
 30
0.0
 11
497.01173209705
 21
305.71579042602
 31
0.0
  0
LINE
  5
71E
330
47C
100
AcDbEntity
  8
LEVEL001
  6
CONTINUOUS
100
AcDbLine
 10
545.01173209705
 20
280.54673959815
 30
0.0
 11
545.01173209705
 21
305.71579042602
 31
0.0
  0
LINE
  5
71F
330
47C
100
AcDbEntity
  8
LEVEL001
  6
CONTINUOUS
100
AcDbLine
 10
500.01173209705
 20
302.71579042602
 30
0.0
 11
542.0117320970501
 21
302.71579042602
 31
0.0
  0
INSERT
  5
720
330
47C
100
AcDbEntity
  8
LEVEL001
  6
CONTINUOUS
100
AcDbBlockReference
  2
_OPEN30
 10
497.01173209705
 20
302.71579042602
 30
0.0
 41
3.0
 42
3.0
 43
3.0
 50
180.0
  0
INSERT
  5
721
330
47C
100
AcDbEntity
  8
LEVEL001
  6
CONTINUOUS
100
AcDbBlockReference
  2
_OPEN30
 10
545.01173209705
 20
302.71579042602
 30
0.0
 41
3.0
 42
3.0
 43
3.0
  0
MTEXT
  5
722
330
47C
100
AcDbEntity
  8
LEVEL001
  6
CONTINUOUS
100
AcDbMText
 10
521.0117320970501
 20
306.09079042602
 30
0.0
 40
6.75
 41
0.0
 71
     5
 72
     5
  1
\A1;□48
  7
GMM001
1001
ACAD
1000
MTEXTBEGIN
1070
    73
1070
     1
1070
    44
1040
1.0
1070
    74
1070
     0
1000
MTEXTEND
1000
MTEXTBEGIN
1070
    73
1070
     1
1070
    44
1040
1.0
1070
    74
1070
     0
1000
MTEXTEND
1000
MTEXTBEGIN
1070
    73
1070
     1
1070
    44
1040
1.0
1070
    74
1070
     0
1000
MTEXTEND
  0
POINT
  5
723
330
47C
100
AcDbEntity
  8
DEFPOINTS
  6
CONTINUOUS
 62
     0
100
AcDbPoint
 10
497.01173209705
 20
279.04673959815
 30
0.0
  0
POINT
  5
724
330
47C
100
AcDbEntity
  8
DEFPOINTS
  6
CONTINUOUS
 62
     0
100
AcDbPoint
 10
545.01173209705
 20
279.04673959815
 30
0.0
  0
POINT
  5
725
330
47C
100
AcDbEntity
  8
DEFPOINTS
  6
CONTINUOUS
 62
     0
100
AcDbPoint
 10
545.01173209705
 20
302.71579042602
 30
0.0
  0
ENDBLK
  5
487
330
47C
100
AcDbEntity
  8
0
100
AcDbBlockEnd
  0
BLOCK
  5
492
330
488
100
AcDbEntity
  8
0
100
AcDbBlockBegin
  2
*D50
 70
     1
 10
0.0
 20
0.0
 30
0.0
  3
*D50
  1

  0
LINE
  5
714
330
488
100
AcDbEntity
  8
LEVEL001
  6
CONTINUOUS
100
AcDbLine
 10
492.01173209705
 20
277.32610681673
 30
0.0
 11
492.01173209705
 21
322.3261068167297
 31
0.0
  0
LINE
  5
715
330
488
100
AcDbEntity
  8
LEVEL001
  6
CONTINUOUS
100
AcDbLine
 10
550.0117320970501
 20
277.32610681673
 30
0.0
 11
550.0117320970501
 21
322.3261068167297
 31
0.0
  0
LINE
  5
716
330
488
100
AcDbEntity
  8
LEVEL001
  6
CONTINUOUS
100
AcDbLine
 10
495.01173209705
 20
319.3261068167298
 30
0.0
 11
547.01173209705
 21
319.3261068167298
 31
0.0
  0
INSERT
  5
717
330
488
100
AcDbEntity
  8
LEVEL001
  6
CONTINUOUS
100
AcDbBlockReference
  2
_OPEN30
 10
492.01173209705
 20
319.3261068167298
 30
0.0
 41
3.0
 42
3.0
 43
3.0
 50
180.0
  0
INSERT
  5
718
330
488
100
AcDbEntity
  8
LEVEL001
  6
CONTINUOUS
100
AcDbBlockReference
  2
_OPEN30
 10
550.0117320970501
 20
319.3261068167298
 30
0.0
 41
3.0
 42
3.0
 43
3.0
  0
MTEXT
  5
719
330
488
100
AcDbEntity
  8
LEVEL001
  6
CONTINUOUS
100
AcDbMText
 10
521.0117320970501
 20
322.7011068167298
 30
0.0
 40
6.75
 41
0.0
 71
     5
 72
     5
  1
\A1;□58
  7
GMM001
1001
ACAD
1000
MTEXTBEGIN
1070
    73
1070
     1
1070
    44
1040
1.0
1070
    74
1070
     0
1000
MTEXTEND
1000
MTEXTBEGIN
1070
    73
1070
     1
1070
    44
1040
1.0
1070
    74
1070
     0
1000
MTEXTEND
1000
MTEXTBEGIN
1070
    73
1070
     1
1070
    44
1040
1.0
1070
    74
1070
     0
1000
MTEXTEND
  0
POINT
  5
71A
330
488
100
AcDbEntity
  8
DEFPOINTS
  6
CONTINUOUS
 62
     0
100
AcDbPoint
 10
492.01173209705
 20
275.8261068167298
 30
0.0
  0
POINT
  5
71B
330
488
100
AcDbEntity
  8
DEFPOINTS
  6
CONTINUOUS
 62
     0
100
AcDbPoint
 10
550.0117320970501
 20
275.8261068167298
 30
0.0
  0
POINT
  5
71C
330
488
100
AcDbEntity
  8
DEFPOINTS
  6
CONTINUOUS
 62
     0
100
AcDbPoint
 10
550.0117320970501
 20
319.3261068167298
 30
0.0
  0
ENDBLK
  5
493
330
488
100
AcDbEntity
  8
0
100
AcDbBlockEnd
  0
BLOCK
  5
49E
330
494
100
AcDbEntity
  8
0
100
AcDbBlockBegin
  2
*D51
 70
     1
 10
0.0
 20
0.0
 30
0.0
  3
*D51
  1

  0
LINE
  5
72F
330
494
100
AcDbEntity
  8
LEVEL001
  6
CONTINUOUS
100
AcDbLine
 10
402.5578436664199
 20
261.8261068167297
 30
0.0
 11
447.0578436664198
 21
261.8261068167297
 31
0.0
  0
LINE
  5
730
330
494
100
AcDbEntity
  8
LEVEL001
  6
CONTINUOUS
100
AcDbLine
 10
402.5578436664199
 20
239.82610681673
 30
0.0
 11
447.0578436664198
 21
239.82610681673
 31
0.0
  0
LINE
  5
731
330
494
100
AcDbEntity
  8
LEVEL001
  6
CONTINUOUS
100
AcDbLine
 10
444.0578436664199
 20
258.8261068167298
 30
0.0
 11
444.0578436664199
 21
242.8261068167298
 31
0.0
  0
INSERT
  5
732
330
494
100
AcDbEntity
  8
LEVEL001
  6
CONTINUOUS
100
AcDbBlockReference
  2
_OPEN30
 10
444.0578436664199
 20
261.8261068167297
 30
0.0
 41
3.0
 42
3.0
 43
3.0
 50
90.0
  0
INSERT
  5
733
330
494
100
AcDbEntity
  8
LEVEL001
  6
CONTINUOUS
100
AcDbBlockReference
  2
_OPEN30
 10
444.0578436664199
 20
239.82610681673
 30
0.0
 41
3.0
 42
3.0
 43
3.0
 50
270.0
  0
MTEXT
  5
734
330
494
100
AcDbEntity
  8
LEVEL001
  6
CONTINUOUS
100
AcDbMText
 10
436.0414846407801
 20
247.9825721153798
 30
0.0
 40
6.75
 41
0.0
 71
     5
 72
     5
  1
\A1;%%c22
  7
GMM001
 11
0.0000000000000001
 21
1.0
 31
0.0
1001
ACAD
1000
MTEXTBEGIN
1070
    73
1070
     1
1070
    44
1040
1.0
1070
    74
1070
     0
1000
MTEXTEND
1000
MTEXTBEGIN
1070
    73
1070
     1
1070
    44
1040
1.0
1070
    74
1070
     0
1000
MTEXTEND
1000
MTEXTBEGIN
1070
    73
1070
     1
1070
    44
1040
1.0
1070
    74
1070
     0
1000
MTEXTEND
  0
POINT
  5
735
330
494
100
AcDbEntity
  8
DEFPOINTS
  6
CONTINUOUS
 62
     0
100
AcDbPoint
 10
401.0578436664198
 20
261.8261068167297
 30
0.0
  0
POINT
  5
736
330
494
100
AcDbEntity
  8
DEFPOINTS
  6
CONTINUOUS
 62
     0
100
AcDbPoint
 10
401.0578436664198
 20
239.82610681673
 30
0.0
  0
POINT
  5
737
330
494
100
AcDbEntity
  8
DEFPOINTS
  6
CONTINUOUS
 62
     0
100
AcDbPoint
 10
444.0578436664199
 20
239.82610681673
 30
0.0
  0
ENDBLK
  5
49F
330
494
100
AcDbEntity
  8
0
100
AcDbBlockEnd
  0
BLOCK
  5
4AA
330
4A0
100
AcDbEntity
  8
0
100
AcDbBlockBegin
  2
*D52
 70
     1
 10
0.0
 20
0.0
 30
0.0
  3
*D52
  1

  0
LINE
  5
726
330
4A0
100
AcDbEntity
  8
LEVEL001
  6
CONTINUOUS
100
AcDbLine
 10
390.5578436664199
 20
268.3261068167297
 30
0.0
 11
460.5578436664199
 21
268.3261068167297
 31
0.0
  0
LINE
  5
727
330
4A0
100
AcDbEntity
  8
LEVEL001
  6
CONTINUOUS
100
AcDbLine
 10
390.5578436664199
 20
233.3261068167299
 30
0.0
 11
460.5578436664199
 21
233.3261068167299
 31
0.0
  0
LINE
  5
728
330
4A0
100
AcDbEntity
  8
LEVEL001
  6
CONTINUOUS
100
AcDbLine
 10
457.55784366642
 20
265.3261068167298
 30
0.0
 11
457.55784366642
 21
236.3261068167298
 31
0.0
  0
INSERT
  5
729
330
4A0
100
AcDbEntity
  8
LEVEL001
  6
CONTINUOUS
100
AcDbBlockReference
  2
_OPEN30
 10
457.55784366642
 20
268.3261068167297
 30
0.0
 41
3.0
 42
3.0
 43
3.0
 50
90.0
  0
INSERT
  5
72A
330
4A0
100
AcDbEntity
  8
LEVEL001
  6
CONTINUOUS
100
AcDbBlockReference
  2
_OPEN30
 10
457.55784366642
 20
233.3261068167299
 30
0.0
 41
3.0
 42
3.0
 43
3.0
 50
270.0
  0
MTEXT
  5
72B
330
4A0
100
AcDbEntity
  8
LEVEL001
  6
CONTINUOUS
100
AcDbMText
 10
454.1828436664198
 20
250.8261068167298
 30
0.0
 40
6.75
 41
0.0
 71
     5
 72
     5
  1
\A1;%%c35
  7
GMM001
 11
0.0000000000000001
 21
1.0
 31
0.0
1001
ACAD
1000
MTEXTBEGIN
1070
    73
1070
     1
1070
    44
1040
1.0
1070
    74
1070
     0
1000
MTEXTEND
1000
MTEXTBEGIN
1070
    73
1070
     1
1070
    44
1040
1.0
1070
    74
1070
     0
1000
MTEXTEND
1000
MTEXTBEGIN
1070
    73
1070
     1
1070
    44
1040
1.0
1070
    74
1070
     0
1000
MTEXTEND
  0
POINT
  5
72C
330
4A0
100
AcDbEntity
  8
DEFPOINTS
  6
CONTINUOUS
 62
     0
100
AcDbPoint
 10
389.0578436664199
 20
268.3261068167297
 30
0.0
  0
POINT
  5
72D
330
4A0
100
AcDbEntity
  8
DEFPOINTS
  6
CONTINUOUS
 62
     0
100
AcDbPoint
 10
389.0578436664199
 20
233.3261068167299
 30
0.0
  0
POINT
  5
72E
330
4A0
100
AcDbEntity
  8
DEFPOINTS
  6
CONTINUOUS
 62
     0
100
AcDbPoint
 10
457.55784366642
 20
233.3261068167299
 30
0.0
  0
ENDBLK
  5
4AB
330
4A0
100
AcDbEntity
  8
0
100
AcDbBlockEnd
  0
BLOCK
  5
8C1
330
8BF
100
AcDbEntity
  8
0
100
AcDbBlockBegin
  2
A$C69483A7F
 70
     0
 10
0.0
 20
0.0
 30
0.0
  3
A$C69483A7F
  1

  0
LWPOLYLINE
  5
8C0
330
8BF
100
AcDbEntity
  8
LEVEL001
  6
CONTINUOUS
100
AcDbPolyline
 90
        4
 70
     1
 43
0.0
 10
-0.0000000357787826
 20
7.999999822497983
 10
6.657095400744026
 20
7.999999822497983
 10
6.657095400744026
 20
-0.0000001775020166
 10
-0.0000000357787826
 20
-0.0000001775020166
  0
ENDBLK
  5
8C2
330
8BF
100
AcDbEntity
  8
0
100
AcDbBlockEnd
  0
ENDSEC
  0
SECTION
  2
ENTITIES
  0
LINE
  5
159
330
18
100
AcDbEntity
  8
LEVEL255
  6
CONTINUOUS
100
AcDbLine
 10
437.80852049832
 20
78.00381179999998
 30
0.0
 11
437.80852049832
 21
83.25381179999999
 31
0.0
  0
LINE
  5
15A
330
18
100
AcDbEntity
  8
LEVEL255
  6
CONTINUOUS
100
AcDbLine
 10
450.55852049832
 20
76.12881179999998
 30
0.0
 11
437.80852049832
 21
78.00381179999998
 31
0.0
  0
LINE
  5
15B
330
18
100
AcDbEntity
  8
LEVEL255
  6
DASHDOT
100
AcDbLine
 10
436.14001180382
 20
80.62881179999996
 30
0.0
 11
452.67393136547
 21
80.62881179999996
 31
0.0
  0
LINE
  5
15C
330
18
100
AcDbEntity
  8
LEVEL255
  6
CONTINUOUS
100
AcDbLine
 10
437.80852049832
 20
83.25381179999999
 30
0.0
 11
450.55852049832
 21
85.12881179999999
 31
0.0
  0
LINE
  5
15D
330
18
100
AcDbEntity
  8
LEVEL255
  6
DASHDOT
100
AcDbLine
 10
428.65852049888
 20
86.69931194688897
 30
0.0
 11
428.65852049888
 21
74.55831165293701
 31
0.0
  0
LINE
  5
15E
330
18
100
AcDbEntity
  8
LEVEL255
  6
DASHDOT
100
AcDbLine
 10
422.58802035042
 20
80.62881179999996
 30
0.0
 11
434.72902065014
 21
80.62881179999996
 31
0.0
  0
CIRCLE
  5
15F
330
18
100
AcDbEntity
  8
LEVEL255
  6
CONTINUOUS
100
AcDbCircle
 10
428.65852049888
 20
80.62881179999996
 30
0.0
 40
4.5
  0
CIRCLE
  5
160
330
18
100
AcDbEntity
  8
LEVEL255
  6
CONTINUOUS
100
AcDbCircle
 10
428.65852049888
 20
80.62881179999996
 30
0.0
 40
2.625
  0
TEXT
  5
161
330
18
100
AcDbEntity
  8
LEVEL255
100
AcDbText
 10
312.07327420321
 20
74.49811041595899
 30
0.0
 40
3.75
  1
REMARKS
 41
0.45
100
AcDbText
  0
TEXT
  5
162
330
18
100
AcDbEntity
  8
LEVEL255
100
AcDbText
 10
312.07327420321
 20
65.57244384448001
 30
0.0
 40
4.5
  1
PARTS CODE
 41
0.45
100
AcDbText
  0
TEXT
  5
163
330
18
100
AcDbEntity
  8
LEVEL255
100
AcDbText
 10
438.1085204999997
 20
15.3788118
 30
0.0
 40
5.25
  1
図面番号
 41
1.08
100
AcDbText
  0
TEXT
  5
164
330
18
100
AcDbEntity
  8
LEVEL255
100
AcDbText
 10
368.90653440041
 20
41.418950450977
 30
0.0
 40
7.5
  1
~
 41
0.45
100
AcDbText
  0
TEXT
  5
165
330
18
100
AcDbEntity
  8
LEVEL255
100
AcDbText
 10
208.6938587388098
 20
15.0038118
 30
0.0
 40
3.75
  1
JIS B 0419-K
 41
0.45
 72
     1
 11
217.1594837388098
 21
16.8788118
 31
0.0
100
AcDbText
 73
     2
  0
TEXT
  5
166
330
18
100
AcDbEntity
  8
LEVEL255
100
AcDbText
 10
208.5532337388098
 20
21.0038118
 30
0.0
 40
3.75
  1
JIS B 0408-B
 41
0.45
 72
     1
 11
217.1594837388098
 21
22.8788118
 31
0.0
100
AcDbText
 73
     2
  0
TEXT
  5
167
330
18
100
AcDbEntity
  8
LEVEL255
100
AcDbText
 10
208.5532337388098
 20
27.0038118
 30
0.0
 40
3.75
  1
JIS B 0405-m
 41
0.45
 72
     1
 11
217.1594837388098
 21
28.8788118
 31
0.0
100
AcDbText
 73
     2
  0
TEXT
  5
168
330
18
100
AcDbEntity
  8
LEVEL255
100
AcDbText
 10
188.27654585858
 20
35.004920380444
 30
0.0
 40
4.5
  1
 下記規格を適用する
 41
0.9
 11
188.27654585858
 21
37.254920380444
 31
0.0
100
AcDbText
 73
     2
  0
TEXT
  5
169
330
18
100
AcDbEntity
  8
LEVEL255
100
AcDbText
 10
192.07716656906
 20
41.62881179999998
 30
0.0
 40
4.5
  1
指定なき普通公差は
 41
0.9
100
AcDbText
  0
TEXT
  5
16A
330
18
100
AcDbEntity
  8
LEVEL255
100
AcDbText
 10
253.92358468437
 20
51.019788653902
 30
0.0
 40
3.75
  1
0.5
 41
0.45
 72
     1
 11
255.47045968437
 21
51.019788653902
 31
0.0
100
AcDbText
  0
TEXT
  5
16B
330
18
100
AcDbEntity
  8
LEVEL255
100
AcDbText
 10
257.2124269954999
 20
44.666727457391
 30
0.0
 40
3.75
  1
3
 41
0.45
 72
     1
 11
257.7749269954999
 21
44.666727457391
 31
0.0
100
AcDbText
  0
TEXT
  5
16C
330
18
100
AcDbEntity
  8
LEVEL255
100
AcDbText
 10
279.88227466551
 20
50.911189317025
 30
0.0
 40
3.75
  1
3
 41
0.45
 72
     1
 11
280.44477466551
 21
50.911189317025
 31
0.0
100
AcDbText
  0
TEXT
  5
16D
330
18
100
AcDbEntity
  8
LEVEL255
100
AcDbText
 10
277.3672932449799
 20
44.93822579844599
 30
0.0
 40
3.75
  1
 6
 41
0.45
 72
     1
 11
278.9422932449799
 21
44.93822579844599
 31
0.0
100
AcDbText
  0
TEXT
  5
16E
330
18
100
AcDbEntity
  8
LEVEL255
100
AcDbText
 10
254.70231128932
 20
38.96526228004099
 30
0.0
 40
3.75
  1
 6
 41
0.45
 72
     1
 11
256.27731128932
 21
38.96526228004099
 31
0.0
100
AcDbText
  0
TEXT
  5
16F
330
18
100
AcDbEntity
  8
LEVEL255
100
AcDbText
 10
277.48748545499
 20
38.85666294298999
 30
0.0
 40
3.75
  1
30
 41
0.45
 72
     1
 11
278.75311045499
 21
38.85666294298999
 31
0.0
100
AcDbText
  0
TEXT
  5
170
330
18
100
AcDbEntity
  8
LEVEL255
100
AcDbText
 10
254.8158021453899
 20
32.775100087535
 30
0.0
 40
3.75
  1
30
 41
0.45
 72
     1
 11
256.0814271453899
 21
32.775100087535
 31
0.0
100
AcDbText
  0
TEXT
  5
171
330
18
100
AcDbEntity
  8
LEVEL255
100
AcDbText
 10
275.8627814386099
 20
32.883699424411
 30
0.0
 40
3.75
  1
120
 41
0.45
 72
     1
 11
277.6909064386099
 21
32.883699424411
 31
0.0
100
AcDbText
  0
TEXT
  5
172
330
18
100
AcDbEntity
  8
LEVEL255
100
AcDbText
 10
260.3793653242399
 20
50.965488985551
 30
0.0
 40
3.75
  1
以上
 41
0.9
 72
     1
 11
263.97936532424
 21
50.965488985551
 31
0.0
100
AcDbText
  0
TEXT
  5
173
330
18
100
AcDbEntity
  8
LEVEL255
100
AcDbText
 10
259.58627782577
 20
44.97080560053897
 30
0.0
 40
3.75
  1
を
 41
0.9
 72
     1
 11
261.04877782577
 21
44.97080560053897
 31
0.0
100
AcDbText
  0
TEXT
  5
174
330
18
100
AcDbEntity
  8
LEVEL255
100
AcDbText
 10
262.29736057372
 20
44.88392612992099
 30
0.0
 40
3.75
  1
こ
 41
0.9
 72
     1
 11
263.87236057372
 21
44.88392612992099
 31
0.0
100
AcDbText
  0
TEXT
  5
175
330
18
100
AcDbEntity
  8
LEVEL255
100
AcDbText
 10
265.0716147598
 20
44.870924802052
 30
0.0
 40
3.75
  1
え
 41
0.9
 72
     1
 11
266.6466147598
 21
44.870924802052
 31
0.0
100
AcDbText
  0
TEXT
  5
176
330
18
100
AcDbEntity
  8
LEVEL255
100
AcDbText
 10
253.1379874345
 20
26.848941353927
 30
0.0
 40
3.75
  1
120
 41
0.45
 72
     1
 11
254.9661124345
 21
26.848941353927
 31
0.0
100
AcDbText
  0
TEXT
  5
177
330
18
100
AcDbEntity
  8
LEVEL255
100
AcDbText
 10
282.67162607909
 20
51.080053638047
 30
0.0
 40
3.75
  1
以下
 41
0.9
 72
     1
 11
286.27162607909
 21
51.080053638047
 31
0.0
100
AcDbText
  0
TEXT
  5
178
330
18
100
AcDbEntity
  8
LEVEL255
100
AcDbText
 10
282.67162607909
 20
45.07405144799
 30
0.0
 40
3.75
  1
以下
 41
0.9
 72
     1
 11
286.27162607909
 21
45.07405144799
 31
0.0
100
AcDbText
  0
TEXT
  5
179
330
18
100
AcDbEntity
  8
LEVEL255
100
AcDbText
 10
282.67162607909
 20
39.068049257933
 30
0.0
 40
3.75
  1
以下
 41
0.9
 72
     1
 11
286.27162607909
 21
39.068049257933
 31
0.0
100
AcDbText
  0
TEXT
  5
17A
330
18
100
AcDbEntity
  8
LEVEL255
100
AcDbText
 10
282.67162607909
 20
33.06204706805
 30
0.0
 40
3.75
  1
以下
 41
0.9
 72
     1
 11
286.27162607909
 21
33.06204706805
 31
0.0
100
AcDbText
  0
TEXT
  5
17B
330
18
100
AcDbEntity
  8
LEVEL255
100
AcDbText
 10
282.67162607909
 20
27.056044876422
 30
0.0
 40
3.75
  1
以下
 41
0.9
 72
     1
 11
286.27162607909
 21
27.056044876422
 31
0.0
100
AcDbText
  0
TEXT
  5
17C
330
18
100
AcDbEntity
  8
LEVEL255
100
AcDbText
 10
275.6694314541398
 20
27.056044876422
 30
0.0
 40
3.75
  1
400
 41
0.45
 72
     1
 11
277.6381814541398
 21
27.056044876422
 31
0.0
100
AcDbText
  0
TEXT
  5
17D
330
18
100
AcDbEntity
  8
LEVEL255
100
AcDbText
 10
253.54548423023
 20
60.98638268998801
 30
0.0
 40
4.5
  1
呼び寸法の区分
 41
0.9
 72
     1
 11
270.01548423023
 21
60.98638268998801
 31
0.0
100
AcDbText
  0
TEXT
  5
17E
330
18
100
AcDbEntity
  8
LEVEL255
100
AcDbText
 10
296.67233200436
 20
57.493629667521
 30
0.0
 40
4.5
  1
中級
 41
0.9
 72
     1
 11
301.12733200436
 21
57.493629667521
 31
0.0
100
AcDbText
  0
TEXT
  5
17F
330
18
100
AcDbEntity
  8
LEVEL255
100
AcDbText
 10
294.22733200492
 20
65.47706514744501
 30
0.0
 40
4.5
  1
寸法差
 41
0.9
 72
     1
 11
300.97733200492
 21
65.47706514744501
 31
0.0
100
AcDbText
  0
TEXT
  5
180
330
18
100
AcDbEntity
  8
LEVEL255
100
AcDbText
 10
252.17133149953
 20
74.717386465482
 30
0.0
 40
4.5
  1
普通寸法公差(削り加工)
 41
0.9
 72
     1
 11
278.49633149953
 21
74.717386465482
 31
0.0
100
AcDbText
  0
TEXT
  5
181
330
18
100
AcDbEntity
  8
LEVEL255
100
AcDbText
 10
265.0716147598
 20
38.870924802052
 30
0.0
 40
3.75
  1
え
 41
0.9
 72
     1
 11
266.6466147598
 21
38.870924802052
 31
0.0
100
AcDbText
  0
TEXT
  5
182
330
18
100
AcDbEntity
  8
LEVEL255
100
AcDbText
 10
262.29736057372
 20
38.883926129921
 30
0.0
 40
3.75
  1
こ
 41
0.9
 72
     1
 11
263.87236057372
 21
38.883926129921
 31
0.0
100
AcDbText
  0
TEXT
  5
183
330
18
100
AcDbEntity
  8
LEVEL255
100
AcDbText
 10
259.58627782577
 20
38.97080560053899
 30
0.0
 40
3.75
  1
を
 41
0.9
 72
     1
 11
261.04877782577
 21
38.97080560053899
 31
0.0
100
AcDbText
  0
TEXT
  5
184
330
18
100
AcDbEntity
  8
LEVEL255
100
AcDbText
 10
259.58627782577
 20
32.97080560053899
 30
0.0
 40
3.75
  1
を
 41
0.9
 72
     1
 11
261.04877782577
 21
32.97080560053899
 31
0.0
100
AcDbText
  0
TEXT
  5
185
330
18
100
AcDbEntity
  8
LEVEL255
100
AcDbText
 10
262.29736057372
 20
32.883926129921
 30
0.0
 40
3.75
  1
こ
 41
0.9
 72
     1
 11
263.87236057372
 21
32.883926129921
 31
0.0
100
AcDbText
  0
TEXT
  5
186
330
18
100
AcDbEntity
  8
LEVEL255
100
AcDbText
 10
265.0716147598
 20
32.870924802052
 30
0.0
 40
3.75
  1
え
 41
0.9
 72
     1
 11
266.6466147598
 21
32.870924802052
 31
0.0
100
AcDbText
  0
TEXT
  5
187
330
18
100
AcDbEntity
  8
LEVEL255
100
AcDbText
 10
259.58627782577
 20
26.97080560053898
 30
0.0
 40
3.75
  1
を
 41
0.9
 72
     1
 11
261.04877782577
 21
26.97080560053898
 31
0.0
100
AcDbText
  0
TEXT
  5
188
330
18
100
AcDbEntity
  8
LEVEL255
100
AcDbText
 10
262.29736057372
 20
26.883926129921
 30
0.0
 40
3.75
  1
こ
 41
0.9
 72
     1
 11
263.87236057372
 21
26.883926129921
 31
0.0
100
AcDbText
  0
TEXT
  5
189
330
18
100
AcDbEntity
  8
LEVEL255
100
AcDbText
 10
265.0716147598
 20
26.870924802052
 30
0.0
 40
3.75
  1
え
 41
0.9
 72
     1
 11
266.6466147598
 21
26.870924802052
 31
0.0
100
AcDbText
  0
TEXT
  5
18A
330
18
100
AcDbEntity
  8
LEVEL255
100
AcDbText
 10
253.0048351330799
 20
20.84894135392699
 30
0.0
 40
3.75
  1
400
 41
0.45
 72
     1
 11
254.9735851330799
 21
20.84894135392699
 31
0.0
100
AcDbText
  0
TEXT
  5
18B
330
18
100
AcDbEntity
  8
LEVEL255
100
AcDbText
 10
262.29736057372
 20
20.88392612992098
 30
0.0
 40
3.75
  1
こ
 41
0.9
 72
     1
 11
263.87236057372
 21
20.88392612992098
 31
0.0
100
AcDbText
  0
TEXT
  5
18C
330
18
100
AcDbEntity
  8
LEVEL255
100
AcDbText
 10
273.53362096531
 20
21.05604487642199
 30
0.0
 40
3.75
  1
1000
 41
0.45
 72
     1
 11
275.92424596531
 21
21.05604487642199
 31
0.0
100
AcDbText
  0
TEXT
  5
18D
330
18
100
AcDbEntity
  8
LEVEL255
100
AcDbText
 10
259.58627782577
 20
20.97080560053897
 30
0.0
 40
3.75
  1
を
 41
0.9
 72
     1
 11
261.04877782577
 21
20.97080560053897
 31
0.0
100
AcDbText
  0
TEXT
  5
18E
330
18
100
AcDbEntity
  8
LEVEL255
100
AcDbText
 10
265.0716147598
 20
20.87092480205197
 30
0.0
 40
3.75
  1
え
 41
0.9
 72
     1
 11
266.6466147598
 21
20.87092480205197
 31
0.0
100
AcDbText
  0
TEXT
  5
18F
330
18
100
AcDbEntity
  8
LEVEL255
100
AcDbText
 10
282.67162607909
 20
21.05604487642199
 30
0.0
 40
3.75
  1
以下
 41
0.9
 72
     1
 11
286.27162607909
 21
21.05604487642199
 31
0.0
100
AcDbText
  0
TEXT
  5
190
330
18
100
AcDbEntity
  8
LEVEL255
100
AcDbText
 10
282.67162607909
 20
15.056044876422
 30
0.0
 40
3.75
  1
以下
 41
0.9
 72
     1
 11
286.27162607909
 21
15.056044876422
 31
0.0
100
AcDbText
  0
TEXT
  5
191
330
18
100
AcDbEntity
  8
LEVEL255
100
AcDbText
 10
265.0716147598
 20
14.870924802052
 30
0.0
 40
3.75
  1
え
 41
0.9
 72
     1
 11
266.6466147598
 21
14.870924802052
 31
0.0
100
AcDbText
  0
TEXT
  5
192
330
18
100
AcDbEntity
  8
LEVEL255
100
AcDbText
 10
259.58627782577
 20
14.970805600539
 30
0.0
 40
3.75
  1
を
 41
0.9
 72
     1
 11
261.04877782577
 21
14.970805600539
 31
0.0
100
AcDbText
  0
TEXT
  5
193
330
18
100
AcDbEntity
  8
LEVEL255
100
AcDbText
 10
272.6875701300897
 20
15.056044876422
 30
0.0
 40
3.75
  1
2000
 41
0.45
 72
     1
 11
275.3594451300898
 21
15.056044876422
 31
0.0
100
AcDbText
  0
TEXT
  5
194
330
18
100
AcDbEntity
  8
LEVEL255
100
AcDbText
 10
262.29736057372
 20
14.883926129921
 30
0.0
 40
3.75
  1
こ
 41
0.9
 72
     1
 11
263.87236057372
 21
14.883926129921
 31
0.0
100
AcDbText
  0
TEXT
  5
195
330
18
100
AcDbEntity
  8
LEVEL255
100
AcDbText
 10
250.8885576441998
 20
14.848941353927
 30
0.0
 40
3.75
  1
1000
 41
0.45
 72
     1
 11
253.2791826441998
 21
14.848941353927
 31
0.0
100
AcDbText
  0
LINE
  5
196
330
18
100
AcDbEntity
  8
LEVEL255
  6
CONTINUOUS
100
AcDbLine
 10
187.1594837388098
 20
31.8788118
 30
0.0
 11
247.1594837388098
 21
31.8788118
 31
0.0
  0
LINE
  5
197
330
18
100
AcDbEntity
  8
LEVEL255
  6
CONTINUOUS
100
AcDbLine
 10
187.1594837388098
 20
49.87881179999998
 30
0.0
 11
187.1594837388098
 21
13.87881179999999
 31
0.0
  0
LINE
  5
198
330
18
100
AcDbEntity
  8
LEVEL255
  6
CONTINUOUS
100
AcDbLine
 10
247.1594837388098
 20
49.87881179999998
 30
0.0
 11
187.1594837388098
 21
49.87881179999998
 31
0.0
  0
LINE
  5
199
330
18
100
AcDbEntity
  8
LEVEL255
  6
CONTINUOUS
100
AcDbLine
 10
247.1594837388098
 20
55.8788118
 30
0.0
 11
187.1594837388098
 21
55.8788118
 31
0.0
  0
LINE
  5
19A
330
18
100
AcDbEntity
  8
LEVEL255
  6
CONTINUOUS
100
AcDbLine
 10
187.1594837388098
 20
49.87881179999998
 30
0.0
 11
187.1594837388098
 21
55.8788118
 31
0.0
  0
LINE
  5
19B
330
18
100
AcDbEntity
  8
LEVEL255
  6
CONTINUOUS
100
AcDbLine
 10
247.1594837388098
 20
13.87881179999999
 30
0.0
 11
247.1594837388098
 21
81.594918608977
 31
0.0
  0
LINE
  5
19C
330
18
100
AcDbEntity
  8
LEVEL255
  6
CONTINUOUS
100
AcDbLine
 10
310.6085204999998
 20
72.37881179999998
 30
0.0
 11
247.1594837388098
 21
72.37881179999998
 31
0.0
  0
LINE
  5
19D
330
18
100
AcDbEntity
  8
LEVEL255
  6
CONTINUOUS
100
AcDbLine
 10
247.1594837388098
 20
81.594918608977
 30
0.0
 11
310.6085204999998
 21
81.594918608977
 31
0.0
  0
LINE
  5
19E
330
18
100
AcDbEntity
  8
LEVEL255
  6
CONTINUOUS
100
AcDbLine
 10
310.6085204999998
 20
72.37881179999998
 30
0.0
 11
310.6085204999998
 21
81.594918608977
 31
0.0
  0
LINE
  5
19F
330
18
100
AcDbEntity
  8
LEVEL255
  6
CONTINUOUS
100
AcDbLine
 10
310.6085204999998
 20
72.37881179999998
 30
0.0
 11
454.6085204999998
 21
72.37881179999998
 31
0.0
  0
LINE
  5
1A0
330
18
100
AcDbEntity
  8
LEVEL255
  6
CONTINUOUS
100
AcDbLine
 10
310.6085204999998
 20
72.37881179999998
 30
0.0
 11
310.6085204999998
 21
13.87881179999999
 31
0.0
  0
LINE
  5
1A1
330
18
100
AcDbEntity
  8
LEVEL255
  6
CONTINUOUS
100
AcDbLine
 10
399.1085205
 20
27.3788118
 30
0.0
 11
399.1085205
 21
13.87881179999999
 31
0.0
  0
LINE
  5
1A2
330
18
100
AcDbEntity
  8
LEVEL255
  6
CONTINUOUS
100
AcDbLine
 10
436.6085205
 20
27.3788118
 30
0.0
 11
436.6085205
 21
13.87881179999999
 31
0.0
  0
LINE
  5
1A3
330
18
100
AcDbEntity
  8
LEVEL255
  6
CONTINUOUS
100
AcDbLine
 10
310.6085204999998
 20
31.8788118
 30
0.0
 11
247.1594837388098
 21
31.8788118
 31
0.0
  0
LINE
  5
1A4
330
18
100
AcDbEntity
  8
LEVEL255
  6
CONTINUOUS
100
AcDbLine
 10
247.1594837388098
 20
37.87881179999998
 30
0.0
 11
310.6085204999998
 21
37.87881179999998
 31
0.0
  0
LINE
  5
1A5
330
18
100
AcDbEntity
  8
LEVEL255
  6
CONTINUOUS
100
AcDbLine
 10
310.6085204999998
 20
43.87881179999999
 30
0.0
 11
247.1594837388098
 21
43.87881179999999
 31
0.0
  0
LINE
  5
1A6
330
18
100
AcDbEntity
  8
LEVEL255
  6
CONTINUOUS
100
AcDbLine
 10
247.1594837388098
 20
49.87881179999998
 30
0.0
 11
291.87355528456
 21
49.87881179999998
 31
0.0
  0
LINE
  5
1A7
330
18
100
AcDbEntity
  8
LEVEL255
  6
CONTINUOUS
100
AcDbLine
 10
247.1594837388098
 20
55.8788118
 30
0.0
 11
310.6085204999998
 21
55.8788118
 31
0.0
  0
LINE
  5
1A8
330
18
100
AcDbEntity
  8
LEVEL255
  6
CONTINUOUS
100
AcDbLine
 10
310.6085204999998
 20
25.8788118
 30
0.0
 11
187.1594837388098
 21
25.8788118
 31
0.0
  0
LINE
  5
1A9
330
18
100
AcDbEntity
  8
LEVEL255
  6
CONTINUOUS
100
AcDbLine
 10
310.6085204999998
 20
19.8788118
 30
0.0
 11
187.1594837388098
 21
19.8788118
 31
0.0
  0
LINE
  5
1AA
330
18
100
AcDbEntity
  8
LEVEL255
  6
CONTINUOUS
100
AcDbLine
 10
291.87355528456
 20
13.87881179999999
 30
0.0
 11
291.87355528456
 21
72.37881179999998
 31
0.0
  0
LINE
  5
1AB
330
18
100
AcDbEntity
  8
LEVEL255
  6
CONTINUOUS
100
AcDbLine
 10
573.1085205
 20
54.3788118
 30
0.0
 11
310.6085204999998
 21
54.3788118
 31
0.0
  0
LINE
  5
1AC
330
18
100
AcDbEntity
  8
LEVEL255
  6
CONTINUOUS
100
AcDbLine
 10
393.1085205
 20
36.37881179999999
 30
0.0
 11
454.6085204999998
 21
36.37881179999999
 31
0.0
  0
LINE
  5
1AD
330
18
100
AcDbEntity
  8
LEVEL255
  6
CONTINUOUS
100
AcDbLine
 10
393.1085205
 20
45.37881179999998
 30
0.0
 11
454.6085204999998
 21
45.37881179999998
 31
0.0
  0
LINE
  5
1AE
330
18
100
AcDbEntity
  8
LEVEL255
  6
CONTINUOUS
100
AcDbLine
 10
310.6085204999998
 20
63.3788118
 30
0.0
 11
454.6085204999998
 21
63.3788118
 31
0.0
  0
LINE
  5
1AF
330
18
100
AcDbEntity
  8
LEVEL255
  6
CONTINUOUS
100
AcDbLine
 10
393.1085205
 20
63.3788118
 30
0.0
 11
393.1085205
 21
27.3788118
 31
0.0
  0
LINE
  5
1B0
330
18
100
AcDbEntity
  8
LEVEL255
  6
CONTINUOUS
100
AcDbLine
 10
310.6085204999998
 20
37.87881179999998
 30
0.0
 11
393.1085205
 21
37.87881179999998
 31
0.0
  0
LINE
  5
1B1
330
18
100
AcDbEntity
  8
LEVEL255
  6
CONTINUOUS
100
AcDbLine
 10
291.87355528456
 20
63.60981682788999
 30
0.0
 11
310.6085204999998
 21
63.60981682788999
 31
0.0
  0
LINE
  5
1B2
330
18
100
AcDbEntity
  8
LEVEL255
  6
CONTINUOUS
100
AcDbLine
 10
573.1085205
 20
27.3788118
 30
0.0
 11
310.6085204999998
 21
27.3788118
 31
0.0
  0
LINE
  5
1B3
330
18
100
AcDbEntity
  8
LEVEL255
  6
CONTINUOUS
100
AcDbLine
 10
450.55852049832
 20
85.12881179999999
 30
0.0
 11
450.55852049832
 21
76.12881179999998
 31
0.0
  0
LINE
  5
1B4
330
18
100
AcDbEntity
  8
LEVEL255
  6
CONTINUOUS
100
AcDbLine
 10
520.6085205
 20
54.3788118
 30
0.0
 11
520.6085205
 21
63.3788118
 31
0.0
  0
TEXT
  5
1B5
330
18
100
AcDbEntity
  8
LEVEL255
100
AcDbText
 10
456.1085205
 20
66.54201511947601
 30
0.0
 40
3.0
  1
REVISION
 41
0.45
100
AcDbText
  0
TEXT
  5
1B6
330
18
100
AcDbEntity
  8
LEVEL255
100
AcDbText
 10
473.6810875633799
 20
56.125939135402
 30
0.0
 40
5.25
  1
’
 41
1.08
100
AcDbText
  0
TEXT
  5
1B7
330
18
100
AcDbEntity
  8
LEVEL255
100
AcDbText
 10
456.1085205
 20
42.37881179999998
 30
0.0
 40
5.25
  1
機種
 41
1.53
100
AcDbText
  0
TEXT
  5
1B8
330
18
100
AcDbEntity
  8
LEVEL255
100
AcDbText
 10
456.1085205
 20
28.8788118
 30
0.0
 40
5.25
  1
名称
 41
1.62
100
AcDbText
  0
LINE
  5
1B9
330
18
100
AcDbEntity
  8
LEVEL255
  6
CONTINUOUS
100
AcDbLine
 10
454.6085204999998
 20
27.3788118
 30
0.0
 11
454.6085204999998
 21
90.37881179999999
 31
0.0
  0
LINE
  5
1BA
330
18
100
AcDbEntity
  8
LEVEL255
  6
CONTINUOUS
100
AcDbLine
 10
454.6085204999998
 20
63.3788118
 30
0.0
 11
573.1085205
 21
63.3788118
 31
0.0
  0
LINE
  5
1BB
330
18
100
AcDbEntity
  8
LEVEL255
  6
CONTINUOUS
100
AcDbLine
 10
573.1085205
 20
90.37881179999999
 30
0.0
 11
421.15852049888
 21
90.37881179999999
 31
0.0
  0
LINE
  5
1BC
330
18
100
AcDbEntity
  8
LEVEL255
  6
CONTINUOUS
100
AcDbLine
 10
454.6085204999998
 20
40.87881179999999
 30
0.0
 11
573.1085205
 21
40.87881179999999
 31
0.0
  0
LINE
  5
1BD
330
18
100
AcDbEntity
  8
LEVEL255
  6
CONTINUOUS
100
AcDbLine
 10
454.6085204999998
 20
72.37881179999998
 30
0.0
 11
573.1085205
 21
72.37881179999998
 31
0.0
  0
LINE
  5
1BE
330
18
100
AcDbEntity
  8
LEVEL255
  6
CONTINUOUS
100
AcDbLine
 10
454.6085204999998
 20
81.37881179999999
 30
0.0
 11
573.1085205
 21
81.37881179999999
 31
0.0
  0
LINE
  5
1BF
330
18
100
AcDbEntity
  8
LEVEL255
  6
CONTINUOUS
100
AcDbLine
 10
477.1085205
 20
90.37881179999999
 30
0.0
 11
477.1085205
 21
63.3788118
 31
0.0
  0
LINE
  5
1C0
330
18
100
AcDbEntity
  8
LEVEL255
  6
CONTINUOUS
 62
     7
100
AcDbLine
 10
3.1085205
 20
13.87881179999999
 30
0.0
 11
3.1085205
 21
412.8788118000001
 31
0.0
  0
LINE
  5
1C1
330
18
100
AcDbEntity
  8
LEVEL255
  6
CONTINUOUS
100
AcDbLine
 10
421.15852049888
 20
90.37881179999999
 30
0.0
 11
421.15852049888
 21
72.37881179999998
 31
0.0
  0
TEXT
  5
1C2
330
18
100
AcDbEntity
  8
LEVEL255
100
AcDbText
 10
191.0594837388098
 20
51.0038118
 30
0.0
 40
3.75
  1
指示なき角部はＣ０.２面取り
 41
0.9
 72
     1
 11
217.1594837388098
 21
52.8788118
 31
0.0
100
AcDbText
 73
     2
  0
TEXT
  5
1C3
330
18
100
AcDbEntity
  8
LEVEL255
100
AcDbText
 10
296.0660378922797
 20
48.00381179999998
 30
0.0
 40
3.75
  1
%%p０.１
 41
0.9
 72
     1
 11
301.2410378922798
 21
48.00381179999998
 31
0.0
100
AcDbText
  0
TEXT
  5
1C4
330
18
100
AcDbEntity
  8
LEVEL255
100
AcDbText
 10
295.6160378922798
 20
39.00381179999998
 30
0.0
 40
3.75
  1
%%p０.２
 41
0.9
 72
     1
 11
301.2410378922798
 21
39.00381179999998
 31
0.0
100
AcDbText
  0
TEXT
  5
1C5
330
18
100
AcDbEntity
  8
LEVEL255
100
AcDbText
 10
295.6160378922798
 20
33.0038118
 30
0.0
 40
3.75
  1
%%p０.３
 41
0.9
 72
     1
 11
301.2410378922798
 21
33.0038118
 31
0.0
100
AcDbText
  0
TEXT
  5
1C6
330
18
100
AcDbEntity
  8
LEVEL255
100
AcDbText
 10
295.6160378922798
 20
15.00381179999999
 30
0.0
 40
3.75
  1
%%p１.２
 41
0.9
 72
     1
 11
301.2410378922798
 21
15.00381179999999
 31
0.0
100
AcDbText
  0
TEXT
  5
1C7
330
18
100
AcDbEntity
  8
LEVEL255
100
AcDbText
 10
295.6160378922798
 20
21.0038118
 30
0.0
 40
3.75
  1
%%p０.８
 41
0.9
 72
     1
 11
301.2410378922798
 21
21.0038118
 31
0.0
100
AcDbText
  0
TEXT
  5
1C8
330
18
100
AcDbEntity
  8
LEVEL255
100
AcDbText
 10
295.6160378922798
 20
27.0038118
 30
0.0
 40
3.75
  1
%%p０.５
 41
0.9
 72
     1
 11
301.2410378922798
 21
27.0038118
 31
0.0
100
AcDbText
  0
TEXT
  5
1C9
330
18
100
AcDbEntity
  8
LEVEL255
100
AcDbText
 10
400.6085204999997
 20
21.505821008954
 30
0.0
 40
3.0
  1
ＳＣＡＬＥ
 41
0.9
100
AcDbText
  0
TEXT
  5
1CA
330
18
100
AcDbEntity
  8
LEVEL255
100
AcDbText
 10
456.1085205
 20
36.37881179999999
 30
0.0
 40
3.0
  1
ＳＵＢＪＥＣＴ
 41
0.9
100
AcDbText
  0
TEXT
  5
1CB
330
18
100
AcDbEntity
  8
LEVEL255
100
AcDbText
 10
456.1085205
 20
50.305739945927
 30
0.0
 40
3.0
  1
ＭＡＣＨＩＮＥ
 41
0.9
100
AcDbText
  0
TEXT
  5
1CC
330
18
100
AcDbEntity
  8
LEVEL255
100
AcDbText
 10
456.1085205
 20
57.542015119476
 30
0.0
 40
3.0
  1
ＤＡＴＥ
 41
0.9
100
AcDbText
  0
TEXT
  5
1CD
330
18
100
AcDbEntity
  8
LEVEL255
100
AcDbText
 10
522.2988836547499
 20
57.298184899459
 30
0.0
 40
3.0
  1
ＱＴＹ.
 41
1.35
100
AcDbText
  0
TEXT
  5
1CE
330
18
100
AcDbEntity
  8
LEVEL255
100
AcDbText
 10
438.1085204999997
 20
22.38514316095697
 30
0.0
 40
3.0
  1
ＤＲＡＷＩＮＧ ＮＯ.
 41
0.9
100
AcDbText
  0
TEXT
  5
1CF
330
18
100
AcDbEntity
  8
LEVEL255
100
AcDbText
 10
394.83182084897
 20
57.092923606476
 30
0.0
 40
3.0
  1
ＡＰＰＲＯＶＥＤ
 41
0.72
100
AcDbText
  0
TEXT
  5
1D0
330
18
100
AcDbEntity
  8
LEVEL255
100
AcDbText
 10
394.67929999494
 20
48.094193153977
 30
0.0
 40
3.0
  1
ＣＨＥＣＫＥＤ
 41
0.72
100
AcDbText
  0
TEXT
  5
1D1
330
18
100
AcDbEntity
  8
LEVEL255
100
AcDbText
 10
394.67929999494
 20
39.24798355498099
 30
0.0
 40
3.0
  1
ＤＲＡＷＮ
 41
0.72
100
AcDbText
  0
TEXT
  5
1D2
330
18
100
AcDbEntity
  8
LEVEL255
100
AcDbText
 10
394.67929999494
 20
30.249253100911
 30
0.0
 40
3.0
  1
ＤＥＳＩＧＮ
 41
0.72
100
AcDbText
  0
TEXT
  5
1D3
330
18
100
AcDbEntity
  8
LEVEL255
100
AcDbText
 10
312.3810558157098
 20
57.108449681974
 30
0.0
 40
3.75
  1
ＭＡＴＥＲＩＡＬ
 41
0.9
100
AcDbText
  0
TEXT
  5
1D4
330
18
100
AcDbEntity
  8
LEVEL255
100
AcDbText
 10
312.3810558157098
 20
46.12881179999998
 30
0.0
 40
3.0
  1
ＨＥＡＴ
 41
0.72
100
AcDbText
  0
TEXT
  5
1D5
330
18
100
AcDbEntity
  8
LEVEL255
100
AcDbText
 10
314.6894178591797
 20
42.18104179647999
 30
0.0
 40
3.0
  1
ＴＲＥＡＴＭＥＮＴ
 41
0.72
100
AcDbText
  0
TEXT
  5
1D6
330
18
100
AcDbEntity
  8
LEVEL255
100
AcDbText
 10
342.54365318977
 20
41.565478584051
 30
0.0
 40
4.5
  1
Ｈ
 41
0.72
100
AcDbText
  0
TEXT
  5
1D7
330
18
100
AcDbEntity
  8
LEVEL255
100
AcDbText
 10
346.6987048802999
 20
41.565478584051
 30
0.0
 40
3.0
  1
Ｒ
 41
0.72
100
AcDbText
  0
TEXT
  5
1D8
330
18
100
AcDbEntity
  8
LEVEL255
100
AcDbText
 10
350.2381933346498
 20
41.719369387508
 30
0.0
 40
4.5
  1
Ｃ
 41
0.72
100
AcDbText
  0
TEXT
  5
1D9
330
18
100
AcDbEntity
  8
LEVEL255
100
AcDbText
 10
312.3810558157098
 20
33.563156830517
 30
0.0
 40
3.0
  1
ＳＵＲＦＡＣＥ
 41
0.72
100
AcDbText
  0
TEXT
  5
1DA
330
18
100
AcDbEntity
  8
LEVEL255
100
AcDbText
 10
314.84330866543
 20
29.40810515099199
 30
0.0
 40
3.0
  1
ＴＲＥＡＴＭＥＮＴ
 41
0.72
100
AcDbText
  0
LINE
  5
1DB
330
18
100
AcDbEntity
  8
LEVEL255
  6
CONTINUOUS
100
AcDbLine
 10
573.1085205
 20
13.87881179999999
 30
0.0
 11
3.1085205
 21
13.87881179999999
 31
0.0
  0
TEXT
  5
1DC
330
18
100
AcDbEntity
  8
LEVEL255
100
AcDbText
 10
549.5649973653399
 20
55.774517617442
 30
0.0
 40
5.25
  1
/
 41
0.675
100
AcDbText
  0
LINE
  5
1DD
330
18
100
AcDbEntity
  8
LEVEL255
  6
CONTINUOUS
 62
     7
100
AcDbLine
 10
573.1085205
 20
412.8788118000001
 30
0.0
 11
573.1085205
 21
13.87881179999999
 31
0.0
  0
LINE
  5
1DE
330
18
100
AcDbEntity
  8
LEVEL255
  6
CONTINUOUS
100
AcDbLine
 10
552.2348824651999
 20
90.37881179999999
 30
0.0
 11
552.2348824651999
 21
63.3788118
 31
0.0
  0
TEXT
  5
1DF
330
18
100
AcDbEntity
  8
LEVEL255
100
AcDbText
 10
553.3940499635503
 20
56.82878217446599
 30
0.0
 40
3.0
  1
ＵＮＩＴ
 41
1.35
100
AcDbText
  0
TEXT
  5
1E0
330
18
100
AcDbEntity
  8
LEVEL255
100
AcDbText
 10
540.6093091653798
 20
56.128103015907
 30
0.0
 40
5.25
  1
 １
 41
0.9
100
AcDbText
  0
TEXT
  5
1E1
330
18
100
AcDbEntity
  8
LEVEL255
100
AcDbText
 10
344.4413114549699
 20
56.260948708534
 30
0.0
 40
5.25
  1
＊＊
 41
0.9
100
AcDbText
  0
TEXT
  5
1E2
330
18
100
AcDbEntity
  8
LEVEL255
100
AcDbText
 10
342.96222697442
 20
29.260948708534
 30
0.0
 40
5.25
  1
＊＊
 41
0.9
100
AcDbText
  0
TEXT
  5
1E3
330
18
100
AcDbEntity
  8
LEVEL255
100
AcDbText
 10
481.5704939985797
 20
30.783778712989
 30
0.0
 40
7.5
  1
ＳＣＮ６
 41
0.9
100
AcDbText
  0
TEXT
  5
1E4
330
18
100
AcDbEntity
  8
LEVEL255
100
AcDbText
 10
411.6232490844163
 20
15.446869811475
 30
0.0
 40
5.0
  1
１/１.５
 41
0.9
100
AcDbText
  0
TEXT
  5
265
330
18
100
AcDbEntity
  8
LEVEL001
100
AcDbText
 10
108.4418593798484
 20
102.0129313741041
 30
0.0
 40
6.75
  1
ＳＣＮ６－０２０－３００－Ｂ
 41
0.65
100
AcDbText
  0
TEXT
  5
266
330
18
100
AcDbEntity
  8
LEVEL001
100
AcDbText
 10
108.4418593798484
 20
110.012931374104
 30
0.0
 40
6.75
  1
ＳＣＮ６－０２０－２５０－Ｂ
 41
0.65
100
AcDbText
  0
TEXT
  5
267
330
18
100
AcDbEntity
  8
LEVEL001
100
AcDbText
 10
108.4418593798484
 20
118.0129313741041
 30
0.0
 40
6.75
  1
ＳＣＮ６－０２０－２００－Ｂ
 41
0.65
100
AcDbText
  0
TEXT
  5
268
330
18
100
AcDbEntity
  8
LEVEL001
100
AcDbText
 10
108.4418593798484
 20
126.0129313741041
 30
0.0
 40
6.75
  1
ＳＣＮ６－０２０－１５０－Ｂ
 41
0.65
100
AcDbText
  0
TEXT
  5
269
330
18
100
AcDbEntity
  8
LEVEL001
100
AcDbText
 10
108.4418593798484
 20
134.012931374104
 30
0.0
 40
6.75
  1
ＳＣＮ６－０２０－１００－Ｂ
 41
0.65
100
AcDbText
  0
TEXT
  5
26A
330
18
100
AcDbEntity
  8
LEVEL001
100
AcDbText
 10
108.4418593798484
 20
142.0129313741041
 30
0.0
 40
6.75
  1
ＳＣＮ６－０２０－０５０－Ｂ
 41
0.65
100
AcDbText
  0
TEXT
  5
26B
330
18
100
AcDbEntity
  8
LEVEL001
100
AcDbText
 10
324.4126356178471
 20
142.0129313741041
 30
0.0
 40
6.75
  1
ＳＣＮ６－０５０－０５０－Ｂ
 41
0.65
100
AcDbText
  0
TEXT
  5
26C
330
18
100
AcDbEntity
  8
LEVEL001
100
AcDbText
 10
324.4126356178471
 20
134.012931374104
 30
0.0
 40
6.75
  1
ＳＣＮ６－０５０－１００－Ｂ
 41
0.65
100
AcDbText
  0
TEXT
  5
26D
330
18
100
AcDbEntity
  8
LEVEL001
100
AcDbText
 10
324.4126356178471
 20
126.0129313741041
 30
0.0
 40
6.75
  1
ＳＣＮ６－０５０－１５０－Ｂ
 41
0.65
100
AcDbText
  0
TEXT
  5
26E
330
18
100
AcDbEntity
  8
LEVEL001
100
AcDbText
 10
324.4126356178471
 20
118.0129313741041
 30
0.0
 40
6.75
  1
ＳＣＮ６－０５０－２００－Ｂ
 41
0.65
100
AcDbText
  0
TEXT
  5
26F
330
18
100
AcDbEntity
  8
LEVEL001
100
AcDbText
 10
324.4126356178471
 20
110.012931374104
 30
0.0
 40
6.75
  1
ＳＣＮ６－０５０－２５０－Ｂ
 41
0.65
100
AcDbText
  0
TEXT
  5
270
330
18
100
AcDbEntity
  8
LEVEL001
100
AcDbText
 10
324.4126356178471
 20
102.0129313741041
 30
0.0
 40
6.75
  1
ＳＣＮ６－０５０－３００－Ｂ
 41
0.65
100
AcDbText
  0
TEXT
  5
271
330
18
100
AcDbEntity
  8
LEVEL001
100
AcDbText
 10
187.3168593798485
 20
150.0129313741041
 30
0.0
 40
6.75
  1
Ｌ寸法
 41
0.77777777777778
100
AcDbText
  0
TEXT
  5
272
330
18
100
AcDbEntity
  8
LEVEL001
100
AcDbText
 10
403.2876356178473
 20
150.0129313741041
 30
0.0
 40
6.75
  1
Ｌ寸法
 41
0.77777777777778
100
AcDbText
  0
TEXT
  5
273
330
18
100
AcDbEntity
  8
LEVEL001
100
AcDbText
 10
139.9418593798484
 20
150.0129313741041
 30
0.0
 40
6.75
  1
型番
 41
0.77777777777778
100
AcDbText
  0
TEXT
  5
274
330
18
100
AcDbEntity
  8
LEVEL001
100
AcDbText
 10
355.9126356178469
 20
150.0129313741041
 30
0.0
 40
6.75
  1
型番
 41
0.77777777777778
100
AcDbText
  0
LWPOLYLINE
  5
275
330
18
100
AcDbEntity
  8
LEVEL001
  6
CONTINUOUS
100
AcDbPolyline
 90
        4
 70
     0
 43
0.0
 10
321.1626356178469
 20
101.3879313741041
 10
423.8298250427154
 20
101.3879313741041
 10
423.8298250427154
 20
157.3879313741041
 10
321.1626356178469
 20
157.3879313741041
  0
LINE
  5
276
330
18
100
AcDbEntity
  8
LEVEL001
  6
CONTINUOUS
100
AcDbLine
 10
105.1918593798484
 20
149.3879313741041
 30
0.0
 11
207.8484447448011
 21
149.3879313741041
 31
0.0
  0
LINE
  5
277
330
18
100
AcDbEntity
  8
LEVEL001
  6
CONTINUOUS
100
AcDbLine
 10
105.1918593798484
 20
141.3879313741041
 30
0.0
 11
207.8484447448011
 21
141.3879313741041
 31
0.0
  0
LINE
  5
278
330
18
100
AcDbEntity
  8
LEVEL001
  6
CONTINUOUS
100
AcDbLine
 10
105.1918593798484
 20
133.3879313741041
 30
0.0
 11
207.8484447448011
 21
133.387931374104
 31
0.0
  0
LINE
  5
279
330
18
100
AcDbEntity
  8
LEVEL001
  6
CONTINUOUS
100
AcDbLine
 10
105.1918593798484
 20
125.3879313741041
 30
0.0
 11
207.8484447448011
 21
125.3879313741041
 31
0.0
  0
LINE
  5
27A
330
18
100
AcDbEntity
  8
LEVEL001
  6
CONTINUOUS
100
AcDbLine
 10
105.1918593798484
 20
117.387931374104
 30
0.0
 11
207.8484447448011
 21
117.3879313741039
 31
0.0
  0
LINE
  5
27B
330
18
100
AcDbEntity
  8
LEVEL001
  6
CONTINUOUS
100
AcDbLine
 10
105.1918593798484
 20
109.3879313741041
 30
0.0
 11
207.8484447448011
 21
109.3879313741041
 31
0.0
  0
LINE
  5
27C
330
18
100
AcDbEntity
  8
LEVEL001
  6
CONTINUOUS
100
AcDbLine
 10
185.1918593798485
 20
157.3879313741041
 30
0.0
 11
185.1918593798485
 21
101.3879313741041
 31
0.0
  0
LINE
  5
27D
330
18
100
AcDbEntity
  8
LEVEL001
  6
CONTINUOUS
100
AcDbLine
 10
321.1626356178469
 20
157.3879313741041
 30
0.0
 11
321.1626356178469
 21
101.3879313741041
 31
0.0
  0
LINE
  5
27E
330
18
100
AcDbEntity
  8
LEVEL001
  6
CONTINUOUS
100
AcDbLine
 10
401.1626356178473
 20
157.3879313741041
 30
0.0
 11
401.1626356178473
 21
101.3879313741041
 31
0.0
  0
TEXT
  5
280
330
18
100
AcDbEntity
  8
LEVEL001
100
AcDbText
 10
187.3168593798485
 20
142.0129313741041
 30
0.0
 40
6.75
  1
１８９
 41
0.77777777777778
100
AcDbText
  0
TEXT
  5
281
330
18
100
AcDbEntity
  8
LEVEL001
100
AcDbText
 10
187.3168593798485
 20
134.012931374104
 30
0.0
 40
6.75
  1
２３９
 41
0.77777777777778
100
AcDbText
  0
TEXT
  5
282
330
18
100
AcDbEntity
  8
LEVEL001
100
AcDbText
 10
187.3168593798485
 20
126.0129313741041
 30
0.0
 40
6.75
  1
２８９
 41
0.77777777777778
100
AcDbText
  0
TEXT
  5
283
330
18
100
AcDbEntity
  8
LEVEL001
100
AcDbText
 10
187.3168593798485
 20
118.0129313741041
 30
0.0
 40
6.75
  1
３３９
 41
0.77777777777778
100
AcDbText
  0
TEXT
  5
284
330
18
100
AcDbEntity
  8
LEVEL001
100
AcDbText
 10
187.3168593798485
 20
110.012931374104
 30
0.0
 40
6.75
  1
３８９
 41
0.77777777777778
100
AcDbText
  0
TEXT
  5
285
330
18
100
AcDbEntity
  8
LEVEL001
100
AcDbText
 10
187.3168593798485
 20
102.0129313741041
 30
0.0
 40
6.75
  1
４３９
 41
0.77777777777778
100
AcDbText
  0
TEXT
  5
286
330
18
100
AcDbEntity
  8
LEVEL001
100
AcDbText
 10
404.2051620082412
 20
142.0129313741041
 30
0.0
 40
6.75
  1
２０１
 41
0.77777777777778
100
AcDbText
  0
TEXT
  5
287
330
18
100
AcDbEntity
  8
LEVEL001
100
AcDbText
 10
404.2051620082412
 20
134.012931374104
 30
0.0
 40
6.75
  1
２５１
 41
0.77777777777778
100
AcDbText
  0
TEXT
  5
288
330
18
100
AcDbEntity
  8
LEVEL001
100
AcDbText
 10
404.2051620082412
 20
126.0129313741041
 30
0.0
 40
6.75
  1
３０１
 41
0.77777777777778
100
AcDbText
  0
TEXT
  5
289
330
18
100
AcDbEntity
  8
LEVEL001
100
AcDbText
 10
404.2051620082412
 20
118.0129313741041
 30
0.0
 40
6.75
  1
３５１
 41
0.77777777777778
100
AcDbText
  0
TEXT
  5
28A
330
18
100
AcDbEntity
  8
LEVEL001
100
AcDbText
 10
404.2051620082412
 20
110.012931374104
 30
0.0
 40
6.75
  1
４０１
 41
0.77777777777778
100
AcDbText
  0
TEXT
  5
28B
330
18
100
AcDbEntity
  8
LEVEL001
100
AcDbText
 10
404.2051620082412
 20
102.0129313741041
 30
0.0
 40
6.75
  1
４５１
 41
0.77777777777778
100
AcDbText
  0
TEXT
  5
28C
330
18
100
AcDbEntity
  8
LEVEL255
100
AcDbText
 10
411.2757643345798
 20
29.260948708534
 30
0.0
 40
4.875
  1
＊＊
 41
0.9
100
AcDbText
  0
TEXT
  5
28D
330
18
100
AcDbEntity
  8
LEVEL255
100
AcDbText
 10
411.2757643345798
 20
38.260948708534
 30
0.0
 40
4.875
  1
＊＊
 41
0.9
100
AcDbText
  0
TEXT
  5
28E
330
18
100
AcDbEntity
  8
LEVEL255
100
AcDbText
 10
476.0403858741
 20
44.62881179999999
 30
0.0
 40
6.0
  1
ＳＣＮ６－０２０／０５０－＊＊＊－Ｂ
 41
0.7
100
AcDbText
  0
LINE
  5
28F
330
18
100
AcDbEntity
  8
LEVEL001
  6
DASHDOT
100
AcDbLine
 10
41.26910446472499
 20
250.8261068167298
 30
0.0
 11
106.4876836997
 21
250.8261068167298
 31
0.0
  0
LINE
  5
290
330
18
100
AcDbEntity
  8
LEVEL001
  6
DASHDOT
100
AcDbLine
 10
73.40025200570902
 20
283.64252911181
 30
0.0
 11
73.40025200570902
 21
219.1889771992399
 31
0.0
  0
INSERT
  5
291
330
18
100
AcDbEntity
  8
0
100
AcDbBlockReference
  2
JFKANAT_4
 10
49.83025200570899
 20
274.3961068167299
 30
0.0
  0
LINE
  5
292
330
18
100
AcDbEntity
  8
LEVEL001
  6
DASHDOT
100
AcDbLine
 10
44.476577622616
 20
274.3961068167299
 30
0.0
 11
55.04254228008299
 21
274.3961068167299
 31
0.0
  0
LINE
  5
293
330
18
100
AcDbEntity
  8
LEVEL001
  6
DASHDOT
100
AcDbLine
 10
49.83025200570899
 20
279.83873758565
 30
0.0
 11
49.83025200570899
 21
269.27277292819
 31
0.0
  0
INSERT
  5
294
330
18
100
AcDbEntity
  8
0
100
AcDbBlockReference
  2
JFKANAT_4
 10
49.83025200570899
 20
227.2561068167298
 30
0.0
 50
90.0
  0
LINE
  5
295
330
18
100
AcDbEntity
  8
LEVEL001
  6
DASHDOT
100
AcDbLine
 10
49.83025200570899
 20
221.90243243363
 30
0.0
 11
49.83025200570899
 21
232.4683970910998
 31
0.0
  0
LINE
  5
296
330
18
100
AcDbEntity
  8
LEVEL001
  6
DASHDOT
100
AcDbLine
 10
44.38762123678099
 20
227.2561068167298
 30
0.0
 11
54.953585894249
 21
227.2561068167298
 31
0.0
  0
INSERT
  5
297
330
18
100
AcDbEntity
  8
0
100
AcDbBlockReference
  2
JFKANAT_4
 10
96.970252005709
 20
227.2561068167298
 30
0.0
 50
180.0
  0
LINE
  5
298
330
18
100
AcDbEntity
  8
LEVEL001
  6
DASHDOT
100
AcDbLine
 10
102.3239263887999
 20
227.2561068167298
 30
0.0
 11
91.75796173133401
 21
227.2561068167298
 31
0.0
  0
LINE
  5
299
330
18
100
AcDbEntity
  8
LEVEL001
  6
DASHDOT
100
AcDbLine
 10
96.970252005709
 20
221.8134760477999
 30
0.0
 11
96.970252005709
 21
232.37944070527
 31
0.0
  0
INSERT
  5
29A
330
18
100
AcDbEntity
  8
0
100
AcDbBlockReference
  2
JFKANAT_4
 10
96.970252005709
 20
274.3961068167299
 30
0.0
 50
270.0
  0
LINE
  5
29B
330
18
100
AcDbEntity
  8
LEVEL001
  6
DASHDOT
100
AcDbLine
 10
96.970252005709
 20
279.74978119982
 30
0.0
 11
96.970252005709
 21
269.18381654235
 31
0.0
  0
LINE
  5
29C
330
18
100
AcDbEntity
  8
LEVEL001
  6
DASHDOT
100
AcDbLine
 10
102.41288277464
 20
274.3961068167299
 30
0.0
 11
91.84691811716801
 21
274.3961068167299
 31
0.0
  0
ARC
  5
29D
330
18
100
AcDbEntity
  8
LEVEL001
  6
CONTINUOUS
100
AcDbCircle
 10
48.400252005709
 20
275.8261068167298
 30
0.0
 40
4.0
100
AcDbArc
 50
90.0
 51
180.00000000001
  0
ARC
  5
29E
330
18
100
AcDbEntity
  8
LEVEL001
  6
CONTINUOUS
100
AcDbCircle
 10
98.40025200570901
 20
275.8261068167298
 30
0.0
 40
4.0
100
AcDbArc
 50
0.0
 51
90.00000000000099
  0
LINE
  5
29F
330
18
100
AcDbEntity
  8
LEVEL001
  6
CONTINUOUS
100
AcDbLine
 10
44.40025200570899
 20
275.8261068167298
 30
0.0
 11
44.40025200570899
 21
225.8261068167298
 31
0.0
  0
ARC
  5
2A0
330
18
100
AcDbEntity
  8
LEVEL001
  6
CONTINUOUS
100
AcDbCircle
 10
48.40025200570799
 20
225.8261068167298
 30
0.0
 40
4.0
100
AcDbArc
 50
180.0
 51
270.00000000001
  0
LINE
  5
2A1
330
18
100
AcDbEntity
  8
LEVEL001
  6
CONTINUOUS
100
AcDbLine
 10
48.400252005709
 20
221.8261068167298
 30
0.0
 11
98.40025200570901
 21
221.8261068167298
 31
0.0
  0
ARC
  5
2A2
330
18
100
AcDbEntity
  8
LEVEL001
  6
CONTINUOUS
100
AcDbCircle
 10
98.40025200570901
 20
225.8261068167298
 30
0.0
 40
4.0
100
AcDbArc
 50
270.0
 51
0.0
  0
ARC
  5
2A3
330
18
100
AcDbEntity
  8
LEVEL001
  6
CONTINUOUS
100
AcDbCircle
 10
47.90025200570799
 20
234.2761068167298
 30
0.0
 40
2.5
100
AcDbArc
 50
180.0
 51
270.00000000002
  0
ARC
  5
2A4
330
18
100
AcDbEntity
  8
LEVEL001
  6
CONTINUOUS
100
AcDbCircle
 10
56.850252005708
 20
225.3261068167299
 30
0.0
 40
2.5
100
AcDbArc
 50
180.0
 51
270.00000000002
  0
LINE
  5
2A5
330
18
100
AcDbEntity
  8
LEVEL001
  6
CONTINUOUS
100
AcDbLine
 10
56.850252005709
 20
222.8261068167298
 30
0.0
 11
89.950252005709
 21
222.8261068167298
 31
0.0
  0
ARC
  5
2A6
330
18
100
AcDbEntity
  8
LEVEL001
  6
CONTINUOUS
100
AcDbCircle
 10
89.950252005709
 20
225.3261068167299
 30
0.0
 40
2.5
100
AcDbArc
 50
270.0
 51
0.0
  0
ARC
  5
2A7
330
18
100
AcDbEntity
  8
LEVEL001
  6
CONTINUOUS
100
AcDbCircle
 10
98.90025200570901
 20
234.2761068167298
 30
0.0
 40
2.5
100
AcDbArc
 50
270.0
 51
0.0000000000026055
  0
ARC
  5
2A8
330
18
100
AcDbEntity
  8
LEVEL001
  6
CONTINUOUS
100
AcDbCircle
 10
98.90025200570901
 20
267.37610681673
 30
0.0
 40
2.5
100
AcDbArc
 50
0.000000000010422
 51
90.0
  0
ARC
  5
2A9
330
18
100
AcDbEntity
  8
LEVEL001
  6
CONTINUOUS
100
AcDbCircle
 10
47.900252005709
 20
267.3761068167198
 30
0.0
 40
2.5
100
AcDbArc
 50
90.0
 51
179.9999999999698
  0
LINE
  5
2AA
330
18
100
AcDbEntity
  8
LEVEL001
  6
CONTINUOUS
100
AcDbLine
 10
45.400252005709
 20
267.37610681673
 30
0.0
 11
45.400252005709
 21
234.2761068167298
 31
0.0
  0
LINE
  5
2AB
330
18
100
AcDbEntity
  8
LEVEL001
  6
CONTINUOUS
100
AcDbLine
 10
47.900252005709
 20
269.8761068167298
 30
0.0
 11
50.350252005709
 21
269.8761068167298
 31
0.0
  0
LINE
  5
2AC
330
18
100
AcDbEntity
  8
LEVEL001
  6
CONTINUOUS
100
AcDbLine
 10
96.450252005709
 20
269.8761068167298
 30
0.0
 11
98.90025200570901
 21
269.8761068167298
 31
0.0
  0
LINE
  5
2AD
330
18
100
AcDbEntity
  8
LEVEL001
  6
CONTINUOUS
100
AcDbLine
 10
54.350252005709
 20
225.3261068167299
 30
0.0
 11
54.350252005709
 21
227.7761068167298
 31
0.0
  0
LINE
  5
2AE
330
18
100
AcDbEntity
  8
LEVEL001
  6
CONTINUOUS
100
AcDbLine
 10
50.350252005709
 20
231.7761068167298
 30
0.0
 11
47.900252005709
 21
231.7761068167298
 31
0.0
  0
ARC
  5
2AF
330
18
100
AcDbEntity
  8
LEVEL001
  6
CONTINUOUS
100
AcDbCircle
 10
50.35025200571
 20
227.7761068167298
 30
0.0
 40
4.0
100
AcDbArc
 50
0.0
 51
90.00000000001396
  0
LINE
  5
2B0
330
18
100
AcDbEntity
  8
LEVEL001
  6
CONTINUOUS
100
AcDbLine
 10
98.90025200570901
 20
231.7761068167298
 30
0.0
 11
96.450252005709
 21
231.7761068167298
 31
0.0
  0
LINE
  5
2B1
330
18
100
AcDbEntity
  8
LEVEL001
  6
CONTINUOUS
100
AcDbLine
 10
92.450252005709
 20
227.7761068167298
 30
0.0
 11
92.450252005709
 21
225.3261068167299
 31
0.0
  0
ARC
  5
2B2
330
18
100
AcDbEntity
  8
LEVEL001
  6
CONTINUOUS
100
AcDbCircle
 10
96.450252005709
 20
227.7761068167298
 30
0.0
 40
4.0
100
AcDbArc
 50
90.0
 51
180.0
  0
LINE
  5
2B3
330
18
100
AcDbEntity
  8
LEVEL001
  6
CONTINUOUS
100
AcDbLine
 10
92.000252005709
 20
296.32610681673
 30
0.0
 11
92.000252005709
 21
274.87906739122
 31
0.0
  0
LINE
  5
2B4
330
18
100
AcDbEntity
  8
LEVEL001
  6
CONTINUOUS
100
AcDbLine
 10
54.80025200570899
 20
296.32610681673
 30
0.0
 11
54.80025200570899
 21
274.87906739122
 31
0.0
  0
ARC
  5
2B5
330
18
100
AcDbEntity
  8
LEVEL001
  6
CONTINUOUS
100
AcDbCircle
 10
58.400252005709
 20
296.32610681673
 30
0.0
 40
3.6
100
AcDbArc
 50
26.387799961244
 51
179.9999999999899
  0
LINE
  5
2B6
330
18
100
AcDbEntity
  8
LEVEL001
  6
CONTINUOUS
100
AcDbLine
 10
62.000252005709
 20
297.9261068167298
 30
0.0
 11
61.625155105029
 21
297.9261068167298
 31
0.0
  0
ARC
  5
2B7
330
18
100
AcDbEntity
  8
LEVEL001
  6
CONTINUOUS
100
AcDbCircle
 10
62.000252005709
 20
298.9261068167298
 30
0.0
 40
1.0
100
AcDbArc
 50
270.0
 51
0.0000000000130276
  0
LINE
  5
2B8
330
18
100
AcDbEntity
  8
LEVEL001
  6
CONTINUOUS
100
AcDbLine
 10
63.000252005709
 20
298.9261068167298
 30
0.0
 11
63.000252005709
 21
299.9261068167299
 31
0.0
  0
LINE
  5
2B9
330
18
100
AcDbEntity
  8
LEVEL001
  6
CONTINUOUS
100
AcDbLine
 10
63.000252005709
 20
299.9261068167299
 30
0.0
 11
83.700252005709
 21
299.9261068167299
 31
0.0
  0
LINE
  5
2BA
330
18
100
AcDbEntity
  8
LEVEL001
  6
CONTINUOUS
100
AcDbLine
 10
83.700252005709
 20
299.9261068167299
 30
0.0
 11
83.700252005709
 21
298.9261068167298
 31
0.0
  0
ARC
  5
2BB
330
18
100
AcDbEntity
  8
LEVEL001
  6
CONTINUOUS
100
AcDbCircle
 10
84.70025200570502
 20
298.9261068167298
 30
0.0
 40
1.0
100
AcDbArc
 50
180.00000000003
 51
270.0000000002
  0
LINE
  5
2BC
330
18
100
AcDbEntity
  8
LEVEL001
  6
CONTINUOUS
100
AcDbLine
 10
84.700252005709
 20
297.9261068167298
 30
0.0
 11
85.175348906389
 21
297.9261068167298
 31
0.0
  0
ARC
  5
2BD
330
18
100
AcDbEntity
  8
LEVEL001
  6
CONTINUOUS
100
AcDbCircle
 10
88.40025200570801
 20
296.32610681673
 30
0.0
 40
3.6
100
AcDbArc
 50
0.0000000000099516
 51
153.61220003875
  0
LINE
  5
2BE
330
18
100
AcDbEntity
  8
LEVEL001
  6
CONTINUOUS
100
AcDbLine
 10
65.40025200570901
 20
299.9261068167299
 30
0.0
 11
65.40025200570901
 21
338.84694510529
 31
0.0
  0
LINE
  5
2BF
330
18
100
AcDbEntity
  8
LEVEL001
  6
CONTINUOUS
100
AcDbLine
 10
75.200252005709
 20
299.9261068167299
 30
0.0
 11
75.200252005709
 21
339.17166835252
 31
0.0
  0
LINE
  5
2C0
330
18
100
AcDbEntity
  8
LEVEL001
  6
CONTINUOUS
100
AcDbLine
 10
62.000252005709
 20
297.9261068167298
 30
0.0
 11
84.356239990159
 21
297.9261068167298
 31
0.0
  0
LINE
  5
2C1
330
18
100
AcDbEntity
  8
LEVEL001
  6
CONTINUOUS
100
AcDbLine
 10
71.400252005709
 20
299.9261068167299
 30
0.0
 11
71.400252005709
 21
338.84694510529
 31
0.0
  0
LINE
  5
2C2
330
18
100
AcDbEntity
  8
LEVEL001
  6
CONTINUOUS
100
AcDbLine
 10
81.60025200570897
 20
299.9261068167299
 30
0.0
 11
81.60025200570897
 21
339.17166835252
 31
0.0
  0
LINE
  5
2C3
330
18
100
AcDbEntity
  8
LEVEL001
  6
DASHDOT
100
AcDbLine
 10
68.40025200570901
 20
294.41936124745
 30
0.0
 11
68.40025200570901
 21
340.09973541097
 31
0.0
  0
LINE
  5
2C4
330
18
100
AcDbEntity
  8
LEVEL001
  6
DASHDOT
100
AcDbLine
 10
78.40025200570902
 20
294.56182915412
 30
0.0
 11
78.40025200570902
 21
339.84316395637
 31
0.0
  0
LINE
  5
2C5
330
18
100
AcDbEntity
  8
LEVEL001
  6
CONTINUOUS
100
AcDbLine
 10
47.471824880959
 20
261.9503708855599
 30
0.0
 11
53.084663635809
 21
267.56320964041
 31
0.0
  0
LINE
  5
2C6
330
18
100
AcDbEntity
  8
LEVEL001
  6
CONTINUOUS
100
AcDbLine
 10
53.377556854629
 20
268.2703164215999
 30
0.0
 11
53.377556854629
 21
271.8261068167298
 31
0.0
  0
ARC
  5
2C7
330
18
100
AcDbEntity
  8
LEVEL001
  6
CONTINUOUS
100
AcDbCircle
 10
52.377556854629
 20
268.27031642159
 30
0.0
 40
1.0
100
AcDbArc
 50
315.00000000014
 51
0.000000000260551
  0
ARC
  5
2C8
330
18
100
AcDbEntity
  8
LEVEL001
  6
CONTINUOUS
100
AcDbCircle
 10
57.384092790739
 20
271.8170125729299
 30
0.0
 40
4.006546257391097
100
AcDbArc
 50
130.1585356850599
 51
179.86994728082
  0
LINE
  5
2C9
330
18
100
AcDbEntity
  8
LEVEL001
  6
CONTINUOUS
100
AcDbLine
 10
57.400252005709
 20
269.02624106508
 30
0.0
 11
53.377556854629
 21
269.02624106508
 31
0.0
  0
CIRCLE
  5
2CA
330
18
100
AcDbEntity
  8
LEVEL001
  6
CONTINUOUS
100
AcDbCircle
 10
57.400252005709
 20
271.8261068167298
 30
0.0
 40
2.5
  0
ARC
  5
2CB
330
18
100
AcDbEntity
  8
LEVEL001
  6
CONTINUOUS
100
AcDbCircle
 10
57.400252005709
 20
271.82624106508
 30
0.0
 40
2.799999999999998
100
AcDbArc
 50
270.0
 51
90.0
  0
LINE
  5
2CC
330
18
100
AcDbEntity
  8
LEVEL001
  6
CONTINUOUS
100
AcDbLine
 10
57.000252005709
 20
273.4261068167298
 30
0.0
 11
57.000252005709
 21
272.2261068167298
 31
0.0
  0
LINE
  5
2CD
330
18
100
AcDbEntity
  8
LEVEL001
  6
CONTINUOUS
100
AcDbLine
 10
57.000252005709
 20
270.2261068167298
 30
0.0
 11
57.800252005709
 21
270.2261068167298
 31
0.0
  0
LINE
  5
2CE
330
18
100
AcDbEntity
  8
LEVEL001
  6
CONTINUOUS
100
AcDbLine
 10
57.000252005709
 20
270.2261068167298
 30
0.0
 11
57.000252005709
 21
271.4261068167298
 31
0.0
  0
LINE
  5
2CF
330
18
100
AcDbEntity
  8
LEVEL001
  6
CONTINUOUS
100
AcDbLine
 10
55.800252005709
 20
271.4261068167298
 30
0.0
 11
57.000252005709
 21
271.4261068167298
 31
0.0
  0
LINE
  5
2D0
330
18
100
AcDbEntity
  8
LEVEL001
  6
CONTINUOUS
100
AcDbLine
 10
55.800252005709
 20
272.2261068167298
 30
0.0
 11
57.000252005709
 21
272.2261068167298
 31
0.0
  0
LINE
  5
2D1
330
18
100
AcDbEntity
  8
LEVEL001
  6
CONTINUOUS
100
AcDbLine
 10
57.800252005709
 20
273.4261068167298
 30
0.0
 11
57.800252005709
 21
272.2261068167298
 31
0.0
  0
LINE
  5
2D2
330
18
100
AcDbEntity
  8
LEVEL001
  6
CONTINUOUS
100
AcDbLine
 10
59.000252005709
 20
272.2261068167298
 30
0.0
 11
57.800252005709
 21
272.2261068167298
 31
0.0
  0
LINE
  5
2D3
330
18
100
AcDbEntity
  8
LEVEL001
  6
CONTINUOUS
100
AcDbLine
 10
59.000252005709
 20
271.4261068167298
 30
0.0
 11
57.800252005709
 21
271.4261068167298
 31
0.0
  0
LINE
  5
2D4
330
18
100
AcDbEntity
  8
LEVEL001
  6
CONTINUOUS
100
AcDbLine
 10
57.800252005709
 20
270.2261068167298
 30
0.0
 11
57.800252005709
 21
271.4261068167298
 31
0.0
  0
LINE
  5
2D5
330
18
100
AcDbEntity
  8
LEVEL001
  6
CONTINUOUS
100
AcDbLine
 10
55.800252005709
 20
272.2261068167298
 30
0.0
 11
55.800252005709
 21
271.4261068167298
 31
0.0
  0
LINE
  5
2D6
330
18
100
AcDbEntity
  8
LEVEL001
  6
DASHDOT
100
AcDbLine
 10
54.403950934159
 20
271.8261068167298
 30
0.0
 11
60.65486455182901
 21
271.8261068167298
 31
0.0
  0
LINE
  5
2D7
330
18
100
AcDbEntity
  8
LEVEL001
  6
DASHDOT
100
AcDbLine
 10
57.400252005709
 20
269.09855454121
 30
0.0
 11
57.400252005709
 21
275.22250907294
 31
0.0
  0
LINE
  5
2D8
330
18
100
AcDbEntity
  8
LEVEL001
  6
CONTINUOUS
100
AcDbLine
 10
57.800252005709
 20
273.4261068167298
 30
0.0
 11
57.000252005709
 21
273.4261068167298
 31
0.0
  0
LINE
  5
2D9
330
18
100
AcDbEntity
  8
LEVEL001
  6
CONTINUOUS
100
AcDbLine
 10
59.000252005709
 20
271.4261068167298
 30
0.0
 11
59.000252005709
 21
272.2261068167298
 31
0.0
  0
ARC
  5
2DA
330
18
100
AcDbEntity
  8
LEVEL001
  6
CONTINUOUS
100
AcDbCircle
 10
94.42294715678498
 20
268.27031642159
 30
0.0
 40
1.0
100
AcDbArc
 50
180.00000000018
 51
225.0000000002899
  0
LINE
  5
2DB
330
18
100
AcDbEntity
  8
LEVEL001
  6
CONTINUOUS
100
AcDbLine
 10
93.422947156789
 20
268.2703164215999
 30
0.0
 11
93.422947156789
 21
271.8261068167298
 31
0.0
  0
ARC
  5
2DC
330
18
100
AcDbEntity
  8
LEVEL001
  6
CONTINUOUS
100
AcDbCircle
 10
89.416411220678
 20
271.8170125729299
 30
0.0
 40
4.006546257391097
100
AcDbArc
 50
0.13005271917272
 51
49.841464314924
  0
ARC
  5
2DD
330
18
100
AcDbEntity
  8
LEVEL001
  6
CONTINUOUS
100
AcDbCircle
 10
89.400252005709
 20
271.82624106508
 30
0.0
 40
2.799999999999998
100
AcDbArc
 50
90.0
 51
270.0
  0
LINE
  5
2DE
330
18
100
AcDbEntity
  8
LEVEL001
  6
CONTINUOUS
100
AcDbLine
 10
89.400252005709
 20
269.02624106508
 30
0.0
 11
93.422947156789
 21
269.02624106508
 31
0.0
  0
CIRCLE
  5
2DF
330
18
100
AcDbEntity
  8
LEVEL001
  6
CONTINUOUS
100
AcDbCircle
 10
89.400252005709
 20
271.8261068167298
 30
0.0
 40
2.5
  0
LINE
  5
2E0
330
18
100
AcDbEntity
  8
LEVEL001
  6
CONTINUOUS
100
AcDbLine
 10
89.00025200570899
 20
273.4261068167298
 30
0.0
 11
89.00025200570899
 21
272.2261068167298
 31
0.0
  0
LINE
  5
2E1
330
18
100
AcDbEntity
  8
LEVEL001
  6
CONTINUOUS
100
AcDbLine
 10
89.80025200570898
 20
273.4261068167298
 30
0.0
 11
89.00025200570899
 21
273.4261068167298
 31
0.0
  0
LINE
  5
2E2
330
18
100
AcDbEntity
  8
LEVEL001
  6
CONTINUOUS
100
AcDbLine
 10
89.00025200570899
 20
270.2261068167298
 30
0.0
 11
89.80025200570898
 21
270.2261068167298
 31
0.0
  0
LINE
  5
2E3
330
18
100
AcDbEntity
  8
LEVEL001
  6
CONTINUOUS
100
AcDbLine
 10
89.00025200570899
 20
270.2261068167298
 30
0.0
 11
89.00025200570899
 21
271.4261068167298
 31
0.0
  0
LINE
  5
2E4
330
18
100
AcDbEntity
  8
LEVEL001
  6
CONTINUOUS
100
AcDbLine
 10
87.800252005709
 20
271.4261068167298
 30
0.0
 11
89.00025200570899
 21
271.4261068167298
 31
0.0
  0
LINE
  5
2E5
330
18
100
AcDbEntity
  8
LEVEL001
  6
CONTINUOUS
100
AcDbLine
 10
87.800252005709
 20
272.2261068167298
 30
0.0
 11
89.00025200570899
 21
272.2261068167298
 31
0.0
  0
LINE
  5
2E6
330
18
100
AcDbEntity
  8
LEVEL001
  6
CONTINUOUS
100
AcDbLine
 10
89.80025200570898
 20
273.4261068167298
 30
0.0
 11
89.80025200570898
 21
272.2261068167298
 31
0.0
  0
LINE
  5
2E7
330
18
100
AcDbEntity
  8
LEVEL001
  6
CONTINUOUS
100
AcDbLine
 10
91.000252005709
 20
272.2261068167298
 30
0.0
 11
89.80025200570898
 21
272.2261068167298
 31
0.0
  0
LINE
  5
2E8
330
18
100
AcDbEntity
  8
LEVEL001
  6
CONTINUOUS
100
AcDbLine
 10
91.000252005709
 20
271.4261068167298
 30
0.0
 11
89.80025200570898
 21
271.4261068167298
 31
0.0
  0
LINE
  5
2E9
330
18
100
AcDbEntity
  8
LEVEL001
  6
CONTINUOUS
100
AcDbLine
 10
89.80025200570898
 20
270.2261068167298
 30
0.0
 11
89.80025200570898
 21
271.4261068167298
 31
0.0
  0
LINE
  5
2EA
330
18
100
AcDbEntity
  8
LEVEL001
  6
CONTINUOUS
100
AcDbLine
 10
91.000252005709
 20
271.4261068167298
 30
0.0
 11
91.000252005709
 21
272.2261068167298
 31
0.0
  0
LINE
  5
2EB
330
18
100
AcDbEntity
  8
LEVEL001
  6
CONTINUOUS
100
AcDbLine
 10
87.800252005709
 20
272.2261068167298
 30
0.0
 11
87.800252005709
 21
271.4261068167298
 31
0.0
  0
LINE
  5
2EC
330
18
100
AcDbEntity
  8
LEVEL001
  6
DASHDOT
100
AcDbLine
 10
87.13456934887897
 20
271.8261068167298
 30
0.0
 11
92.654864551829
 21
271.8261068167298
 31
0.0
  0
LINE
  5
2ED
330
18
100
AcDbEntity
  8
LEVEL001
  6
DASHDOT
100
AcDbLine
 10
89.400252005709
 20
269.09855454121
 30
0.0
 11
89.400252005709
 21
276.30818643177
 31
0.0
  0
LINE
  5
2EE
330
18
100
AcDbEntity
  8
LEVEL001
  6
CONTINUOUS
100
AcDbLine
 10
46.300252005709
 20
259.12194376081
 30
0.0
 11
46.300252005709
 21
240.0302698729499
 31
0.0
  0
ARC
  5
2EF
330
18
100
AcDbEntity
  8
LEVEL001
  6
CONTINUOUS
100
AcDbCircle
 10
50.300252005709
 20
259.12194376081
 30
0.0
 40
4.0
100
AcDbArc
 50
135.00000000003
 51
180.00000000004
  0
LINE
  5
2F0
330
18
100
AcDbEntity
  8
LEVEL001
  6
CONTINUOUS
100
AcDbLine
 10
47.471824880959
 20
237.2018427482
 30
0.0
 11
58.175987937179
 21
226.4976796919899
 31
0.0
  0
ARC
  5
2F1
330
18
100
AcDbEntity
  8
LEVEL001
  6
CONTINUOUS
100
AcDbCircle
 10
50.300252005708
 20
240.0302698729499
 30
0.0
 40
4.0
100
AcDbArc
 50
180.00000000001
 51
225.0000000000099
  0
LINE
  5
2F2
330
18
100
AcDbEntity
  8
LEVEL001
  6
CONTINUOUS
100
AcDbLine
 10
99.32867913045901
 20
261.9503708855599
 30
0.0
 11
93.715840375599
 21
267.56320964041
 31
0.0
  0
LINE
  5
2F3
330
18
100
AcDbEntity
  8
LEVEL001
  6
CONTINUOUS
100
AcDbLine
 10
100.50025200571
 20
259.12194376081
 30
0.0
 11
100.50025200571
 21
240.0302698729499
 31
0.0
  0
ARC
  5
2F4
330
18
100
AcDbEntity
  8
LEVEL001
  6
CONTINUOUS
100
AcDbCircle
 10
96.50025200570802
 20
259.12194376081
 30
0.0
 40
4.0
100
AcDbArc
 50
0.0
 51
44.999999999986
  0
ARC
  5
2F5
330
18
100
AcDbEntity
  8
LEVEL001
  6
CONTINUOUS
100
AcDbCircle
 10
96.50025200570901
 20
240.0302698729499
 30
0.0
 40
4.0
100
AcDbArc
 50
315.0
 51
0.0000000000012213
  0
LINE
  5
2F6
330
18
100
AcDbEntity
  8
LEVEL001
  6
CONTINUOUS
100
AcDbLine
 10
61.004415061919
 20
225.3261068167299
 30
0.0
 11
73.40025200570902
 21
225.3261068167299
 31
0.0
  0
LINE
  5
2F7
330
18
100
AcDbEntity
  8
LEVEL001
  6
CONTINUOUS
100
AcDbLine
 10
85.79608894948902
 20
225.3261068167299
 30
0.0
 11
73.40025200570902
 21
225.3261068167299
 31
0.0
  0
LINE
  5
2F8
330
18
100
AcDbEntity
  8
LEVEL001
  6
CONTINUOUS
100
AcDbLine
 10
76.200252005709
 20
229.32610681673
 30
0.0
 11
76.200252005709
 21
225.3261068167299
 31
0.0
  0
LINE
  5
2F9
330
18
100
AcDbEntity
  8
LEVEL001
  6
CONTINUOUS
100
AcDbLine
 10
70.60025200570898
 20
229.32610681673
 30
0.0
 11
70.60025200570898
 21
225.3261068167299
 31
0.0
  0
ARC
  5
2FA
330
18
100
AcDbEntity
  8
LEVEL001
  6
CONTINUOUS
100
AcDbCircle
 10
73.40025200570902
 20
229.32610681673
 30
0.0
 40
2.799999999999998
100
AcDbArc
 50
0.0
 51
180.0
  0
CIRCLE
  5
2FB
330
18
100
AcDbEntity
  8
LEVEL001
  6
CONTINUOUS
100
AcDbCircle
 10
73.40025200570902
 20
229.32597256839
 30
0.0
 40
2.5
  0
LINE
  5
2FC
330
18
100
AcDbEntity
  8
LEVEL001
  6
CONTINUOUS
100
AcDbLine
 10
73.000252005709
 20
230.92597256839
 30
0.0
 11
73.000252005709
 21
229.72597256839
 31
0.0
  0
LINE
  5
2FD
330
18
100
AcDbEntity
  8
LEVEL001
  6
CONTINUOUS
100
AcDbLine
 10
73.800252005709
 20
230.92597256839
 30
0.0
 11
73.000252005709
 21
230.92597256839
 31
0.0
  0
LINE
  5
2FE
330
18
100
AcDbEntity
  8
LEVEL001
  6
CONTINUOUS
100
AcDbLine
 10
73.000252005709
 20
227.72597256839
 30
0.0
 11
73.800252005709
 21
227.72597256839
 31
0.0
  0
LINE
  5
2FF
330
18
100
AcDbEntity
  8
LEVEL001
  6
CONTINUOUS
100
AcDbLine
 10
73.000252005709
 20
227.72597256839
 30
0.0
 11
73.000252005709
 21
228.92597256839
 31
0.0
  0
LINE
  5
300
330
18
100
AcDbEntity
  8
LEVEL001
  6
CONTINUOUS
100
AcDbLine
 10
71.80025200570899
 20
228.92597256839
 30
0.0
 11
73.000252005709
 21
228.92597256839
 31
0.0
  0
LINE
  5
301
330
18
100
AcDbEntity
  8
LEVEL001
  6
CONTINUOUS
100
AcDbLine
 10
71.80025200570899
 20
229.72597256839
 30
0.0
 11
73.000252005709
 21
229.72597256839
 31
0.0
  0
LINE
  5
302
330
18
100
AcDbEntity
  8
LEVEL001
  6
CONTINUOUS
100
AcDbLine
 10
73.800252005709
 20
230.92597256839
 30
0.0
 11
73.800252005709
 21
229.72597256839
 31
0.0
  0
LINE
  5
303
330
18
100
AcDbEntity
  8
LEVEL001
  6
CONTINUOUS
100
AcDbLine
 10
75.000252005709
 20
229.72597256839
 30
0.0
 11
73.800252005709
 21
229.72597256839
 31
0.0
  0
LINE
  5
304
330
18
100
AcDbEntity
  8
LEVEL001
  6
CONTINUOUS
100
AcDbLine
 10
75.000252005709
 20
228.92597256839
 30
0.0
 11
73.800252005709
 21
228.92597256839
 31
0.0
  0
LINE
  5
305
330
18
100
AcDbEntity
  8
LEVEL001
  6
CONTINUOUS
100
AcDbLine
 10
73.800252005709
 20
227.72597256839
 30
0.0
 11
73.800252005709
 21
228.92597256839
 31
0.0
  0
LINE
  5
306
330
18
100
AcDbEntity
  8
LEVEL001
  6
CONTINUOUS
100
AcDbLine
 10
75.000252005709
 20
228.92597256839
 30
0.0
 11
75.000252005709
 21
229.72597256839
 31
0.0
  0
LINE
  5
307
330
18
100
AcDbEntity
  8
LEVEL001
  6
CONTINUOUS
100
AcDbLine
 10
71.80025200570899
 20
229.72597256839
 30
0.0
 11
71.80025200570899
 21
228.92597256839
 31
0.0
  0
LINE
  5
308
330
18
100
AcDbEntity
  8
LEVEL001
  6
DASHDOT
100
AcDbLine
 10
69.56771590256899
 20
229.32610681673
 30
0.0
 11
77.457288131629
 21
229.32610681673
 31
0.0
  0
LINE
  5
309
330
18
100
AcDbEntity
  8
LEVEL001
  6
DASHDOT
100
AcDbLine
 10
73.40025200570902
 20
225.8980868702999
 30
0.0
 11
73.40025200570902
 21
232.88965900825
 31
0.0
  0
LINE
  5
30A
330
18
100
AcDbEntity
  8
LEVEL001
  6
CONTINUOUS
100
AcDbLine
 10
99.32867913045901
 20
237.2018427482
 30
0.0
 11
88.62451607423903
 21
226.4976796919899
 31
0.0
  0
ARC
  5
30B
330
18
100
AcDbEntity
  8
LEVEL001
  6
CONTINUOUS
100
AcDbCircle
 10
56.850252005709
 20
276.3261068167297
 30
0.0
 40
2.5
100
AcDbArc
 50
145.08479375256
 51
180.00000000007
  0
LINE
  5
30C
330
18
100
AcDbEntity
  8
LEVEL001
  6
CONTINUOUS
100
AcDbLine
 10
54.80025200570899
 20
279.8261068167298
 30
0.0
 11
48.400252005709
 21
279.8261068167298
 31
0.0
  0
LINE
  5
30D
330
18
100
AcDbEntity
  8
LEVEL001
  6
CONTINUOUS
100
AcDbLine
 10
98.40025200570901
 20
279.8261068167298
 30
0.0
 11
92.000252005709
 21
279.8261068167298
 31
0.0
  0
ARC
  5
30E
330
18
100
AcDbEntity
  8
LEVEL001
  6
CONTINUOUS
100
AcDbCircle
 10
89.950252005709
 20
276.32610681672
 30
0.0
 40
2.5
100
AcDbArc
 50
0.0000000000872846
 51
34.91520624744798
  0
ARC
  5
30F
330
18
100
AcDbEntity
  8
LEVEL001
  6
CONTINUOUS
100
AcDbCircle
 10
50.350252005711
 20
273.87610681673
 30
0.0
 40
4.0
100
AcDbArc
 50
269.99999999997
 51
319.18519702627
  0
LINE
  5
310
330
18
100
AcDbEntity
  8
LEVEL001
  6
CONTINUOUS
100
AcDbLine
 10
54.350252005709
 20
274.43392353887
 30
0.0
 11
54.350252005709
 21
276.3261068167297
 31
0.0
  0
LINE
  5
311
330
18
100
AcDbEntity
  8
LEVEL001
  6
CONTINUOUS
100
AcDbLine
 10
57.400252005709
 20
274.6262410650799
 30
0.0
 11
54.52740796537099
 21
274.6262410650799
 31
0.0
  0
LINE
  5
312
330
18
100
AcDbEntity
  8
LEVEL001
  6
CONTINUOUS
100
AcDbLine
 10
89.400252005709
 20
274.6262410650799
 30
0.0
 11
92.27309604605101
 21
274.6262410650799
 31
0.0
  0
LINE
  5
313
330
18
100
AcDbEntity
  8
LEVEL001
  6
CONTINUOUS
100
AcDbLine
 10
92.450252005709
 20
276.3261068167297
 30
0.0
 11
92.450252005709
 21
274.4339235388798
 31
0.0
  0
ARC
  5
314
330
18
100
AcDbEntity
  8
LEVEL001
  6
CONTINUOUS
100
AcDbCircle
 10
96.45025200571101
 20
273.87610681673
 30
0.0
 40
4.0
100
AcDbArc
 50
220.81480297366
 51
269.99999999997
  0
LINE
  5
315
330
18
100
AcDbEntity
  8
LEVEL001
  6
CONTINUOUS
100
AcDbLine
 10
102.4002520057099
 20
225.8261068167298
 30
0.0
 11
102.4002520057099
 21
275.8261068167298
 31
0.0
  0
LINE
  5
316
330
18
100
AcDbEntity
  8
LEVEL001
  6
CONTINUOUS
100
AcDbLine
 10
101.4002520057099
 20
234.2761068167298
 30
0.0
 11
101.4002520057099
 21
267.37610681673
 31
0.0
  0
DIMENSION
  5
317
330
18
100
AcDbEntity
  8
LEVEL001
  6
CONTINUOUS
100
AcDbDimension
  2
*D38
 10
122.40025200571
 20
299.9261068167299
 30
0.0
 11
118.2752520057099
 21
260.87610681673
 31
0.0
 70
    32
  1
\A1;(78)
  3
GMM002
100
AcDbAlignedDimension
 13
98.40025200570901
 23
221.8261068167298
 33
0.0
 14
83.700252005709
 24
299.9261068167299
 34
0.0
 50
90.0
100
AcDbRotatedDimension
  0
LINE
  5
318
330
18
100
AcDbEntity
  8
LEVEL001
  6
DASHDOT
100
AcDbLine
 10
60.355857672879
 20
232.8261068167297
 30
0.0
 11
64.461000946529
 21
232.8261068167297
 31
0.0
  0
LINE
  5
319
330
18
100
AcDbEntity
  8
LEVEL001
  6
DASHDOT
100
AcDbLine
 10
82.307431633059
 20
232.8261068167297
 30
0.0
 11
86.540860634019
 21
232.8261068167297
 31
0.0
  0
LINE
  5
31A
330
18
100
AcDbEntity
  8
LEVEL001
  6
DASHDOT
100
AcDbLine
 10
62.400252005709
 20
230.68094414332
 30
0.0
 11
62.400252005709
 21
234.9143731442798
 31
0.0
  0
LINE
  5
31B
330
18
100
AcDbEntity
  8
LEVEL001
  6
DASHDOT
100
AcDbLine
 10
84.400252005709
 20
230.8174967306299
 30
0.0
 11
84.400252005709
 21
234.8502302806299
 31
0.0
  0
DIMENSION
  5
31C
330
18
100
AcDbEntity
  8
LEVEL001
  6
CONTINUOUS
100
AcDbDimension
  2
*D41
 10
29.400252005709
 20
232.8261068167297
 30
0.0
 11
25.27525200570896
 21
241.82610681673
 31
0.0
 70
    32
  3
GMM003
100
AcDbAlignedDimension
 13
41.26910446472499
 23
250.8261068167298
 33
0.0
 14
60.355857672879
 24
232.8261068167297
 34
0.0
 50
270.0
100
AcDbRotatedDimension
  0
DIMENSION
  5
31D
330
18
100
AcDbEntity
  8
LEVEL001
  6
CONTINUOUS
100
AcDbDimension
  2
*D37
 10
84.400252005709
 20
206.8261068167299
 30
0.0
 11
73.40025200570902
 21
210.95110681673
 31
0.0
 70
    32
  3
GMM003
100
AcDbAlignedDimension
 13
62.400252005709
 23
230.68094414332
 33
0.0
 14
84.400252005709
 24
230.8174967306299
 34
0.0
100
AcDbRotatedDimension
  0
ARC
  5
31E
330
18
100
AcDbEntity
  8
LEVEL001
  6
CONTINUOUS
100
AcDbCircle
 10
61.004415061925
 20
229.32610681673
 30
0.0
 40
4.0
100
AcDbArc
 50
225.0
 51
269.99999999999
  0
ARC
  5
31F
330
18
100
AcDbEntity
  8
LEVEL001
  6
CONTINUOUS
100
AcDbCircle
 10
85.87195493164399
 20
229.4019727988799
 30
0.0
 40
4.0
100
AcDbArc
 50
270.0
 51
315.0
  0
CIRCLE
  5
320
330
18
100
AcDbEntity
  8
LEVEL001
  6
CONTINUOUS
100
AcDbCircle
 10
62.400252005709
 20
232.8261068167297
 30
0.0
 40
1.75
  0
CIRCLE
  5
321
330
18
100
AcDbEntity
  8
LEVEL001
  6
CONTINUOUS
100
AcDbCircle
 10
84.400252005709
 20
232.8261068167297
 30
0.0
 40
1.75
  0
MTEXT
  5
323
330
18
100
AcDbEntity
  8
LEVEL001
100
AcDbMText
 10
50.61624609144922
 20
185.9725818891549
 30
0.0
 40
6.75
 41
0.0
 71
     7
 72
     5
  1
\A1;２－%%c３.５
  7
GMM001
1001
ACAD
1000
MTEXTBEGIN
1070
    73
1070
     1
1070
    44
1040
1.0
1070
    74
1070
     0
1000
MTEXTEND
1000
MTEXTBEGIN
1070
    73
1070
     1
1070
    44
1040
1.0
1070
    74
1070
     0
1000
MTEXTEND
1000
MTEXTBEGIN
1070
    73
1070
     1
1070
    44
1040
1.0
1070
    74
1070
     0
1000
MTEXTEND
  0
LINE
  5
324
330
18
100
AcDbEntity
  8
LEVEL001
  6
DASHDOT
100
AcDbLine
 10
490.3010847107498
 20
250.8261068167298
 30
0.0
 11
551.4322322517299
 21
250.8261068167298
 31
0.0
  0
LINE
  5
325
330
18
100
AcDbEntity
  8
LEVEL001
  6
DASHDOT
100
AcDbLine
 10
521.0117320970501
 20
281.3195625235899
 30
0.0
 11
521.0117320970501
 21
220.24855360556
 31
0.0
  0
LINE
  5
326
330
18
100
AcDbEntity
  8
LEVEL001
  6
CONTINUOUS
100
AcDbLine
 10
502.51173209705
 20
224.3261068167297
 30
0.0
 11
502.51173209705
 21
225.8261068167298
 31
0.0
  0
CIRCLE
  5
327
330
18
100
AcDbEntity
  8
LEVEL001
  6
DASHDOT
100
AcDbCircle
 10
521.0117320970501
 20
250.8261068167298
 30
0.0
 40
25.0
  0
ARC
  5
328
330
18
100
AcDbEntity
  8
LEVEL001
  6
HIDDEN
100
AcDbCircle
 10
537.01173209705
 20
277.32610681673
 30
0.0
 40
2.5
100
AcDbArc
 50
0.0
 51
89.99999999993702
  0
LINE
  5
329
330
18
100
AcDbEntity
  8
LEVEL001
  6
HIDDEN
100
AcDbLine
 10
537.01173209705
 20
279.8261068167298
 30
0.0
 11
505.01173209705
 21
279.8261068167298
 31
0.0
  0
LINE
  5
32A
330
18
100
AcDbEntity
  8
LEVEL001
  6
HIDDEN
100
AcDbLine
 10
539.51173209705
 20
277.32610681673
 30
0.0
 11
539.51173209705
 21
275.8261068167298
 31
0.0
  0
ARC
  5
32B
330
18
100
AcDbEntity
  8
LEVEL001
  6
HIDDEN
100
AcDbCircle
 10
547.51173209705
 20
266.82610681673
 30
0.0
 40
2.5
100
AcDbArc
 50
0.0
 51
90.0
  0
LINE
  5
32C
330
18
100
AcDbEntity
  8
LEVEL001
  6
HIDDEN
100
AcDbLine
 10
546.0117320970501
 20
269.3261068167298
 30
0.0
 11
547.51173209705
 21
269.3261068167298
 31
0.0
  0
ARC
  5
32D
330
18
100
AcDbEntity
  8
LEVEL001
  6
HIDDEN
100
AcDbCircle
 10
546.0117320970597
 20
275.8261068167298
 30
0.0
 40
6.5
100
AcDbArc
 50
180.0
 51
269.9999999999799
  0
LINE
  5
32E
330
18
100
AcDbEntity
  8
LEVEL001
  6
HIDDEN
100
AcDbLine
 10
492.01173209705
 20
266.82610681673
 30
0.0
 11
492.01173209705
 21
234.8261068167297
 31
0.0
  0
ARC
  5
32F
330
18
100
AcDbEntity
  8
LEVEL001
  6
HIDDEN
100
AcDbCircle
 10
494.51173209706
 20
266.82610681673
 30
0.0
 40
2.5
100
AcDbArc
 50
90.00000000005
 51
180.0
  0
LINE
  5
330
330
18
100
AcDbEntity
  8
LEVEL001
  6
HIDDEN
100
AcDbLine
 10
494.51173209705
 20
269.3261068167298
 30
0.0
 11
496.01173209705
 21
269.3261068167298
 31
0.0
  0
ARC
  5
331
330
18
100
AcDbEntity
  8
LEVEL001
  6
HIDDEN
100
AcDbCircle
 10
496.01173209705
 20
275.82610681672
 30
0.0
 40
6.5
100
AcDbArc
 50
270.0
 51
0.0000000000070148
  0
ARC
  5
332
330
18
100
AcDbEntity
  8
LEVEL001
  6
HIDDEN
100
AcDbCircle
 10
505.01173209705
 20
277.32610681672
 30
0.0
 40
2.5
100
AcDbArc
 50
90.0
 51
179.99999999991
  0
LINE
  5
333
330
18
100
AcDbEntity
  8
LEVEL001
  6
HIDDEN
100
AcDbLine
 10
502.51173209705
 20
275.8261068167298
 30
0.0
 11
502.51173209705
 21
277.32610681673
 31
0.0
  0
ARC
  5
334
330
18
100
AcDbEntity
  8
LEVEL001
  6
HIDDEN
100
AcDbCircle
 10
494.51173209706
 20
234.8261068167297
 30
0.0
 40
2.5
100
AcDbArc
 50
180.0
 51
269.9999999999298
  0
LINE
  5
335
330
18
100
AcDbEntity
  8
LEVEL001
  6
HIDDEN
100
AcDbLine
 10
496.01173209705
 20
232.3261068167298
 30
0.0
 11
494.51173209705
 21
232.3261068167298
 31
0.0
  0
ARC
  5
336
330
18
100
AcDbEntity
  8
LEVEL001
  6
HIDDEN
100
AcDbCircle
 10
496.01173209705
 20
225.8261068167298
 30
0.0
 40
6.5
100
AcDbArc
 50
0.0
 51
89.999999999999
  0
ARC
  5
337
330
18
100
AcDbEntity
  8
LEVEL001
  6
HIDDEN
100
AcDbCircle
 10
505.01173209705
 20
224.3261068167297
 30
0.0
 40
2.5
100
AcDbArc
 50
180.0
 51
270.00000000007
  0
LINE
  5
338
330
18
100
AcDbEntity
  8
LEVEL001
  6
HIDDEN
100
AcDbLine
 10
505.01173209705
 20
221.8261068167298
 30
0.0
 11
537.01173209705
 21
221.8261068167298
 31
0.0
  0
ARC
  5
339
330
18
100
AcDbEntity
  8
LEVEL001
  6
HIDDEN
100
AcDbCircle
 10
537.01173209705
 20
224.3261068167198
 30
0.0
 40
2.5
100
AcDbArc
 50
270.0
 51
0.0000000000833763
  0
LINE
  5
33A
330
18
100
AcDbEntity
  8
LEVEL001
  6
HIDDEN
100
AcDbLine
 10
539.51173209705
 20
225.8261068167298
 30
0.0
 11
539.51173209705
 21
224.3261068167297
 31
0.0
  0
ARC
  5
33B
330
18
100
AcDbEntity
  8
LEVEL001
  6
HIDDEN
100
AcDbCircle
 10
547.51173209705
 20
234.82610681672
 30
0.0
 40
2.5
100
AcDbArc
 50
270.0
 51
0.0000000000833763
  0
LINE
  5
33C
330
18
100
AcDbEntity
  8
LEVEL001
  6
HIDDEN
100
AcDbLine
 10
550.0117320970501
 20
234.8261068167297
 30
0.0
 11
550.0117320970501
 21
266.82610681673
 31
0.0
  0
LINE
  5
33D
330
18
100
AcDbEntity
  8
LEVEL001
  6
HIDDEN
100
AcDbLine
 10
547.51173209705
 20
232.3261068167298
 30
0.0
 11
546.0117320970501
 21
232.3261068167298
 31
0.0
  0
ARC
  5
33E
330
18
100
AcDbEntity
  8
LEVEL001
  6
HIDDEN
100
AcDbCircle
 10
546.0117320970501
 20
225.8261068167298
 30
0.0
 40
6.5
100
AcDbArc
 50
90.0
 51
180.0000000000199
  0
LINE
  5
33F
330
18
100
AcDbEntity
  8
LEVEL001
  6
CONTINUOUS
100
AcDbLine
 10
546.0117320970501
 20
279.8261068167298
 30
0.0
 11
496.01173209705
 21
279.8261068167298
 31
0.0
  0
ARC
  5
340
330
18
100
AcDbEntity
  8
LEVEL001
  6
CONTINUOUS
100
AcDbCircle
 10
496.01173209705
 20
275.8261068167298
 30
0.0
 40
4.0
100
AcDbArc
 50
90.0
 51
180.00000000004
  0
LINE
  5
341
330
18
100
AcDbEntity
  8
LEVEL001
  6
CONTINUOUS
100
AcDbLine
 10
492.01173209705
 20
275.8261068167298
 30
0.0
 11
492.01173209705
 21
225.8261068167298
 31
0.0
  0
CIRCLE
  5
342
330
18
100
AcDbEntity
  8
LEVEL001
  6
CONTINUOUS
100
AcDbCircle
 10
497.01173209705
 20
274.8261068167298
 30
0.0
 40
2.75
  0
LINE
  5
343
330
18
100
AcDbEntity
  8
LEVEL001
  6
DASHDOT
100
AcDbLine
 10
497.01173209705
 20
279.04673959815
 30
0.0
 11
497.01173209705
 21
270.51122047246
 31
0.0
  0
LINE
  5
344
330
18
100
AcDbEntity
  8
LEVEL001
  6
DASHDOT
100
AcDbLine
 10
492.8833753945299
 20
274.8261068167298
 30
0.0
 11
501.35878523059
 21
274.8261068167298
 31
0.0
  0
LINE
  5
345
330
18
100
AcDbEntity
  8
LEVEL001
  6
CONTINUOUS
100
AcDbLine
 10
550.0117320970501
 20
225.8261068167298
 30
0.0
 11
550.0117320970501
 21
275.8261068167298
 31
0.0
  0
ARC
  5
346
330
18
100
AcDbEntity
  8
LEVEL001
  6
CONTINUOUS
100
AcDbCircle
 10
546.0117320970501
 20
275.8261068167298
 30
0.0
 40
4.0
100
AcDbArc
 50
0.0
 51
89.999999999958
  0
CIRCLE
  5
347
330
18
100
AcDbEntity
  8
LEVEL001
  6
CONTINUOUS
100
AcDbCircle
 10
545.01173209705
 20
274.8261068167298
 30
0.0
 40
2.75
  0
LINE
  5
348
330
18
100
AcDbEntity
  8
LEVEL001
  6
DASHDOT
100
AcDbLine
 10
549.14008879958
 20
274.8261068167298
 30
0.0
 11
540.66467896352
 21
274.8261068167298
 31
0.0
  0
LINE
  5
349
330
18
100
AcDbEntity
  8
LEVEL001
  6
DASHDOT
100
AcDbLine
 10
545.01173209705
 20
279.04673959815
 30
0.0
 11
545.01173209705
 21
270.51122047246
 31
0.0
  0
ARC
  5
34A
330
18
100
AcDbEntity
  8
LEVEL001
  6
CONTINUOUS
100
AcDbCircle
 10
496.0117320970597
 20
225.8261068167298
 30
0.0
 40
4.0
100
AcDbArc
 50
180.0
 51
269.9999999999799
  0
LINE
  5
34B
330
18
100
AcDbEntity
  8
LEVEL001
  6
CONTINUOUS
100
AcDbLine
 10
496.01173209705
 20
221.8261068167298
 30
0.0
 11
546.0117320970501
 21
221.8261068167298
 31
0.0
  0
CIRCLE
  5
34C
330
18
100
AcDbEntity
  8
LEVEL001
  6
CONTINUOUS
100
AcDbCircle
 10
497.01173209705
 20
226.8261068167297
 30
0.0
 40
2.75
  0
LINE
  5
34D
330
18
100
AcDbEntity
  8
LEVEL001
  6
DASHDOT
100
AcDbLine
 10
497.01173209705
 20
222.6054740352999
 30
0.0
 11
497.01173209705
 21
231.1409931609899
 31
0.0
  0
LINE
  5
34E
330
18
100
AcDbEntity
  8
LEVEL001
  6
DASHDOT
100
AcDbLine
 10
492.8833753945299
 20
226.8261068167297
 30
0.0
 11
501.35878523059
 21
226.8261068167297
 31
0.0
  0
ARC
  5
34F
330
18
100
AcDbEntity
  8
LEVEL001
  6
CONTINUOUS
100
AcDbCircle
 10
546.0117320970501
 20
225.8261068167199
 30
0.0
 40
4.0
100
AcDbArc
 50
270.0
 51
0.0000000000260551
  0
CIRCLE
  5
350
330
18
100
AcDbEntity
  8
LEVEL001
  6
CONTINUOUS
100
AcDbCircle
 10
545.01173209705
 20
226.8261068167297
 30
0.0
 40
2.75
  0
LINE
  5
351
330
18
100
AcDbEntity
  8
LEVEL001
  6
DASHDOT
100
AcDbLine
 10
549.14008879958
 20
226.8261068167297
 30
0.0
 11
540.66467896352
 21
226.8261068167297
 31
0.0
  0
LINE
  5
352
330
18
100
AcDbEntity
  8
LEVEL001
  6
DASHDOT
100
AcDbLine
 10
545.01173209705
 20
222.6054740352999
 30
0.0
 11
545.01173209705
 21
231.1409931609899
 31
0.0
  0
INSERT
  5
353
330
18
100
AcDbEntity
  8
0
100
AcDbBlockReference
  2
JFKANAT_4
 10
538.68940162672
 20
268.5037763463899
 30
0.0
  0
LINE
  5
354
330
18
100
AcDbEntity
  8
LEVEL001
  6
DASHDOT
100
AcDbLine
 10
535.1564391307498
 20
264.97081385041
 30
0.0
 11
542.2417292138598
 21
272.05610393352
 31
0.0
  0
INSERT
  5
355
330
18
100
AcDbEntity
  8
0
100
AcDbBlockReference
  2
JFKANAT_4
 10
503.33406256739
 20
268.5037763463899
 30
0.0
 50
90.0
  0
INSERT
  5
356
330
18
100
AcDbEntity
  8
0
100
AcDbBlockReference
  2
JFKANAT_4
 10
503.33406256739
 20
233.14843728706
 30
0.0
 50
180.0
  0
INSERT
  5
357
330
18
100
AcDbEntity
  8
0
100
AcDbBlockReference
  2
JFKANAT_4
 10
538.68940162672
 20
233.14843728706
 30
0.0
 50
270.0
  0
LINE
  5
358
330
18
100
AcDbEntity
  8
LEVEL001
  6
DASHDOT
100
AcDbLine
 10
506.49489313835
 20
265.3429457754299
 30
0.0
 11
500.3494884744298
 21
271.48835043936
 31
0.0
  0
LINE
  5
359
330
18
100
AcDbEntity
  8
LEVEL001
  6
DASHDOT
100
AcDbLine
 10
506.9900530766798
 20
236.80442779635
 30
0.0
 11
500.08551018957
 21
229.89988490924
 31
0.0
  0
LINE
  5
35A
330
18
100
AcDbEntity
  8
LEVEL001
  6
DASHDOT
100
AcDbLine
 10
535.83614545562
 20
236.00169345815
 30
0.0
 11
541.83695236275
 21
230.0008865510299
 31
0.0
  0
CIRCLE
  5
35B
330
18
100
AcDbEntity
  8
LEVEL001
  6
CONTINUOUS
100
AcDbCircle
 10
521.0117320970501
 20
250.8261068167298
 30
0.0
 40
17.5
  0
CIRCLE
  5
35C
330
18
100
AcDbEntity
  8
LEVEL001
  6
CONTINUOUS
100
AcDbCircle
 10
521.0117320970501
 20
250.8261068167298
 30
0.0
 40
7.0
  0
CIRCLE
  5
35D
330
18
100
AcDbEntity
  8
LEVEL001
  6
CONTINUOUS
100
AcDbCircle
 10
521.0117320970501
 20
250.8261068167298
 30
0.0
 40
6.0
  0
DIMENSION
  5
35E
330
18
100
AcDbEntity
  8
LEVEL001
  6
CONTINUOUS
100
AcDbDimension
  2
*D50
 10
550.0117320970501
 20
319.3261068167298
 30
0.0
 11
521.0117320970501
 21
322.7011068167298
 31
0.0
 70
    32
  3
GMM005
100
AcDbAlignedDimension
 13
492.01173209705
 23
275.8261068167298
 33
0.0
 14
550.0117320970501
 24
275.8261068167298
 34
0.0
100
AcDbRotatedDimension
  0
DIMENSION
  5
35F
330
18
100
AcDbEntity
  8
LEVEL001
  6
CONTINUOUS
100
AcDbDimension
  2
*D49
 10
545.01173209705
 20
302.71579042602
 30
0.0
 11
521.0117320970501
 21
306.09079042602
 31
0.0
 70
    32
  3
GMM005
100
AcDbAlignedDimension
 13
497.01173209705
 23
279.04673959815
 33
0.0
 14
545.01173209705
 24
279.04673959815
 34
0.0
100
AcDbRotatedDimension
  0
LEADER
  5
360
330
18
100
AcDbEntity
  8
LEVEL001
  6
CONTINUOUS
100
AcDbLeader
  3
GMM006
 73
     0
 75
     1
 40
6.75
 41
42.35000000000012
 76
     3
 10
543.77974467259
 20
224.36750823502
 30
0.0
 10
535.4470582888001
 20
193.2664716813499
 30
0.0
 10
532.4470582888001
 20
193.2664716813499
 30
0.0
340
361
1001
ACAD
1000
DSTYLE
1002
{
1070
     6
1000
OPEN30
1070
   343
1005
66
1002
}
1000
LEANOF
1010
0.0
1020
0.0
1030
0.0
1000
LEANOF
1010
0.0
1020
0.0
1030
0.0
  0
MTEXT
  5
361
330
18
100
AcDbEntity
  8
LEVEL001
100
AcDbMText
 10
490.0970582888
 20
193.2664716813499
 30
0.0
 40
6.75
 41
0.0
 71
     7
 72
     5
  1
\A1;４－%%c５.５ヌキ
  7
GMM001
1001
ACAD
1000
MTEXTBEGIN
1070
    73
1070
     1
1070
    44
1040
1.0
1070
    74
1070
     0
1000
MTEXTEND
1000
MTEXTBEGIN
1070
    73
1070
     1
1070
    44
1040
1.0
1070
    74
1070
     0
1000
MTEXTEND
1000
MTEXTBEGIN
1070
    73
1070
     1
1070
    44
1040
1.0
1070
    74
1070
     0
1000
MTEXTEND
  0
LINE
  5
362
330
18
100
AcDbEntity
  8
LEVEL001
  6
CONTINUOUS
100
AcDbLine
 10
511.51173209705
 20
256.3713750699299
 30
0.0
 11
511.51173209705
 21
245.28083856352
 31
0.0
  0
ARC
  5
363
330
18
100
AcDbEntity
  8
LEVEL001
  6
CONTINUOUS
100
AcDbCircle
 10
521.0117320970597
 20
250.8261068167298
 30
0.0
 40
11.0
100
AcDbArc
 50
30.272641318905
 51
149.7273586811
  0
LINE
  5
364
330
18
100
AcDbEntity
  8
LEVEL001
  6
CONTINUOUS
100
AcDbLine
 10
530.51173209705
 20
256.3713750699299
 30
0.0
 11
530.51173209705
 21
245.28083856352
 31
0.0
  0
ARC
  5
365
330
18
100
AcDbEntity
  8
LEVEL001
  6
CONTINUOUS
100
AcDbCircle
 10
521.0117320970597
 20
250.8261068167298
 30
0.0
 40
11.0
100
AcDbArc
 50
210.2726413189198
 51
329.72735868107
  0
ARC
  5
366
330
18
100
AcDbEntity
  8
LEVEL001
  6
CONTINUOUS
100
AcDbCircle
 10
66.900252005709
 20
340.4219451052898
 30
0.0
 40
2.1750000000001
100
AcDbArc
 50
226.3971810272999
 51
313.6028189726999
  0
ARC
  5
367
330
18
100
AcDbEntity
  8
LEVEL001
  6
CONTINUOUS
100
AcDbCircle
 10
69.90025200570901
 20
337.2719451052899
 30
0.0
 40
2.1750000000001
100
AcDbArc
 50
46.397181027298
 51
133.6028189727197
  0
ARC
  5
368
330
18
100
AcDbEntity
  8
LEVEL001
  6
CONTINUOUS
100
AcDbCircle
 10
66.900252005709
 20
337.2719451052899
 30
0.0
 40
2.1750000000001
100
AcDbArc
 50
46.397181027298
 51
133.6028189727197
  0
ARC
  5
369
330
18
100
AcDbEntity
  8
LEVEL001
  6
CONTINUOUS
100
AcDbCircle
 10
76.80025200571002
 20
340.85166835252
 30
0.0
 40
2.3200000000001
100
AcDbArc
 50
226.3971810272999
 51
313.60281897267
  0
ARC
  5
36A
330
18
100
AcDbEntity
  8
LEVEL001
  6
CONTINUOUS
100
AcDbCircle
 10
80.00025200570799
 20
337.4916683525098
 30
0.0
 40
2.3200000000001
100
AcDbArc
 50
46.397181027298
 51
133.60281897265
  0
ARC
  5
36B
330
18
100
AcDbEntity
  8
LEVEL001
  6
CONTINUOUS
100
AcDbCircle
 10
76.80025200570899
 20
337.49166835252
 30
0.0
 40
2.3200000000001
100
AcDbArc
 50
46.397181027298
 51
133.6028189726997
  0
TEXT
  5
36C
330
18
100
AcDbEntity
  8
LEVEL001
100
AcDbText
 10
45.219262710035
 20
344.77873615385
 30
0.0
 40
6.75
  1
ケーブル長さ（７００）
 41
0.77777777777778
100
AcDbText
  0
LINE
  5
36D
330
18
100
AcDbEntity
  8
LEVEL001
  6
CONTINUOUS
 62
     7
100
AcDbLine
 10
3.1085205
 20
412.8788118000001
 30
0.0
 11
573.1085205
 21
412.8788118000001
 31
0.0
  0
LWPOLYLINE
  5
36E
330
18
100
AcDbEntity
  8
LEVEL001
  6
CONTINUOUS
100
AcDbPolyline
 90
        4
 70
     1
 43
0.0
 10
376.0578436664199
 20
221.8261068167298
 10
216.05784366642
 20
221.8261068167298
 10
216.05784366642
 20
279.8261068167298
 10
376.0578436664199
 20
279.8261068167298
  0
LINE
  5
36F
330
18
100
AcDbEntity
  8
LEVEL001
  6
CONTINUOUS
100
AcDbLine
 10
376.0578436664199
 20
269.3261068167298
 30
0.0
 11
216.05784366642
 21
269.3261068167298
 31
0.0
  0
LINE
  5
370
330
18
100
AcDbEntity
  8
LEVEL001
  6
CONTINUOUS
100
AcDbLine
 10
216.05784366642
 20
232.3261068167298
 30
0.0
 11
376.0578436664199
 21
232.3261068167298
 31
0.0
  0
LINE
  5
371
330
18
100
AcDbEntity
  8
LEVEL001
  6
CONTINUOUS
100
AcDbLine
 10
216.05784366642
 20
274.3961068167299
 30
0.0
 11
216.05784366642
 21
228.8561068167298
 31
0.0
  0
LINE
  5
372
330
18
100
AcDbEntity
  8
LEVEL001
  6
CONTINUOUS
100
AcDbLine
 10
216.05784366642
 20
231.7761068167298
 30
0.0
 11
216.05784366642
 21
269.8761068167298
 31
0.0
  0
LWPOLYLINE
  5
373
330
18
100
AcDbEntity
  8
LEVEL001
  6
CONTINUOUS
100
AcDbPolyline
 90
        3
 70
     0
 43
0.0
 10
376.0578436664199
 20
279.8261068167298
 10
386.0578436664198
 20
279.8261068167298
 10
386.0578436664198
 20
268.3261068167297
  0
LWPOLYLINE
  5
374
330
18
100
AcDbEntity
  8
LEVEL001
  6
CONTINUOUS
100
AcDbPolyline
 90
        3
 70
     0
 43
0.0
 10
386.0578436664198
 20
233.3261068167299
 10
386.0578436664198
 20
221.8261068167298
 10
376.0578436664199
 20
221.8261068167298
  0
LINE
  5
375
330
18
100
AcDbEntity
  8
LEVEL001
  6
CONTINUOUS
100
AcDbLine
 10
376.0578436664199
 20
268.3261068167297
 30
0.0
 11
376.0578436664199
 21
279.8261068167298
 31
0.0
  0
LINE
  5
376
330
18
100
AcDbEntity
  8
LEVEL001
  6
CONTINUOUS
100
AcDbLine
 10
376.0578436664199
 20
221.8261068167298
 30
0.0
 11
376.0578436664199
 21
233.3261068167299
 31
0.0
  0
LWPOLYLINE
  5
377
330
18
100
AcDbEntity
  8
LEVEL001
  6
CONTINUOUS
100
AcDbPolyline
 90
        4
 70
     0
 43
0.0
 10
386.0578436664198
 20
268.3261068167297
 10
389.0578436664199
 20
268.3261068167297
 10
389.0578436664199
 20
233.3261068167299
 10
386.0578436664198
 20
233.3261068167299
  0
LINE
  5
378
330
18
100
AcDbEntity
  8
LEVEL001
  6
CONTINUOUS
100
AcDbLine
 10
389.0578436664199
 20
263.3261068167298
 30
0.0
 11
389.0578436664199
 21
238.3261068167298
 31
0.0
  0
LINE
  5
379
330
18
100
AcDbEntity
  8
LEVEL001
  6
CONTINUOUS
100
AcDbLine
 10
386.0578436664198
 20
268.3261068167297
 30
0.0
 11
386.0578436664198
 21
233.3261068167299
 31
0.0
  0
LINE
  5
37A
330
18
100
AcDbEntity
  8
LEVEL001
  6
CONTINUOUS
100
AcDbLine
 10
376.0578436664199
 20
233.3261068167299
 30
0.0
 11
376.0578436664199
 21
268.3261068167297
 31
0.0
  0
LINE
  5
37B
330
18
100
AcDbEntity
  8
LEVEL001
  6
CONTINUOUS
100
AcDbLine
 10
216.05784366642
 20
268.3261068167297
 30
0.0
 11
216.05784366642
 21
233.3261068167299
 31
0.0
  0
LWPOLYLINE
  5
37C
330
18
100
AcDbEntity
  8
LEVEL001
  6
CONTINUOUS
100
AcDbPolyline
 90
        4
 70
     0
 43
0.0
 10
216.05784366642
 20
221.8261068167298
 10
208.0578436664199
 20
221.8261068167298
 10
208.0578436664199
 20
279.8261068167298
 10
216.05784366642
 20
279.8261068167298
  0
LINE
  5
37D
330
18
100
AcDbEntity
  8
LEVEL001
  6
CONTINUOUS
100
AcDbLine
 10
216.05784366642
 20
268.3261068167297
 30
0.0
 11
216.05784366642
 21
279.8261068167298
 31
0.0
  0
LINE
  5
37E
330
18
100
AcDbEntity
  8
LEVEL001
  6
CONTINUOUS
100
AcDbLine
 10
216.05784366642
 20
233.3261068167299
 30
0.0
 11
216.05784366642
 21
221.8261068167298
 31
0.0
  0
LINE
  5
37F
330
18
100
AcDbEntity
  8
LEVEL001
  6
CONTINUOUS
100
AcDbLine
 10
173.0578436664198
 20
278.8261068167297
 30
0.0
 11
173.0578436664198
 21
222.8261068167298
 31
0.0
  0
LWPOLYLINE
  5
380
330
18
100
AcDbEntity
  8
LEVEL001
  6
CONTINUOUS
100
AcDbPolyline
 90
        6
 70
     0
 43
0.0
 10
208.0578436664199
 20
229.44679834678
 10
208.0578436664199
 20
222.8261068167298
 10
166.05784366642
 20
222.8261068167298
 10
166.05784366642
 20
278.8261068167297
 10
208.0578436664199
 20
278.8261068167297
 10
208.0578436664199
 20
274.3961068167299
  0
LINE
  5
381
330
18
100
AcDbEntity
  8
LEVEL001
  6
DASHDOT
100
AcDbLine
 10
212.62516291599
 20
227.2561068167298
 30
0.0
 11
197.89338661817
 21
227.2561068167298
 31
0.0
  0
LINE
  5
382
330
18
100
AcDbEntity
  8
LEVEL001
  6
DASHDOT
100
AcDbLine
 10
212.62516291599
 20
274.3961068167299
 30
0.0
 11
197.89338661817
 21
274.3961068167299
 31
0.0
  0
LWPOLYLINE
  5
385
330
18
100
AcDbEntity
  8
LEVEL001
  6
CONTINUOUS
100
AcDbPolyline
 90
        3
 70
     0
 43
0.0
 10
166.05784366642
 20
269.8761068167298
 10
203.0578436664199
 20
269.8761068167298
 10
203.0578436664199
 20
278.8261068167297
  0
LWPOLYLINE
  5
386
330
18
100
AcDbEntity
  8
LEVEL001
  6
CONTINUOUS
100
AcDbPolyline
 90
        3
 70
     0
 43
0.0
 10
203.0578436664199
 20
222.8261068167298
 10
203.0578436664199
 20
231.7761068167298
 10
166.05784366642
 20
231.7761068167298
  0
LINE
  5
387
330
18
100
AcDbEntity
  8
LEVEL001
  6
DASHDOT
100
AcDbLine
 10
388.01531987315
 20
274.8261068167298
 30
0.0
 11
372.33225976387
 21
274.8261068167298
 31
0.0
  0
LINE
  5
388
330
18
100
AcDbEntity
  8
LEVEL001
  6
DASHDOT
100
AcDbLine
 10
388.01531987315
 20
226.8261068167297
 30
0.0
 11
372.33225976387
 21
226.8261068167297
 31
0.0
  0
LINE
  5
389
330
18
100
AcDbEntity
  8
LEVEL001
  6
CONTINUOUS
100
AcDbLine
 10
147.05784366642
 20
227.32610681673
 30
0.0
 11
147.05784366642
 21
297.9261068167298
 31
0.0
  0
ARC
  5
38A
330
18
100
AcDbEntity
  8
LEVEL001
  6
CONTINUOUS
100
AcDbCircle
 10
149.05784366641
 20
297.9261068167298
 30
0.0
 40
2.0
100
AcDbArc
 50
89.999999999982
 51
180.0
  0
LINE
  5
38B
330
18
100
AcDbEntity
  8
LEVEL001
  6
CONTINUOUS
100
AcDbLine
 10
166.05784366642
 20
299.9261068167299
 30
0.0
 11
149.05784366642
 21
299.9261068167299
 31
0.0
  0
LINE
  5
38C
330
18
100
AcDbEntity
  8
LEVEL001
  6
CONTINUOUS
100
AcDbLine
 10
166.05784366642
 20
299.9261068167299
 30
0.0
 11
170.05784366642
 21
299.9261068167299
 31
0.0
  0
LINE
  5
38D
330
18
100
AcDbEntity
  8
LEVEL001
  6
CONTINUOUS
100
AcDbLine
 10
171.4578436664199
 20
299.9261068167299
 30
0.0
 11
170.05784366642
 21
299.9261068167299
 31
0.0
  0
LINE
  5
38E
330
18
100
AcDbEntity
  8
LEVEL001
  6
CONTINUOUS
100
AcDbLine
 10
171.4578436664199
 20
297.9261068167298
 30
0.0
 11
171.4578436664199
 21
299.9261068167299
 31
0.0
  0
LINE
  5
38F
330
18
100
AcDbEntity
  8
LEVEL001
  6
CONTINUOUS
100
AcDbLine
 10
177.35784366642
 20
297.9261068167298
 30
0.0
 11
170.05784366642
 21
297.9261068167298
 31
0.0
  0
ARC
  5
390
330
18
100
AcDbEntity
  8
LEVEL001
  6
CONTINUOUS
100
AcDbCircle
 10
177.35784366642
 20
294.9261068167298
 30
0.0
 40
3.0
100
AcDbArc
 50
0.0000000000173701
 51
90.0
  0
LINE
  5
391
330
18
100
AcDbEntity
  8
LEVEL001
  6
CONTINUOUS
100
AcDbLine
 10
180.3578436664199
 20
281.3261068167298
 30
0.0
 11
180.3578436664199
 21
294.9261068167298
 31
0.0
  0
LINE
  5
392
330
18
100
AcDbEntity
  8
LEVEL001
  6
CONTINUOUS
100
AcDbLine
 10
170.05784366642
 20
299.9261068167299
 30
0.0
 11
170.05784366642
 21
292.7261068167299
 31
0.0
  0
LINE
  5
393
330
18
100
AcDbEntity
  8
LEVEL001
  6
CONTINUOUS
100
AcDbLine
 10
170.05784366642
 20
292.7261068167299
 30
0.0
 11
177.35784366642
 21
292.7261068167299
 31
0.0
  0
ARC
  5
394
330
18
100
AcDbEntity
  8
LEVEL001
  6
CONTINUOUS
100
AcDbCircle
 10
177.35784366642
 20
289.7261068167299
 30
0.0
 40
3.0
100
AcDbArc
 50
0.000000000008685
 51
90.0
  0
LINE
  5
395
330
18
100
AcDbEntity
  8
LEVEL001
  6
CONTINUOUS
100
AcDbLine
 10
181.5578436664198
 20
281.3261068167298
 30
0.0
 11
180.3578436664199
 21
281.3261068167298
 31
0.0
  0
LINE
  5
396
330
18
100
AcDbEntity
  8
LEVEL001
  6
CONTINUOUS
100
AcDbLine
 10
181.5578436664198
 20
278.8261068167297
 30
0.0
 11
181.5578436664198
 21
281.3261068167298
 31
0.0
  0
LINE
  5
397
330
18
100
AcDbEntity
  8
LEVEL001
  6
CONTINUOUS
100
AcDbLine
 10
166.05784366642
 20
225.3261068167299
 30
0.0
 11
166.05784366642
 21
299.9261068167299
 31
0.0
  0
LINE
  5
398
330
18
100
AcDbEntity
  8
LEVEL001
  6
CONTINUOUS
100
AcDbLine
 10
169.05784366642
 20
299.9261068167299
 30
0.0
 11
169.05784366642
 21
329.48108478002
 31
0.0
  0
LINE
  5
399
330
18
100
AcDbEntity
  8
LEVEL001
  6
CONTINUOUS
100
AcDbLine
 10
163.05784366642
 20
299.9261068167299
 30
0.0
 11
163.05784366642
 21
329.28865618907
 31
0.0
  0
ARC
  5
39A
330
18
100
AcDbEntity
  8
LEVEL001
  6
CONTINUOUS
100
AcDbCircle
 10
167.55784366641
 20
331.0560847800199
 30
0.0
 40
2.1750000000001
100
AcDbArc
 50
226.39718102732
 51
313.6028189726999
  0
ARC
  5
39B
330
18
100
AcDbEntity
  8
LEVEL001
  6
CONTINUOUS
100
AcDbCircle
 10
164.55784366641
 20
327.90608478002
 30
0.0
 40
2.1750000000001
100
AcDbArc
 50
46.397181027265
 51
133.6028189726997
  0
ARC
  5
39C
330
18
100
AcDbEntity
  8
LEVEL001
  6
CONTINUOUS
100
AcDbCircle
 10
167.55784366641
 20
327.90608478002
 30
0.0
 40
2.1750000000001
100
AcDbArc
 50
46.397181027265
 51
133.6028189726997
  0
LINE
  5
39D
330
18
100
AcDbEntity
  8
LEVEL001
  6
DASHDOT
100
AcDbLine
 10
172.7769896382799
 20
296.32610681673
 30
0.0
 11
162.7711314074599
 21
296.32610681673
 31
0.0
  0
LINE
  5
39E
330
18
100
AcDbEntity
  8
LEVEL001
  6
DASHDOT
100
AcDbLine
 10
166.05784366642
 20
299.9261068167299
 30
0.0
 11
166.05784366642
 21
334.41357077155
 31
0.0
  0
LINE
  5
39F
330
18
100
AcDbEntity
  8
LEVEL001
  6
CONTINUOUS
100
AcDbLine
 10
149.05784366642
 20
225.3261068167299
 30
0.0
 11
165.9578436664198
 21
225.3261068167299
 31
0.0
  0
ARC
  5
3A0
330
18
100
AcDbEntity
  8
LEVEL001
  6
CONTINUOUS
100
AcDbCircle
 10
149.05784366642
 20
227.32610681673
 30
0.0
 40
2.0
100
AcDbArc
 50
180.0
 51
270.00000000001
  0
DIMENSION
  5
3A1
330
18
100
AcDbEntity
  8
LEVEL001
  6
CONTINUOUS
100
AcDbDimension
  2
*D52
 10
457.55784366642
 20
233.3261068167299
 30
0.0
 11
454.1828436664198
 21
250.8261068167298
 31
0.0
 70
    32
  3
GMM007
100
AcDbAlignedDimension
 13
389.0578436664199
 23
268.3261068167297
 33
0.0
 14
389.0578436664199
 24
233.3261068167299
 34
0.0
 50
270.0
100
AcDbRotatedDimension
  0
LINE
  5
3A2
330
18
100
AcDbEntity
  8
LEVEL001
  6
CONTINUOUS
100
AcDbLine
 10
166.05784366642
 20
335.9135707715498
 30
0.0
 11
166.05784366642
 21
352.48108478002
 31
0.0
  0
DIMENSION
  5
3A3
330
18
100
AcDbEntity
  8
LEVEL001
  6
CONTINUOUS
100
AcDbDimension
  2
*D42
 10
147.05784366642
 20
349.48108478002
 30
0.0
 11
156.55784366642
 21
353.60608478002
 31
0.0
 70
    32
  3
GMM003
100
AcDbAlignedDimension
 13
166.05784366642
 23
335.9135707715498
 33
0.0
 14
147.05784366642
 24
297.9261068167298
 34
0.0
 50
180.0
100
AcDbRotatedDimension
  0
LWPOLYLINE
  5
3A4
330
18
100
AcDbEntity
  8
LEVEL001
  6
CONTINUOUS
100
AcDbPolyline
 90
        4
 70
     1
 43
0.0
 10
394.0578436664198
 20
239.82610681673
 10
389.0578436664199
 20
239.82610681673
 10
389.0578436664199
 20
261.8261068167297
 10
394.0578436664198
 20
261.8261068167297
  0
LWPOLYLINE
  5
3A5
330
18
100
AcDbEntity
  8
LEVEL001
  6
CONTINUOUS
100
AcDbPolyline
 90
        4
 70
     1
 43
0.0
 10
401.0578436664198
 20
239.82610681673
 10
394.0578436664198
 20
239.82610681673
 10
394.0578436664198
 20
261.8261068167297
 10
401.0578436664198
 20
261.8261068167297
  0
LINE
  5
3A6
330
18
100
AcDbEntity
  8
LEVEL001
  6
CONTINUOUS
100
AcDbLine
 10
394.0578436664198
 20
261.8261068167297
 30
0.0
 11
401.0578436664198
 21
261.8261068167297
 31
0.0
  0
LINE
  5
3A7
330
18
100
AcDbEntity
  8
LEVEL001
  6
CONTINUOUS
100
AcDbLine
 10
401.0578436664198
 20
239.82610681673
 30
0.0
 11
394.0578436664198
 21
239.82610681673
 31
0.0
  0
LWPOLYLINE
  5
3A8
330
18
100
AcDbEntity
  8
LEVEL001
  6
CONTINUOUS
100
AcDbPolyline
 90
        4
 70
     1
 43
0.0
 10
401.0578436664198
 20
256.3713750699299
 10
394.0578436664198
 20
256.3713750699299
 10
401.0578436664198
 20
245.28083856352
 10
394.0578436664198
 20
245.28083856352
  0
LINE
  5
3A9
330
18
100
AcDbEntity
  8
LEVEL001
  6
CONTINUOUS
100
AcDbLine
 10
404.0578436664199
 20
257.8261068167297
 30
0.0
 11
404.0578436664199
 21
243.8261068167299
 31
0.0
  0
LINE
  5
3AA
330
18
100
AcDbEntity
  8
LEVEL001
  6
CONTINUOUS
100
AcDbLine
 10
404.0578436664199
 20
256.8261068167298
 30
0.0
 11
402.3257928587899
 21
257.8261068167297
 31
0.0
  0
LINE
  5
3AB
330
18
100
AcDbEntity
  8
LEVEL001
  6
CONTINUOUS
100
AcDbLine
 10
404.0578436664199
 20
244.8261068167298
 30
0.0
 11
402.3257928587899
 21
243.8261068167299
 31
0.0
  0
LWPOLYLINE
  5
3AC
330
18
100
AcDbEntity
  8
LEVEL001
  6
CONTINUOUS
100
AcDbPolyline
 90
        4
 70
     0
 43
0.0
 10
422.5578436664198
 20
243.8261068167299
 10
401.0578436664198
 20
243.8261068167299
 10
401.0578436664198
 20
257.8261068167297
 10
422.5578436664198
 20
257.8261068167297
  0
LINE
  5
3AD
330
18
100
AcDbEntity
  8
LEVEL001
  6
CONTINUOUS
100
AcDbLine
 10
423.5578436664199
 20
256.8261068167298
 30
0.0
 11
404.0578436664199
 21
256.8261068167298
 31
0.0
  0
LINE
  5
3AE
330
18
100
AcDbEntity
  8
LEVEL001
  6
CONTINUOUS
100
AcDbLine
 10
404.0578436664199
 20
244.8261068167298
 30
0.0
 11
423.5578436664199
 21
244.8261068167298
 31
0.0
  0
LINE
  5
3AF
330
18
100
AcDbEntity
  8
LEVEL001
  6
DASHDOT
100
AcDbLine
 10
425.3021828583599
 20
250.8261068167298
 30
0.0
 11
163.3521230674699
 21
250.8261068167298
 31
0.0
  0
LINE
  5
3B0
330
18
100
AcDbEntity
  8
LEVEL001
  6
CONTINUOUS
100
AcDbLine
 10
424.0578436664199
 20
245.3261068167297
 30
0.0
 11
422.5578436664198
 21
243.8261068167299
 31
0.0
  0
LINE
  5
3B1
330
18
100
AcDbEntity
  8
LEVEL001
  6
CONTINUOUS
100
AcDbLine
 10
424.0578436664199
 20
256.3261068167298
 30
0.0
 11
424.0578436664199
 21
245.3261068167297
 31
0.0
  0
LINE
  5
3B2
330
18
100
AcDbEntity
  8
LEVEL001
  6
CONTINUOUS
100
AcDbLine
 10
424.0578436664199
 20
256.3261068167298
 30
0.0
 11
424.0578436664199
 21
245.2791014329
 31
0.0
  0
LINE
  5
3B3
330
18
100
AcDbEntity
  8
LEVEL001
  6
CONTINUOUS
100
AcDbLine
 10
422.5578436664198
 20
257.8261068167297
 30
0.0
 11
424.0578436664199
 21
256.3261068167298
 31
0.0
  0
LINE
  5
3B4
330
18
100
AcDbEntity
  8
LEVEL001
  6
CONTINUOUS
100
AcDbLine
 10
422.5578436664198
 20
243.8261068167299
 30
0.0
 11
422.5578436664198
 21
257.8261068167297
 31
0.0
  0
DIMENSION
  5
3B5
330
18
100
AcDbEntity
  8
LEVEL001
  6
CONTINUOUS
100
AcDbDimension
  2
*D51
 10
444.0578436664199
 20
239.82610681673
 30
0.0
 11
444.0578436664199
 21
247.9825721153798
 31
0.0
 70
   160
  3
GMM008
100
AcDbAlignedDimension
 13
401.0578436664198
 23
261.8261068167297
 33
0.0
 14
401.0578436664198
 24
239.82610681673
 34
0.0
 50
270.0
100
AcDbRotatedDimension
  0
TEXT
  5
3B6
330
18
100
AcDbEntity
  8
LEVEL001
100
AcDbText
 10
452.69171092977
 20
258.5792533268399
 30
0.0
 40
2.657204999999998
  1
－０.０２
 50
90.0
 41
0.77777777777778
100
AcDbText
  0
TEXT
  5
3B7
330
18
100
AcDbEntity
  8
LEVEL001
100
AcDbText
 10
455.66609778657
 20
258.5792533268399
 30
0.0
 40
2.657204999999998
  1
－０.０４
 50
90.0
 41
0.77777777777778
100
AcDbText
  0
DIMENSION
  5
3B8
330
18
100
AcDbEntity
  8
LEVEL001
  6
CONTINUOUS
100
AcDbDimension
  2
*D46
 10
424.0578436664199
 20
201.82610681673
 30
0.0
 11
414.0578436664198
 21
205.9511068167299
 31
0.0
 70
    32
  3
GMM003
100
AcDbAlignedDimension
 13
404.0578436664199
 23
243.8261068167299
 33
0.0
 14
424.0578436664199
 24
245.2791014329
 34
0.0
100
AcDbRotatedDimension
  0
DIMENSION
  5
3B9
330
18
100
AcDbEntity
  8
LEVEL001
  6
CONTINUOUS
100
AcDbDimension
  2
*D45
 10
401.0578436664198
 20
186.8261068167297
 30
0.0
 11
397.5578436664198
 21
190.9511068167297
 31
0.0
 70
    32
  3
GMM003
100
AcDbAlignedDimension
 13
394.0578436664198
 23
239.82610681673
 33
0.0
 14
401.0578436664198
 24
239.82610681673
 34
0.0
100
AcDbRotatedDimension
  0
DIMENSION
  5
3BA
330
18
100
AcDbEntity
  8
LEVEL001
  6
CONTINUOUS
100
AcDbDimension
  2
*D44
 10
424.0578436664199
 20
186.8261068167297
 30
0.0
 11
412.5578436664198
 21
190.9511068167297
 31
0.0
 70
    32
  3
GMM003
100
AcDbAlignedDimension
 13
401.0578436664198
 23
239.82610681673
 33
0.0
 14
424.0578436664199
 24
245.2791014329
 34
0.0
100
AcDbRotatedDimension
  0
DIMENSION
  5
3BB
330
18
100
AcDbEntity
  8
LEVEL001
  6
CONTINUOUS
100
AcDbDimension
  2
*D48
 10
386.0578436664198
 20
201.82610681673
 30
0.0
 11
381.0578436664199
 21
205.9511068167299
 31
0.0
 70
    32
  3
GMM003
100
AcDbAlignedDimension
 13
376.0578436664199
 23
221.8261068167298
 33
0.0
 14
386.0578436664198
 24
221.8261068167298
 34
0.0
100
AcDbRotatedDimension
  0
DIMENSION
  5
3BC
330
18
100
AcDbEntity
  8
LEVEL001
  6
CONTINUOUS
100
AcDbDimension
  2
*D36
 10
386.0578436664198
 20
171.82610681673
 30
0.0
 11
266.55784366642
 21
175.95110681673
 31
0.0
 70
    32
  1
\A1;L
  3
GMM002
100
AcDbAlignedDimension
 13
147.05784366642
 23
227.32610681673
 33
0.0
 14
386.0578436664198
 24
221.8261068167298
 34
0.0
100
AcDbRotatedDimension
  0
DIMENSION
  5
3BD
330
18
100
AcDbEntity
  8
LEVEL001
  6
CONTINUOUS
100
AcDbDimension
  2
*D47
 10
389.0578436664199
 20
171.82610681673
 30
0.0
 11
394.5578436664199
 21
175.95110681673
 31
0.0
 70
    32
  3
GMM009
100
AcDbAlignedDimension
 13
386.0578436664198
 23
221.8261068167298
 33
0.0
 14
389.0578436664199
 24
233.3261068167299
 34
0.0
100
AcDbRotatedDimension
  0
DIMENSION
  5
3BE
330
18
100
AcDbEntity
  8
LEVEL001
  6
CONTINUOUS
100
AcDbDimension
  2
*D43
 10
424.0578436664199
 20
171.82610681673
 30
0.0
 11
406.5578436664199
 21
175.95110681673
 31
0.0
 70
    32
  3
GMM003
100
AcDbAlignedDimension
 13
389.0578436664199
 23
233.3261068167299
 33
0.0
 14
424.0578436664199
 24
245.2791014329
 34
0.0
100
AcDbRotatedDimension
  0
TEXT
  5
3BF
330
18
100
AcDbEntity
  8
LEVEL255
100
AcDbText
 10
476.00453542323
 20
56.130621534036
 30
0.0
 40
5.25
  1
０３/０６/１７
 41
0.9
100
AcDbText
  0
LEADER
  5
3C0
330
18
100
AcDbEntity
  8
LEVEL001
  6
CONTINUOUS
100
AcDbLeader
  3
GMM004
 73
     0
 74
     0
 75
     1
 40
6.75
 41
44.10000000000013
 76
     3
 10
409.40923820881
 20
257.8261068167297
 30
0.0
 10
417.90349108238
 20
287.8840450574698
 30
0.0
 10
420.90349108238
 20
287.8840450574698
 30
0.0
340
3C1
213
0.0
223
-0.75
233
0.0
1001
ACAD
1000
DSTYLE
1002
{
1070
     6
1000
OPEN30
1070
   343
1005
66
1002
}
1000
LEANOF
1010
0.0
1020
-0.75
1030
0.0
1000
LEANOF
1010
0.0
1020
-0.75
1030
0.0
  0
MTEXT
  5
3C1
330
18
100
AcDbEntity
  8
LEVEL001
100
AcDbMText
 10
420.90349108238
 20
288.63404505747
 30
0.0
 40
6.75
 41
0.0
 71
     7
 72
     5
  1
\A1;Ｍ１４×Ｐ１.５
  7
GMM001
1001
ACAD
1000
MTEXTBEGIN
1070
    73
1070
     1
1070
    44
1040
1.0
1070
    74
1070
     0
1000
MTEXTEND
1000
MTEXTBEGIN
1070
    73
1070
     1
1070
    44
1040
1.0
1070
    74
1070
     0
1000
MTEXTEND
1000
MTEXTBEGIN
1070
    73
1070
     1
1070
    44
1040
1.0
1070
    74
1070
     0
1000
MTEXTEND
  0
LEADER
  5
3C2
330
18
100
AcDbEntity
  8
LEVEL001
  6
CONTINUOUS
100
AcDbLeader
  3
GMM004
 73
     0
 74
     0
 75
     1
 40
6.75
 41
60.90000000000022
 76
     3
 10
396.7400172637297
 20
256.3713750699299
 30
0.0
 10
412.9992765229898
 20
306.8878764750998
 30
0.0
 10
415.9992765229898
 20
306.8878764750998
 30
0.0
340
3C3
213
0.0
223
-0.75
233
0.0
1001
ACAD
1000
DSTYLE
1002
{
1070
     6
1000
OPEN30
1070
   343
1005
66
1002
}
1000
LEANOF
1010
0.0
1020
-0.75
1030
0.0
1000
LEANOF
1010
0.0
1020
-0.75
1030
0.0
  0
MTEXT
  5
3C3
330
18
100
AcDbEntity
  8
LEVEL001
100
AcDbMText
 10
415.9992765229898
 20
307.6378764750998
 30
0.0
 40
6.75
 41
0.0
 71
     7
 72
     5
  1
\A1;スパナ掛け２面幅１９
  7
GMM001
1001
ACAD
1000
MTEXTBEGIN
1070
    73
1070
     1
1070
    44
1040
1.0
1070
    74
1070
     0
1000
MTEXTEND
1000
MTEXTBEGIN
1070
    73
1070
     1
1070
    44
1040
1.0
1070
    74
1070
     0
1000
MTEXTEND
1000
MTEXTBEGIN
1070
    73
1070
     1
1070
    44
1040
1.0
1070
    74
1070
     0
1000
MTEXTEND
  0
TEXT
  5
3C4
330
18
100
AcDbEntity
  8
LEVEL001
100
AcDbText
 10
421.2959368922899
 20
280.2360215240499
 30
0.0
 40
6.75
  1
ＳＵＳネジ
 41
0.77777777777778
100
AcDbText
  0
TEXT
  5
3C5
330
18
100
AcDbEntity
  8
LEVEL255
100
AcDbText
 10
469.9606865179298
 20
16.8788118
 30
0.0
 40
7.5
  1
ＳＣＮ６－２０５０-Ａ
 41
0.9
100
AcDbText
  0
LINE
  5
3C6
330
18
100
AcDbEntity
  8
LEVEL001
  6
CONTINUOUS
100
AcDbLine
 10
507.1085205
 20
90.37881179999999
 30
0.0
 11
507.1085205
 21
72.37881179999998
 31
0.0
  0
TEXT
  5
3C7
330
18
100
AcDbEntity
  8
LEVEL255
100
AcDbText
 10
520.2217014826
 20
74.25381179999998
 30
0.0
 40
5.25
  1
一部修正
 41
0.9
100
AcDbText
  0
TEXT
  5
3C8
330
18
100
AcDbEntity
  8
LEVEL255
100
AcDbText
 10
557.9467014826
 20
74.25381179999998
 30
0.0
 40
5.25
  1
藤田
 41
0.9
100
AcDbText
  0
TEXT
  5
3C9
330
18
100
AcDbEntity
  8
LEVEL255
100
AcDbText
 10
482.6585204999998
 20
74.25381179999998
 30
0.0
 40
5.25
  1
03/06/17
 41
0.45
100
AcDbText
  0
TEXT
  5
3CA
330
18
100
AcDbEntity
  8
LEVEL255
100
AcDbText
 10
481.3642748420598
 20
73.969165594017
 30
0.0
 40
5.25
  1
’
 41
1.08
100
AcDbText
  0
TEXT
  5
3CB
330
18
100
AcDbEntity
  8
LEVEL255
100
AcDbText
 10
462.6794033532599
 20
74.51629067663801
 30
0.0
 40
5.25
  1
Ａ
 41
0.9
100
AcDbText
  0
ARC
  5
740
330
18
100
AcDbEntity
  8
LEVEL001
  6
CONTINUOUS
100
AcDbCircle
 10
200.1339546664198
 20
276.0062138167298
 30
0.0
 40
1.190139999999997
100
AcDbArc
 50
320.927177794356
 51
345.9317181457041
  0
ARC
  5
741
330
18
100
AcDbEntity
  8
LEVEL001
  6
CONTINUOUS
100
AcDbCircle
 10
200.13425966642
 20
272.78523681673
 30
0.0
 40
1.190170999999998
100
AcDbArc
 50
14.11462790686992
 51
39.11058811222934
  0
ARC
  5
742
330
18
100
AcDbEntity
  8
LEVEL001
  6
CONTINUOUS
100
AcDbCircle
 10
199.5685556664199
 20
274.3962598167298
 30
0.0
 40
1.720000999999999
100
AcDbArc
 50
329.9934754111092
 51
29.99769638630905
  0
LWPOLYLINE
  5
743
330
18
100
AcDbEntity
  8
LEVEL001
  6
CONTINUOUS
100
AcDbPolyline
 90
        5
 70
     0
 43
0.0
 10
199.0579966664199
 20
272.67613581673
 10
201.05787466642
 20
272.67613581673
 10
202.0509166664198
 20
274.3961068167299
 10
201.05787466642
 20
276.1162298167298
 10
199.0579966664199
 20
276.1162298167298
  0
LINE
  5
744
330
18
100
AcDbEntity
  8
LEVEL001
  6
CONTINUOUS
100
AcDbLine
 10
199.0579966664199
 20
275.2560918167298
 30
0.0
 11
201.05787466642
 21
275.2560918167298
 31
0.0
  0
LINE
  5
745
330
18
100
AcDbEntity
  8
LEVEL001
  6
CONTINUOUS
100
AcDbLine
 10
199.0579966664199
 20
273.5361218167299
 30
0.0
 11
201.05787466642
 21
273.5361218167299
 31
0.0
  0
LWPOLYLINE
  5
746
330
18
100
AcDbEntity
  8
LEVEL001
  6
CONTINUOUS
 62
     7
100
AcDbPolyline
 90
        4
 70
     1
 43
0.0
 10
199.0579966664199
 20
277.8961068167299
 10
199.0579966664199
 20
270.8961068167299
 10
203.05799666642
 20
270.8961068167299
 10
203.05799666642
 20
277.8961068167299
  0
ARC
  5
747
330
18
100
AcDbEntity
  8
LEVEL001
  6
CONTINUOUS
100
AcDbCircle
 10
200.1339546664198
 20
225.6459998167299
 30
0.0
 40
1.190139999999997
100
AcDbArc
 50
14.06828185429726
 51
39.07282220564528
  0
ARC
  5
748
330
18
100
AcDbEntity
  8
LEVEL001
  6
CONTINUOUS
100
AcDbCircle
 10
200.13425966642
 20
228.8669768167299
 30
0.0
 40
1.190170999999998
100
AcDbArc
 50
320.8894118877706
 51
345.8853720931299
  0
ARC
  5
749
330
18
100
AcDbEntity
  8
LEVEL001
  6
CONTINUOUS
100
AcDbCircle
 10
199.5685556664199
 20
227.2559538167298
 30
0.0
 40
1.720000999999999
100
AcDbArc
 50
330.0023036136895
 51
30.00652458889218
  0
LWPOLYLINE
  5
74A
330
18
100
AcDbEntity
  8
LEVEL001
  6
CONTINUOUS
100
AcDbPolyline
 90
        5
 70
     0
 43
0.0
 10
199.0579966664199
 20
228.9760778167297
 10
201.05787466642
 20
228.9760778167297
 10
202.0509166664198
 20
227.2561068167298
 10
201.05787466642
 20
225.5359838167298
 10
199.0579966664199
 20
225.5359838167298
  0
LINE
  5
74B
330
18
100
AcDbEntity
  8
LEVEL001
  6
CONTINUOUS
100
AcDbLine
 10
199.0579966664199
 20
226.3961218167299
 30
0.0
 11
201.05787466642
 21
226.3961218167299
 31
0.0
  0
LINE
  5
74C
330
18
100
AcDbEntity
  8
LEVEL001
  6
CONTINUOUS
100
AcDbLine
 10
199.0579966664199
 20
228.1160918167298
 30
0.0
 11
201.05787466642
 21
228.1160918167298
 31
0.0
  0
LWPOLYLINE
  5
74D
330
18
100
AcDbEntity
  8
LEVEL001
  6
CONTINUOUS
 62
     7
100
AcDbPolyline
 90
        4
 70
     1
 43
0.0
 10
199.0579966664199
 20
223.7561068167298
 10
199.0579966664199
 20
230.7561068167299
 10
203.05799666642
 20
230.7561068167299
 10
203.05799666642
 20
223.7561068167298
  0
TEXT
  5
7EC
330
18
100
AcDbEntity
  8
LEVEL255
100
AcDbText
 10
463.7047449184216
 20
83.94305027485014
 30
0.0
 40
3.5
  1
B
 41
0.9
100
AcDbText
  0
TEXT
  5
7ED
330
18
100
AcDbEntity
  8
LEVEL255
100
AcDbText
 10
482.6585204999998
 20
83.25381179999999
 30
0.0
 40
5.25
  1
05/02/01
 41
0.45
100
AcDbText
  0
TEXT
  5
7EE
330
18
100
AcDbEntity
  8
LEVEL255
100
AcDbText
 10
520.2217014826
 20
83.25381179999999
 30
0.0
 40
5.25
  1
一部修正
 41
0.9
100
AcDbText
  0
LWPOLYLINE
  5
7EF
330
18
100
AcDbEntity
  8
0
  6
CONTINUOUS
100
AcDbPolyline
 90
        3
 70
     1
 43
0.0
 10
464.9080057894016
 20
80.43974589479693
 10
461.433906938747
 20
74.4224301749465
 10
468.3821046400561
 20
74.4224301749465
  0
LWPOLYLINE
  5
7F0
330
18
100
AcDbEntity
  8
0
  6
CONTINUOUS
100
AcDbPolyline
 90
        3
 70
     1
 43
0.0
 10
464.9080057894016
 20
89.52973304474165
 10
461.433906938747
 20
83.51241732489119
 10
468.3821046400561
 20
83.51241732489119
  0
LEADER
  5
7F5
330
18
100
AcDbEntity
  8
LEVEL001
  6
CONTINUOUS
100
AcDbLeader
  3
GMM009
 73
     0
 40
18.0
 41
3.150000000000008
 76
     3
 10
61.32183702585482
 20
231.4478756564283
 30
0.0
 10
38.33606207223692
 20
184.9987099852489
 30
0.0
 10
85.96428968152258
 20
184.9987099852489
 30
0.0
340
7F6
213
-9.615089157111015
223
-3.375
233
0.0
1001
ACAD
1000
DSTYLE
1002
{
1070
     6
1000
OPEN30
1070
    41
1040
5.0
1070
    77
1070
     0
1070
   147
1040
0.75
1070
   341
1005
66
1070
   343
1005
66
1002
}
1000
LEANOF
1010
-9.615089157111015
1020
-3.375
1030
0.0
  0
MTEXT
  5
7F6
330
18
100
AcDbEntity
  8
LEVEL001
  6
CONTINUOUS
100
AcDbMText
 10
96.32937883863359
 20
188.3737099852489
 30
0.0
 40
6.75
 41
0.75
 71
     1
 72
     5
  1
 
  7
GMM001
1001
ACAD
1000
MTEXTBEGIN
1070
    73
1070
     1
1070
    44
1040
1.0
1070
    74
1070
     0
1000
MTEXTEND
1000
MTEXTBEGIN
1070
    73
1070
     1
1070
    44
1040
1.0
1070
    74
1070
     0
1000
MTEXTEND
  0
MTEXT
  5
7F7
330
18
100
AcDbEntity
  8
LEVEL001
100
AcDbMText
 10
38.09426962097308
 20
154.255038887816
 30
0.0
 40
6.75
 41
0.0
 71
     7
 72
     5
  1
カバー側のフート金具は、\P2つの取付け穴に\P取付けて下さい。
  7
GMM001
1001
ACAD
1000
MTEXTBEGIN
1070
    73
1070
     1
1070
    44
1040
1.0
1070
    74
1070
     0
1000
MTEXTEND
1000
MTEXTBEGIN
1070
    73
1070
     1
1070
    44
1040
1.0
1070
    74
1070
     0
1000
MTEXTEND
1000
MTEXTBEGIN
1070
    73
1070
     1
1070
    44
1040
1.0
1070
    74
1070
     0
1000
MTEXTEND
  0
LINE
  5
7F8
330
18
100
AcDbEntity
  8
LEVEL001
  6
CONTINUOUS
100
AcDbLine
 10
207.8484447448011
 20
157.3879313741041
 30
0.0
 11
207.8484447448011
 21
101.3879313741041
 31
0.0
  0
LINE
  5
7F9
330
18
100
AcDbEntity
  8
LEVEL001
  6
CONTINUOUS
100
AcDbLine
 10
321.1626356178469
 20
109.3879313741041
 30
0.0
 11
423.8298250427154
 21
109.3879313741041
 31
0.0
  0
LINE
  5
7FA
330
18
100
AcDbEntity
  8
LEVEL001
  6
CONTINUOUS
100
AcDbLine
 10
321.1626356178469
 20
117.3879313741039
 30
0.0
 11
423.8298250427154
 21
117.387931374104
 31
0.0
  0
LINE
  5
7FB
330
18
100
AcDbEntity
  8
LEVEL001
  6
CONTINUOUS
100
AcDbLine
 10
321.1626356178469
 20
125.3879313741041
 30
0.0
 11
423.8298250427154
 21
125.3879313741041
 31
0.0
  0
LINE
  5
7FC
330
18
100
AcDbEntity
  8
LEVEL001
  6
CONTINUOUS
100
AcDbLine
 10
321.1626356178469
 20
133.387931374104
 30
0.0
 11
423.8298250427154
 21
133.3879313741041
 31
0.0
  0
LINE
  5
7FD
330
18
100
AcDbEntity
  8
LEVEL001
  6
CONTINUOUS
100
AcDbLine
 10
321.1626356178469
 20
141.3879313741041
 30
0.0
 11
423.8298250427154
 21
141.3879313741041
 31
0.0
  0
LINE
  5
7FE
330
18
100
AcDbEntity
  8
LEVEL001
  6
CONTINUOUS
100
AcDbLine
 10
321.1626356178469
 20
149.3879313741041
 30
0.0
 11
423.8298250427154
 21
149.3879313741041
 31
0.0
  0
LWPOLYLINE
  5
7FF
330
18
100
AcDbEntity
  8
LEVEL001
  6
CONTINUOUS
100
AcDbPolyline
 90
        4
 70
     0
 43
0.0
 10
207.8484447448011
 20
157.3879313741041
 10
105.1918593798484
 20
157.3879313741041
 10
105.1918593798484
 20
101.3879313741041
 10
207.8484447448011
 20
101.3879313741041
  0
LWPOLYLINE
  5
889
330
18
100
AcDbEntity
  8
LEVEL001
  6
CONTINUOUS
100
AcDbPolyline
 90
        4
 70
     1
 43
0.0
 10
423.8298250427154
 20
157.3879313741041
 10
430.4869204792383
 20
157.3879313741041
 10
430.4869204792383
 20
149.3879313741041
 10
423.8298250427154
 20
149.3879313741041
  0
LWPOLYLINE
  5
88A
330
18
100
AcDbEntity
  8
LEVEL001
  6
CONTINUOUS
100
AcDbPolyline
 90
        4
 70
     1
 43
0.0
 10
314.5055401813241
 20
157.3879313741041
 10
321.1626356178469
 20
157.3879313741041
 10
321.1626356178469
 20
149.3879313741041
 10
314.5055401813241
 20
149.3879313741041
  0
TEXT
  5
8A6
330
18
100
AcDbEntity
  8
LEVEL001
100
AcDbText
 10
296.6305401813242
 20
150.0129313741041
 30
0.0
 40
6.75
  1
Ｌ寸法
 41
0.7
100
AcDbText
  0
TEXT
  5
8A7
330
18
100
AcDbEntity
  8
LEVEL001
100
AcDbText
 10
296.6305401813242
 20
134.012931374104
 30
0.0
 40
6.75
  1
２７３
 41
0.7
100
AcDbText
  0
TEXT
  5
8A8
330
18
100
AcDbEntity
  8
LEVEL001
100
AcDbText
 10
296.6305401813242
 20
142.0129313741041
 30
0.0
 40
6.75
  1
２２３
 41
0.7
100
AcDbText
  0
TEXT
  5
8A9
330
18
100
AcDbEntity
  8
LEVEL001
100
AcDbText
 10
296.6305401813242
 20
118.0129313741041
 30
0.0
 40
6.75
  1
３７３
 41
0.7
100
AcDbText
  0
TEXT
  5
8AA
330
18
100
AcDbEntity
  8
LEVEL001
100
AcDbText
 10
296.6305401813242
 20
110.012931374104
 30
0.0
 40
6.75
  1
４２３
 41
0.7
100
AcDbText
  0
TEXT
  5
8AB
330
18
100
AcDbEntity
  8
LEVEL001
100
AcDbText
 10
296.6305401813242
 20
102.0129313741041
 30
0.0
 40
6.75
  1
４７３
 41
0.7
100
AcDbText
  0
TEXT
  5
8AC
330
18
100
AcDbEntity
  8
LEVEL001
100
AcDbText
 10
296.6305401813242
 20
126.0129313741041
 30
0.0
 40
6.75
  1
３２３
 41
0.7
100
AcDbText
  0
LINE
  5
8AD
330
18
100
AcDbEntity
  8
LEVEL001
  6
CONTINUOUS
100
AcDbLine
 10
214.5055401813239
 20
149.3879313741041
 30
0.0
 11
314.5055401813241
 21
149.3879313741041
 31
0.0
  0
LINE
  5
8AE
330
18
100
AcDbEntity
  8
LEVEL001
  6
CONTINUOUS
100
AcDbLine
 10
214.5055401813239
 20
141.387931374104
 30
0.0
 11
314.5055401813241
 21
141.3879313741041
 31
0.0
  0
LINE
  5
8AF
330
18
100
AcDbEntity
  8
LEVEL001
  6
CONTINUOUS
100
AcDbLine
 10
214.5055401813239
 20
133.387931374104
 30
0.0
 11
314.5055401813241
 21
133.3879313741041
 31
0.0
  0
LINE
  5
8B0
330
18
100
AcDbEntity
  8
LEVEL001
  6
CONTINUOUS
100
AcDbLine
 10
214.5055401813239
 20
125.3879313741041
 30
0.0
 11
314.5055401813241
 21
125.3879313741041
 31
0.0
  0
LINE
  5
8B1
330
18
100
AcDbEntity
  8
LEVEL001
  6
CONTINUOUS
100
AcDbLine
 10
214.5055401813239
 20
117.387931374104
 30
0.0
 11
314.5055401813241
 21
117.387931374104
 31
0.0
  0
LINE
  5
8B2
330
18
100
AcDbEntity
  8
LEVEL001
  6
CONTINUOUS
100
AcDbLine
 10
214.5055401813239
 20
109.3879313741041
 30
0.0
 11
314.5055401813241
 21
109.3879313741041
 31
0.0
  0
LWPOLYLINE
  5
8B3
330
18
100
AcDbEntity
  8
LEVEL001
  6
CONTINUOUS
100
AcDbPolyline
 90
        4
 70
     0
 43
0.0
 10
214.5055401813239
 20
101.3879313741041
 10
314.5055401813241
 20
101.3879313741041
 10
314.5055401813241
 20
157.3879313741041
 10
214.5055401813239
 20
157.3879313741041
  0
LINE
  5
8B4
330
18
100
AcDbEntity
  8
LEVEL001
  6
CONTINUOUS
100
AcDbLine
 10
294.5055401813242
 20
157.3879313741041
 30
0.0
 11
294.5055401813242
 21
101.3879313741041
 31
0.0
  0
TEXT
  5
8B5
330
18
100
AcDbEntity
  8
LEVEL001
100
AcDbText
 10
249.2555401813239
 20
150.0129313741041
 30
0.0
 40
6.75
  1
型番
 41
0.77777777777778
100
AcDbText
  0
LINE
  5
8B6
330
18
100
AcDbEntity
  8
LEVEL001
  6
CONTINUOUS
100
AcDbLine
 10
214.5055401813239
 20
157.3879313741041
 30
0.0
 11
214.5055401813239
 21
101.3879313741041
 31
0.0
  0
TEXT
  5
8B7
330
18
100
AcDbEntity
  8
LEVEL001
100
AcDbText
 10
217.7555401813239
 20
142.0129313741041
 30
0.0
 40
6.75
  1
ＳＣＮ６－０４０－０５０－Ｂ
 41
0.65
100
AcDbText
  0
TEXT
  5
8B8
330
18
100
AcDbEntity
  8
LEVEL001
100
AcDbText
 10
217.7555401813239
 20
134.012931374104
 30
0.0
 40
6.75
  1
ＳＣＮ６－０４０－１００－Ｂ
 41
0.65
100
AcDbText
  0
TEXT
  5
8B9
330
18
100
AcDbEntity
  8
LEVEL001
100
AcDbText
 10
217.7555401813239
 20
126.0129313741041
 30
0.0
 40
6.75
  1
ＳＣＮ６－０４０－１５０－Ｂ
 41
0.65
100
AcDbText
  0
TEXT
  5
8BA
330
18
100
AcDbEntity
  8
LEVEL001
100
AcDbText
 10
217.7555401813239
 20
118.0129313741041
 30
0.0
 40
6.75
  1
ＳＣＮ６－０４０－２００－Ｂ
 41
0.65
100
AcDbText
  0
TEXT
  5
8BB
330
18
100
AcDbEntity
  8
LEVEL001
100
AcDbText
 10
217.7555401813239
 20
110.012931374104
 30
0.0
 40
6.75
  1
ＳＣＮ６－０４０－２５０－Ｂ
 41
0.65
100
AcDbText
  0
TEXT
  5
8BC
330
18
100
AcDbEntity
  8
LEVEL001
100
AcDbText
 10
217.7555401813239
 20
102.0129313741041
 30
0.0
 40
6.75
  1
ＳＣＮ６－０４０－３００－Ｂ
 41
0.65
100
AcDbText
  0
LWPOLYLINE
  5
8BE
330
18
100
AcDbEntity
  8
LEVEL001
  6
CONTINUOUS
100
AcDbPolyline
 90
        4
 70
     1
 43
0.0
 10
207.8484447448011
 20
157.3879313741041
 10
214.5055401813239
 20
157.3879313741041
 10
214.5055401813239
 20
149.3879313741041
 10
207.8484447448011
 20
149.3879313741041
  0
LWPOLYLINE
  5
8DE
330
18
100
AcDbEntity
  8
LEVEL001
  6
CONTINUOUS
100
AcDbPolyline
 90
        4
 70
     0
 43
0.0
 10
430.4869204792383
 20
101.3879313741041
 10
530.4869204792384
 20
101.3879313741041
 10
530.4869204792384
 20
157.3879313741041
 10
430.4869204792383
 20
157.3879313741041
  0
LINE
  5
8DF
330
18
100
AcDbEntity
  8
LEVEL001
  6
CONTINUOUS
100
AcDbLine
 10
430.4869204792383
 20
109.3879313741041
 30
0.0
 11
530.4869204792384
 21
109.3879313741041
 31
0.0
  0
LINE
  5
8E0
330
18
100
AcDbEntity
  8
LEVEL001
  6
CONTINUOUS
100
AcDbLine
 10
430.4869204792383
 20
117.387931374104
 30
0.0
 11
530.4869204792384
 21
117.387931374104
 31
0.0
  0
LINE
  5
8E1
330
18
100
AcDbEntity
  8
LEVEL001
  6
CONTINUOUS
100
AcDbLine
 10
430.4869204792383
 20
125.3879313741041
 30
0.0
 11
530.4869204792384
 21
125.3879313741041
 31
0.0
  0
LINE
  5
8E2
330
18
100
AcDbEntity
  8
LEVEL001
  6
CONTINUOUS
100
AcDbLine
 10
430.4869204792383
 20
133.387931374104
 30
0.0
 11
530.4869204792384
 21
133.3879313741041
 31
0.0
  0
LINE
  5
8E3
330
18
100
AcDbEntity
  8
LEVEL001
  6
CONTINUOUS
100
AcDbLine
 10
430.4869204792383
 20
141.387931374104
 30
0.0
 11
530.4869204792384
 21
141.3879313741041
 31
0.0
  0
LINE
  5
8E4
330
18
100
AcDbEntity
  8
LEVEL001
  6
CONTINUOUS
100
AcDbLine
 10
430.4869204792383
 20
149.3879313741041
 30
0.0
 11
530.4869204792384
 21
149.3879313741041
 31
0.0
  0
TEXT
  5
8E5
330
18
100
AcDbEntity
  8
LEVEL001
100
AcDbText
 10
433.7369204792383
 20
102.0129313741041
 30
0.0
 40
6.75
  1
ＳＣＮ６－０６０－３００－Ｂ
 41
0.65
100
AcDbText
  0
TEXT
  5
8E6
330
18
100
AcDbEntity
  8
LEVEL001
100
AcDbText
 10
433.7369204792383
 20
110.012931374104
 30
0.0
 40
6.75
  1
ＳＣＮ６－０６０－２５０－Ｂ
 41
0.65
100
AcDbText
  0
TEXT
  5
8E7
330
18
100
AcDbEntity
  8
LEVEL001
100
AcDbText
 10
433.7369204792383
 20
118.0129313741041
 30
0.0
 40
6.75
  1
ＳＣＮ６－０６０－２００－Ｂ
 41
0.65
100
AcDbText
  0
TEXT
  5
8E8
330
18
100
AcDbEntity
  8
LEVEL001
100
AcDbText
 10
433.7369204792383
 20
126.0129313741041
 30
0.0
 40
6.75
  1
ＳＣＮ６－０６０－１５０－Ｂ
 41
0.65
100
AcDbText
  0
TEXT
  5
8E9
330
18
100
AcDbEntity
  8
LEVEL001
100
AcDbText
 10
433.7369204792383
 20
134.012931374104
 30
0.0
 40
6.75
  1
ＳＣＮ６－０６０－１００－Ｂ
 41
0.65
100
AcDbText
  0
TEXT
  5
8EA
330
18
100
AcDbEntity
  8
LEVEL001
100
AcDbText
 10
433.7369204792383
 20
142.0129313741041
 30
0.0
 40
6.75
  1
ＳＣＮ６－０６０－０５０－Ｂ
 41
0.65
100
AcDbText
  0
LINE
  5
8EB
330
18
100
AcDbEntity
  8
LEVEL001
  6
CONTINUOUS
100
AcDbLine
 10
430.4869204792383
 20
157.3879313741041
 30
0.0
 11
430.4869204792383
 21
101.3879313741041
 31
0.0
  0
TEXT
  5
8EC
330
18
100
AcDbEntity
  8
LEVEL001
100
AcDbText
 10
465.2369204792383
 20
150.0129313741041
 30
0.0
 40
6.75
  1
型番
 41
0.77777777777778
100
AcDbText
  0
LINE
  5
8ED
330
18
100
AcDbEntity
  8
LEVEL001
  6
CONTINUOUS
100
AcDbLine
 10
510.4869204792386
 20
157.3879313741041
 30
0.0
 11
510.4869204792386
 21
101.3879313741041
 31
0.0
  0
TEXT
  5
8EE
330
18
100
AcDbEntity
  8
LEVEL001
100
AcDbText
 10
512.6119204792384
 20
150.0129313741041
 30
0.0
 40
6.75
  1
Ｌ寸法
 41
0.7
100
AcDbText
  0
TEXT
  5
8EF
330
18
100
AcDbEntity
  8
LEVEL001
100
AcDbText
 10
512.6119204792384
 20
118.0129313741041
 30
0.0
 40
6.75
  1
３７３
 41
0.7
100
AcDbText
  0
TEXT
  5
8F0
330
18
100
AcDbEntity
  8
LEVEL001
100
AcDbText
 10
512.6119204792384
 20
102.0129313741041
 30
0.0
 40
6.75
  1
４７３
 41
0.7
100
AcDbText
  0
TEXT
  5
8F1
330
18
100
AcDbEntity
  8
LEVEL001
100
AcDbText
 10
512.6119204792384
 20
110.012931374104
 30
0.0
 40
6.75
  1
４２３
 41
0.7
100
AcDbText
  0
TEXT
  5
8F2
330
18
100
AcDbEntity
  8
LEVEL001
100
AcDbText
 10
512.6119204792384
 20
126.0129313741041
 30
0.0
 40
6.75
  1
３２３
 41
0.7
100
AcDbText
  0
TEXT
  5
8F3
330
18
100
AcDbEntity
  8
LEVEL001
100
AcDbText
 10
512.6119204792384
 20
134.012931374104
 30
0.0
 40
6.75
  1
２７３
 41
0.7
100
AcDbText
  0
TEXT
  5
8F4
330
18
100
AcDbEntity
  8
LEVEL001
100
AcDbText
 10
512.6119204792384
 20
142.0129313741041
 30
0.0
 40
6.75
  1
２２３
 41
0.7
100
AcDbText
  0
ENDSEC
  0
SECTION
  2
OBJECTS
  0
DICTIONARY
  5
C
330
0
100
AcDbDictionary
  3
ACAD_GROUP
350
D
  3
ACAD_LAYOUT
350
3D5
  3
ACAD_MLINESTYLE
350
1B
  3
ACAD_PLOTSETTINGS
350
3D6
  3
ACAD_PLOTSTYLENAME
350
884
  3
ACADDIM
350
7F4
  3
ACDBHEADERROUNDTRIPXREC
350
8F7
1001
ACAD
1000
TREAT_AS_HARD
1070
     0
1000
TREAT_AS_HARD
1070
     0
  0
DICTIONARY
  5
751
330
18
100
AcDbDictionary
280
     1
  3
ACAD_LAYOUTSELFREF
360
919
1001
ACAD
1000
TREAT_AS_HARD
1070
     0
  0
DICTIONARY
  5
74F
330
15
100
AcDbDictionary
280
     1
  3
ACAD_LAYOUTSELFREF
360
918
1001
ACAD
1000
TREAT_AS_HARD
1070
     0
  0
DICTIONARY
  5
D
102
{ACAD_REACTORS
330
C
102
}
330
C
100
AcDbDictionary
1001
ACAD
1000
TREAT_AS_HARD
1070
     0
1000
TREAT_AS_HARD
1070
     0
  0
DICTIONARY
  5
3D5
102
{ACAD_REACTORS
330
C
102
}
330
C
100
AcDbDictionary
1001
ACAD
1000
TREAT_AS_HARD
1070
     0
1000
TREAT_AS_HARD
1070
     0
  0
DICTIONARY
  5
1B
102
{ACAD_REACTORS
330
C
102
}
330
C
100
AcDbDictionary
  3
STANDARD
350
1C
1001
ACAD
1000
TREAT_AS_HARD
1070
     0
1000
TREAT_AS_HARD
1070
     0
  0
DICTIONARY
  5
3D6
102
{ACAD_REACTORS
330
C
102
}
330
C
100
AcDbDictionary
1001
ACAD
1000
TREAT_AS_HARD
1070
     0
1000
TREAT_AS_HARD
1070
     0
  0
ACDBDICTIONARYWDFLT
  5
884
102
{ACAD_REACTORS
330
C
102
}
330
C
100
AcDbDictionary
281
     1
  3
Normal
350
885
100
AcDbDictionaryWithDefault
340
885
  0
XRECORD
  5
7F4
102
{ACAD_REACTORS
330
C
102
}
330
C
100
AcDbXrecord
 90
   990106
  3

 60
     0
 61
     0
 62
     1
 63
     3
 64
     0
 65
     0
 66
     0
 67
     3
 68
     1
 69
     0
 70
     0
 71
     0
 72
     0
 40
0.75
170
     0
340
7F6
  0
DICTIONARY
  5
8F7
102
{ACAD_REACTORS
330
C
102
}
330
C
100
AcDbDictionary
  3
CEPSNTYPE
350
901
  3
DIMSTYLEDATA
350
905
  3
FINGERPRINTGUID
350
902
  3
HYPERLINKBASE
350
8FA
  3
INSUNITS
350
900
  3
LAYOUTDICT
350
8FC
  3
LWETCUNION
350
8FF
  3
PLOTSETDICT
350
8FD
  3
PLOTSTYLNAMDICT
350
8FE
  3
PSVPSCALE
350
904
  3
PUCSBASE
350
908
  3
PUCSORGBACK
350
90E
  3
PUCSORGBOTTOM
350
90A
  3
PUCSORGFRONT
350
90D
  3
PUCSORGLEFT
350
90B
  3
PUCSORGRIGHT
350
90C
  3
PUCSORGTOP
350
909
  3
PUCSORTHOREF
350
906
  3
PUCSORTHOVIEW
350
907
  3
STYLESHEET
350
8FB
  3
TSTACKALIGN
350
8F8
  3
TSTACKSIZE
350
8F9
  3
UCSBASE
350
911
  3
UCSORGBACK
350
917
  3
UCSORGBOTTOM
350
913
  3
UCSORGFRONT
350
916
  3
UCSORGLEFT
350
914
  3
UCSORGRIGHT
350
915
  3
UCSORGTOP
350
912
  3
UCSORTHOREF
350
90F
  3
UCSORTHOVIEW
350
910
  3
VERSIONGUID
350
903
  0
XRECORD
  5
919
102
{ACAD_REACTORS
330
751
102
}
330
751
100
AcDbXrecord
340
18
  0
XRECORD
  5
918
102
{ACAD_REACTORS
330
74F
102
}
330
74F
100
AcDbXrecord
340
15
  0
MLINESTYLE
  5
1C
102
{ACAD_REACTORS
330
1B
102
}
330
1B
100
AcDbMlineStyle
  2
STANDARD
 70
     0
  3

 62
   256
 51
90.0
 52
90.0
 71
     2
 49
0.5
 62
   256
  6
BYLAYER
 49
-0.5
 62
   256
  6
BYLAYER
  0
ACDBPLACEHOLDER
  5
885
102
{ACAD_REACTORS
330
884
102
}
330
884
100
AcDbPlaceHolder
280
     0
  0
XRECORD
  5
901
102
{ACAD_REACTORS
330
8F7
102
}
330
8F7
100
AcDbXrecord
 90
        0
  0
XRECORD
  5
905
102
{ACAD_REACTORS
330
8F7
102
}
330
8F7
100
AcDbXrecord
1000
DSTYLE
1002
{
1070
   341
340
63
1070
   343
340
63
1070
   344
340
63
1002
}
  0
XRECORD
  5
902
102
{ACAD_REACTORS
330
8F7
102
}
330
8F7
100
AcDbXrecord
  1
{8BCA788D-11D6-4B9A-BF9D-338E0727DEF3}
  0
XRECORD
  5
8FA
102
{ACAD_REACTORS
330
8F7
102
}
330
8F7
100
AcDbXrecord
  1

  0
XRECORD
  5
900
102
{ACAD_REACTORS
330
8F7
102
}
330
8F7
100
AcDbXrecord
 90
        0
  0
XRECORD
  5
8FC
102
{ACAD_REACTORS
330
8F7
102
}
330
8F7
100
AcDbXrecord
340
3D5
  0
XRECORD
  5
8FF
102
{ACAD_REACTORS
330
8F7
102
}
330
8F7
100
AcDbXrecord
 90
    10781
  0
XRECORD
  5
8FD
102
{ACAD_REACTORS
330
8F7
102
}
330
8F7
100
AcDbXrecord
340
3D6
  0
XRECORD
  5
8FE
102
{ACAD_REACTORS
330
8F7
102
}
330
8F7
100
AcDbXrecord
340
884
  0
XRECORD
  5
904
102
{ACAD_REACTORS
330
8F7
102
}
330
8F7
100
AcDbXrecord
 40
0.0
  0
XRECORD
  5
908
102
{ACAD_REACTORS
330
8F7
102
}
330
8F7
100
AcDbXrecord
340
0
  0
XRECORD
  5
90E
102
{ACAD_REACTORS
330
8F7
102
}
330
8F7
100
AcDbXrecord
 10
0.0
 20
0.0
 30
0.0
  0
XRECORD
  5
90A
102
{ACAD_REACTORS
330
8F7
102
}
330
8F7
100
AcDbXrecord
 10
0.0
 20
0.0
 30
0.0
  0
XRECORD
  5
90D
102
{ACAD_REACTORS
330
8F7
102
}
330
8F7
100
AcDbXrecord
 10
0.0
 20
0.0
 30
0.0
  0
XRECORD
  5
90B
102
{ACAD_REACTORS
330
8F7
102
}
330
8F7
100
AcDbXrecord
 10
0.0
 20
0.0
 30
0.0
  0
XRECORD
  5
90C
102
{ACAD_REACTORS
330
8F7
102
}
330
8F7
100
AcDbXrecord
 10
0.0
 20
0.0
 30
0.0
  0
XRECORD
  5
909
102
{ACAD_REACTORS
330
8F7
102
}
330
8F7
100
AcDbXrecord
 10
0.0
 20
0.0
 30
0.0
  0
XRECORD
  5
906
102
{ACAD_REACTORS
330
8F7
102
}
330
8F7
100
AcDbXrecord
340
0
  0
XRECORD
  5
907
102
{ACAD_REACTORS
330
8F7
102
}
330
8F7
100
AcDbXrecord
 70
     0
  0
XRECORD
  5
8FB
102
{ACAD_REACTORS
330
8F7
102
}
330
8F7
100
AcDbXrecord
  1

  0
XRECORD
  5
8F8
102
{ACAD_REACTORS
330
8F7
102
}
330
8F7
100
AcDbXrecord
 90
        1
  0
XRECORD
  5
8F9
102
{ACAD_REACTORS
330
8F7
102
}
330
8F7
100
AcDbXrecord
 90
       70
  0
XRECORD
  5
911
102
{ACAD_REACTORS
330
8F7
102
}
330
8F7
100
AcDbXrecord
340
0
  0
XRECORD
  5
917
102
{ACAD_REACTORS
330
8F7
102
}
330
8F7
100
AcDbXrecord
 10
0.0
 20
0.0
 30
0.0
  0
XRECORD
  5
913
102
{ACAD_REACTORS
330
8F7
102
}
330
8F7
100
AcDbXrecord
 10
0.0
 20
0.0
 30
0.0
  0
XRECORD
  5
916
102
{ACAD_REACTORS
330
8F7
102
}
330
8F7
100
AcDbXrecord
 10
0.0
 20
0.0
 30
0.0
  0
XRECORD
  5
914
102
{ACAD_REACTORS
330
8F7
102
}
330
8F7
100
AcDbXrecord
 10
0.0
 20
0.0
 30
0.0
  0
XRECORD
  5
915
102
{ACAD_REACTORS
330
8F7
102
}
330
8F7
100
AcDbXrecord
 10
0.0
 20
0.0
 30
0.0
  0
XRECORD
  5
912
102
{ACAD_REACTORS
330
8F7
102
}
330
8F7
100
AcDbXrecord
 10
0.0
 20
0.0
 30
0.0
  0
XRECORD
  5
90F
102
{ACAD_REACTORS
330
8F7
102
}
330
8F7
100
AcDbXrecord
340
0
  0
XRECORD
  5
910
102
{ACAD_REACTORS
330
8F7
102
}
330
8F7
100
AcDbXrecord
 70
     0
  0
XRECORD
  5
903
102
{ACAD_REACTORS
330
8F7
102
}
330
8F7
100
AcDbXrecord
  1
{2104803F-4B31-49CF-B4C6-49E3DF213C3E}
  0
ENDSEC
  0
EOF
